osu file format v14

[General]
AudioFilename: audio.mp3
AudioLeadIn: 0
PreviewTime: 71576
Countdown: 0
SampleSet: Soft
StackLeniency: 0.4
Mode: 0
LetterboxInBreaks: 0
WidescreenStoryboard: 1

[Editor]
Bookmarks: 992,18935,36879,54823,72767,90711,99683,117627,135571,153515,171459,189403,207347,225291
DistanceSpacing: 1.1
BeatDivisor: 4
GridSize: 32
TimelineZoom: 1.26

[Metadata]
Title:Phosphor
TitleUnicode:Phosphor
Artist:mitei
ArtistUnicode:mitei
Creator:Mir
Version:Easy
Source:
Tags:hardcore utopia 3 hcutopia hcoreutopia dnb drum and bass wub electronic instrumental cubby captin1
BeatmapID:3089378
BeatmapSetID:1508502

[Difficulty]
HPDrainRate:2
CircleSize:3
OverallDifficulty:3
ApproachRate:5
SliderMultiplier:0.8
SliderTickRate:1

[Events]
//Background and Video events
0,0,"untitled2.jpg",0,0
//Break Periods
2,1192,8763
2,37079,49137
2,135771,152315
//Storyboard Layer 0 (Background)
//Storyboard Layer 1 (Fail)
//Storyboard Layer 2 (Pass)
//Storyboard Layer 3 (Foreground)
//Storyboard Layer 4 (Overlay)
//Storyboard Sound Samples

[TimingPoints]
992,280.373831775701,4,2,1,90,1,0
45851,-100,4,2,1,50,0,0
46412,-100,4,2,1,60,0,0
46973,-100,4,2,1,70,0,0
53702,-100,4,2,1,80,0,0
55244,-100,4,2,1,60,0,0
63795,-100,4,2,1,75,0,0
68281,-100,4,2,1,85,0,0
71646,-100,4,2,1,60,0,0
72767,-90.9090909090909,4,2,1,90,0,0
90711,-90.9090909090909,4,2,1,70,0,0
95197,-90.9090909090909,4,2,1,80,0,0
98562,-90.9090909090909,4,2,1,60,0,0
99683,-90.9090909090909,4,2,1,90,0,0
117627,-90.9090909090909,4,2,1,100,0,1
134449,-90.9090909090909,4,2,1,90,0,1
135571,-100,4,2,1,90,0,0
144543,-100,4,2,0,60,0,0
153515,-100,4,2,1,70,0,0
162487,-100,4,2,1,80,0,0
170898,-100,4,2,1,90,0,0
171459,-90.9090909090909,4,2,1,100,0,1
189122,-90.9090909090909,4,2,1,100,0,0
189403,-90.9090909090909,4,2,1,100,0,1
198375,-100,4,2,1,100,0,0
207347,-90.9090909090909,4,2,1,100,0,0

[Colours]
Combo1 : 173,225,255
Combo2 : 148,132,255
Combo3 : 249,104,104
Combo4 : 255,170,94
Combo5 : 150,146,141
Combo6 : 213,213,213

[HitObjects]
44,312,992,53,4,3:2:0:0:
406,180,9963,5,4,3:2:0:0:
286,196,10384,1,4,3:2:0:0:
63,84,14449,69,4,3:2:0:0:
461,308,18375,6,0,L|456:358,2,40,8|4|4,0:3|0:3|0:3,0:0:0:0:
393,264,18935,69,4,3:2:0:0:
243,357,19496,2,0,P|158:337|82:321,1,160,8|2,0:2|0:2,0:2:0:0:
28,255,20337,1,0,3:2:0:0:
83,186,20618,1,10,0:2:0:0:
40,15,21178,6,0,P|113:37|197:57,1,160,0|8,3:2|0:2,0:0:0:0:
274,19,22020,2,0,P|334:21|351:112,1,160,0|0,3:2|3:2,0:2:0:0:
284,159,22861,1,8,0:2:0:0:
453,205,23421,69,4,3:2:0:0:
404,374,23982,2,0,P|378:311|281:294,1,160,8|2,0:2|0:2,0:0:0:0:
231,350,24823,1,0,3:2:0:0:
149,317,25104,1,8,0:2:0:0:
257,178,25664,6,0,P|271:135|293:13,1,160,0|8,3:2|0:2,0:0:0:0:
203,16,26506,2,0,P|154:31|41:56,1,160,0|0,3:2|3:2,0:2:0:0:
7,133,27347,1,8,0:2:0:0:
176,179,27907,69,4,3:2:0:0:
39,289,28468,2,0,P|63:360|138:363,1,160,8|2,0:2|0:2,0:2:0:0:
203,303,29309,1,0,3:2:0:0:
278,348,29590,1,8,0:2:0:0:
435,270,30150,6,0,P|444:221|477:102,1,160,0|8,3:2|0:2,0:0:0:0:
395,71,30992,2,0,P|334:66|308:158,1,160,0|0,3:2|3:2,0:2:0:0:
359,214,31833,1,10,0:2:0:0:
256,356,32393,69,6,3:2:0:0:
80,369,32954,2,0,P|66:304|43:203,1,160,8|0,0:2|0:2,0:0:0:0:
10,131,33795,1,0,3:2:0:0:
59,58,34076,1,8,0:2:0:0:
138,214,34636,6,0,P|202:229|299:240,1,160,4|8,3:2|0:2,0:2:0:0:
456,60,36319,2,0,L|467:11,2,40,8|8|4,0:3|0:3|0:3,0:0:0:0:
512,126,36879,1,4,3:2:0:0:
256,192,50337,12,0,53702,1:2:0:0:
64,378,55244,70,0,P|57:323|50:284,1,80,2|2,0:2|0:2,0:2:0:0:
127,252,55805,2,0,P|134:197|141:158,1,80,2|2,0:2|0:2,0:2:0:0:
74,112,56365,2,0,P|67:57|60:18,1,80,2|2,0:2|0:2,0:2:0:0:
238,31,57206,6,0,P|281:46|332:60,1,80,2|2,0:0|0:0,0:0:0:0:
360,130,57767,2,0,P|321:141|283:154,1,80,2|2,0:0|0:0,0:0:0:0:
252,237,58328,2,0,P|250:284|243:330,1,80,2|2,0:0|0:0,0:0:0:0:
310,375,58889,1,2,0:0:0:0:
374,315,59169,1,2,0:0:0:0:
453,353,59449,70,0,P|490:319|492:282,1,80,2|2,0:0|0:0,0:0:0:0:
466,207,60010,2,0,P|457:162|451:115,1,80,2|2,0:0|0:0,0:0:0:0:
504,56,60571,2,0,P|470:36|432:42,1,80,2|2,0:0|0:0,0:0:0:0:
369,103,61132,1,2,0:0:0:0:
211,25,61692,6,0,P|223:84|229:118,1,80,2|2,0:0|0:0,0:0:0:0:
256,191,62253,1,2,0:0:0:0:
256,191,62534,2,0,P|249:228|239:285,2,80,2|2|2,0:0|0:0|0:0,0:0:0:0:
170,169,63375,1,2,0:0:0:0:
101,56,63795,70,0,L|14:64,1,80,8|8,1:2|1:2,0:0:0:0:
5,150,64356,2,0,L|92:158,1,80,8|8,1:2|1:2,0:0:0:0:
116,239,64917,2,0,L|127:284,2,40,8|8|8,1:2|1:2|1:2,0:0:0:0:
201,217,65477,1,8,1:2:0:0:
287,233,65758,1,8,1:2:0:0:
362,186,66038,6,0,P|408:167|446:187,1,80,8|8,1:2|1:2,0:0:0:0:
502,232,66599,2,0,P|489:278|480:315,1,80,8|8,1:2|1:2,0:0:0:0:
401,346,67160,2,0,P|410:380|415:400,2,40,8|8|8,1:2|1:2|1:2,0:0:0:0:
321,308,67720,1,8,1:2:0:0:
244,352,68001,1,8,1:2:0:0:
170,304,68281,69,8,3:2:0:0:
256,192,68562,12,2,71646,0:2:0:0:
16,76,72767,38,0,L|196:57,1,176.000005371094,4|8,3:2|0:2,0:2:0:0:
267,13,73608,2,0,L|414:42,2,132.00000402832,0|0|10,3:2|3:2|0:2,0:0:0:0:
191,57,74730,1,2,0:3:0:0:
259,112,75010,70,0,B|290:151|290:151|269:293,1,176.000005371094,0|8,3:2|0:2,0:2:0:0:
262,363,75851,1,2,3:2:0:0:
348,348,76132,1,2,0:2:0:0:
434,333,76412,1,2,0:3:0:0:
469,252,76692,2,0,L|529:265,2,44.0000013427735,8|0|8,0:2|3:2|0:2,0:0:0:0:
419,179,77253,5,0,3:2:0:0:
476,112,77534,1,8,3:2:0:0:
424,40,77814,2,0,L|326:55,1,88.000002685547,2|10,3:2|3:2,0:2:0:0:
291,128,78375,2,0,L|193:113,1,88.000002685547,2|10,3:2|3:2,0:2:0:0:
144,49,78935,2,0,L|46:64,1,88.000002685547,2|8,3:2|3:2,0:0:0:0:
6,134,79496,69,0,3:2:0:0:
67,197,79777,1,8,3:2:0:0:
38,280,80057,2,0,P|17:345|13:358,1,58.6666684570313,2|2,3:3|3:3,0:2:0:0:
130,374,80618,2,0,P|139:346|148:318,1,58.6666684570313,2|2,3:3|3:3,0:2:0:0:
234,238,81178,1,2,0:3:0:0:
314,274,81459,1,2,0:3:0:0:
389,228,81739,6,0,L|491:207,1,88.000002685547,4|0,3:2|0:0,0:2:0:0:
497,124,82300,1,8,0:2:0:0:
445,53,82580,2,0,B|381:43|381:43|356:22|356:22|308:15,2,132.00000402832,0|0|8,3:2|3:2|0:2,0:2:0:0:
497,124,83702,1,2,0:3:0:0:
478,209,83982,69,2,3:3:0:0:
319,133,84543,1,8,0:2:0:0:
249,187,84823,2,0,P|178:166|107:151,2,132.00000402832,0|0|8,3:2|3:2|0:2,0:0:0:0:
298,260,85945,1,8,0:2:0:0:
252,335,86225,5,4,3:2:0:0:
167,359,86506,2,0,P|120:347|68:339,1,88.000002685547,8|0,0:2|3:2,0:2:0:0:
40,262,87066,2,0,P|87:250|139:242,1,88.000002685547,8|0,0:2|0:2,0:2:0:0:
185,178,87627,1,8,0:2:0:0:
132,107,87907,1,0,3:2:0:0:
179,32,88188,1,8,0:2:0:0:
263,54,88468,70,0,L|359:70,1,88.000002685547,8|8,0:2|0:2,0:2:0:0:
409,133,89029,2,0,L|505:117,1,88.000002685547,8|8,0:2|0:2,0:2:0:0:
504,206,89590,2,0,P|489:258|466:350,2,132.00000402832,0|0|0,3:2|3:2|3:2,0:2:0:0:
495,118,90711,53,0,1:2:0:0:
319,102,91272,1,0,1:2:0:0:
198,230,91833,1,0,1:2:0:0:
22,214,92394,1,0,1:2:0:0:
127,73,92954,5,0,1:2:0:0:
107,247,93515,1,0,1:2:0:0:
266,171,94076,1,0,1:2:0:0:
286,0,94637,1,0,1:2:0:0:
358,49,94917,1,0,1:2:0:0:
438,14,95197,69,2,3:2:0:0:
256,192,95477,12,0,98562,0:2:0:0:
29,331,99683,37,4,3:2:0:0:
75,256,99963,2,0,L|181:273,1,88.000002685547,2|8,0:3|0:2,0:2:0:0:
211,342,100524,2,0,P|270:346|318:243,1,176.000005371094,0|2,3:2|0:2,0:0:0:0:
272,181,101365,2,0,L|262:104,2,58.6666684570313,8|2|2,0:2|0:3|0:3,0:2:0:0:
325,155,101926,70,0,L|421:172,1,88.000002685547,0|2,3:2|0:3,0:0:0:0:
497,190,102487,1,10,0:2:0:0:
500,277,102767,2,0,L|516:331,2,44.0000013427735,0|2|2,3:2|0:1|0:3,0:2:0:0:
412,290,103328,1,2,0:3:0:0:
305,368,103749,1,10,0:2:0:0:
208,277,104169,6,0,L|192:181,2,88.000002685547,4|4|10,3:2|3:2|0:2,0:2:0:0:
154,347,105010,2,0,P|86:354|54:290,1,132.00000402832,4|2,3:2|3:3,0:2:0:0:
56,174,105851,2,0,L|-15:156,2,58.6666684570313,10|2|2,0:2|0:3|0:3,0:2:0:0:
93,128,106412,1,6,0:2:0:0:
199,206,106833,69,8,0:2:0:0:
329,189,107253,1,8,0:2:0:0:
459,172,107674,1,8,0:2:0:0:
450,40,108094,2,0,P|399:48|355:53,1,88.000002685547,10|2,0:2|0:2,0:0:0:0:
285,10,108655,6,0,L|261:188,1,176.000005371094,4|8,3:2|0:2,0:2:0:0:
313,255,109496,2,0,L|368:267,2,44.0000013427735,0|0|2,3:2|0:0|0:3,0:2:0:0:
257,323,110057,2,0,L|202:335,1,44.0000013427735,2|2,0:3|0:3,0:2:0:0:
137,374,110477,2,0,L|82:362,2,44.0000013427735,2|2|2,0:3|0:3|0:3,0:2:0:0:
89,250,111178,70,0,L|78:189,1,44.0000013427735,2|2,0:3|0:3,0:2:0:0:
60,120,111599,1,2,0:3:0:0:
167,42,112020,2,0,L|174:-1,2,44.0000013427735,2|0|2,0:3|3:2|0:3,0:2:0:0:
225,107,112580,1,8,0:2:0:0:
308,78,112861,1,4,0:3:0:0:
382,125,113141,6,0,L|480:144,2,88.000002685547,0|8|2,3:2|0:2|0:3,0:0:0:0:
329,195,113982,2,0,P|319:241|299:336,1,132.00000402832,8|0,0:2|3:2,0:0:0:0:
223,366,114683,2,0,P|181:351|88:329,1,132.00000402832,0|8,3:2|0:2,0:2:0:0:
39,263,115384,69,8,0:2:0:0:
79,184,115664,1,8,0:2:0:0:
32,108,115945,1,8,0:2:0:0:
76,32,116225,1,8,0:2:0:0:
161,51,116506,2,0,P|207:64|277:7,2,132.00000402832,0|0|0,3:2|3:2|3:2,1:2:0:0:
76,32,117627,21,4,3:2:0:0:
24,103,117907,2,0,P|39:164|46:204,1,88.000002685547,12|2,0:2|0:2,0:2:0:0:
41,276,118468,1,10,0:2:0:0:
114,325,118749,2,0,L|101:372,2,44.0000013427735,2|2|8,0:2|3:2|0:2,0:0:0:0:
177,264,119309,1,2,0:3:0:0:
137,185,119590,1,10,0:2:0:0:
194,118,119870,5,0,3:2:0:0:
273,155,120150,2,0,P|324:164|451:191,1,176.000005371094,8|8,0:2|0:2,0:0:0:0:
481,270,120992,2,0,L|489:321,2,44.0000013427735,2|2|10,0:3|3:3|0:2,0:2:0:0:
396,293,121552,2,0,L|402:336,2,44.0000013427735,2|2|10,0:3|3:3|0:2,0:2:0:0:
314,326,122113,69,4,3:2:0:0:
236,368,122393,2,0,P|201:348|152:332,1,88.000002685547,12|0,0:2|0:0,0:0:0:0:
68,345,122954,2,0,P|33:304|62:236,1,132.00000402832,10|2,0:2|3:2,0:2:0:0:
163,155,123795,2,0,L|177:53,2,88.000002685547,2|8|2,0:3|0:2|3:2,0:2:0:0:
295,163,124777,2,0,L|433:143,2,132.00000402832,4|8|8,0:1|0:2|0:2,0:2:0:0:
258,289,126038,1,10,0:2:0:0:
321,350,126319,1,10,0:2:0:0:
394,301,126599,5,4,3:2:0:0:
468,347,126879,2,0,P|510:313|504:267,1,88.000002685547,12|2,0:2|0:3,0:2:0:0:
477,200,127440,2,0,L|425:189,1,44.0000013427735,10|2,0:2|0:3,0:2:0:0:
347,171,127861,1,2,3:3:0:0:
360,84,128141,2,0,L|412:73,2,44.0000013427735,2|2|0,0:3|0:3|3:2,0:2:0:0:
298,20,128702,1,2,0:3:0:0:
172,60,129122,70,0,L|161:117,1,44.0000013427735,10|2,0:2|0:3,0:2:0:0:
149,190,129543,1,2,3:3:0:0:
43,269,129963,2,0,L|-8:283,2,44.0000013427735,2|0|10,0:3|3:2|0:2,0:2:0:0:
109,326,130524,1,2,0:3:0:0:
186,284,130805,1,10,0:2:0:0:
270,307,131085,6,0,L|293:207,1,88.000002685547,0|10,3:2|0:2,0:2:0:0:
304,134,131646,2,0,L|261:102,2,44.0000013427735,2|2|10,0:2|3:2|0:2,0:2:0:0:
438,20,132487,2,0,P|484:48|489:96,1,88.000002685547,8|2,0:2|0:2,0:0:0:0:
454,158,133048,1,10,0:2:0:0:
504,230,133328,70,0,L|491:329,1,88.000002685547,8|8,0:2|0:2,0:0:0:0:
416,362,133889,2,0,L|403:263,1,88.000002685547,8|8,0:2|0:2,0:0:0:0:
320,247,134449,2,0,B|177:232|246:373|75:346,1,264.000008056641,0|2,3:2|0:2,0:2:0:0:
33,284,135571,1,6,3:2:0:0:
59,84,153515,21,4,3:2:0:0:
146,95,153795,1,0,3:2:0:0:
175,178,154076,1,0,3:2:0:0:
262,167,154356,1,0,3:2:0:0:
309,92,154636,1,2,3:2:0:0:
396,103,154916,1,0,3:2:0:0:
425,186,155197,1,0,3:2:0:0:
512,175,155477,1,0,3:2:0:0:
500,306,155898,5,2,0:2:0:0:
417,337,156178,1,2,0:2:0:0:
338,377,156459,1,2,0:2:0:0:
255,346,156739,1,2,0:2:0:0:
243,258,157020,1,2,0:2:0:0:
160,289,157300,1,2,0:2:0:0:
81,329,157581,1,2,0:2:0:0:
0,298,157861,2,0,P|10:255|19:214,1,80,2|2,0:2|0:2,0:2:0:0:
33,133,158421,69,2,0:2:0:0:
117,106,158702,1,2,0:2:0:0:
142,21,158982,1,2,0:2:0:0:
226,48,159263,1,2,0:2:0:0:
249,132,159543,1,2,0:2:0:0:
333,105,159824,1,2,0:2:0:0:
188,204,160384,5,2,0:2:0:0:
210,289,160664,1,2,0:2:0:0:
283,337,160945,1,2,0:2:0:0:
305,252,161225,1,2,0:2:0:0:
386,217,161506,1,2,0:2:0:0:
408,302,161786,1,2,0:2:0:0:
473,242,162067,1,2,0:2:0:0:
256,192,162487,12,2,170337,0:2:0:0:
11,115,171459,38,0,L|106:104,1,88.000002685547,4|10,3:2|3:2,0:2:0:0:
155,26,172020,2,0,L|250:37,1,88.000002685547,0|10,3:2|3:2,0:0:0:0:
301,112,172580,2,0,P|305:162|310:213,1,88.000002685547,2|10,3:2|3:2,0:2:0:0:
231,258,173141,1,0,3:2:0:0:
162,190,173421,1,10,3:2:0:0:
84,248,173702,5,2,3:2:0:0:
102,342,173982,2,0,L|42:360,2,44.0000013427735,8|2|2,3:2|0:2|3:2,0:0:0:0:
198,348,174543,1,10,3:2:0:0:
231,257,174823,2,0,L|326:279,1,88.000002685547,2|10,0:2|3:2,0:2:0:0:
385,208,175384,2,0,L|432:197,2,44.0000013427735,2|2|10,3:2|0:2|3:2,0:0:0:0:
301,159,175945,70,0,L|285:66,1,88.000002685547,2|10,3:2|3:2,0:2:0:0:
199,27,176506,1,2,3:2:0:0:
117,78,176786,1,10,3:2:0:0:
29,36,177066,2,0,L|14:129,1,88.000002685547,2|10,3:2|3:2,0:2:0:0:
84,191,177627,1,2,3:2:0:0:
39,277,177907,1,8,3:2:0:0:
92,357,178188,6,0,L|189:328,1,88.000002685547,2|10,3:2|3:2,0:2:0:0:
232,252,178749,2,0,L|285:267,2,44.0000013427735,2|2|8,3:2|0:2|3:2,0:0:0:0:
184,167,179309,1,0,3:2:0:0:
260,43,179730,2,0,L|339:60,2,66.0000020141602,2|2|10,3:2|3:3|0:2,0:2:0:0:
169,80,180431,70,0,L|184:171,1,88.000002685547,4|10,3:2|3:2,0:2:0:0:
105,224,180992,2,0,L|90:315,1,88.000002685547,0|10,3:2|3:2,0:0:0:0:
175,357,181552,1,2,3:2:0:0:
254,301,181833,1,10,3:2:0:0:
342,339,182113,2,0,L|332:388,2,44.0000013427735,2|2|10,3:2|0:2|3:2,0:0:0:0:
421,281,182674,5,2,3:2:0:0:
351,213,182954,2,0,L|341:164,2,44.0000013427735,8|2|2,3:2|0:2|3:2,0:0:0:0:
277,276,183515,1,10,3:2:0:0:
208,207,183795,2,0,L|195:111,1,88.000002685547,2|10,3:2|3:2,0:2:0:0:
148,35,184356,2,0,L|87:18,2,44.0000013427735,2|2|10,3:2|0:2|3:2,0:0:0:0:
241,7,184917,70,0,B|306:26|306:26|312:61|312:61|386:84,1,176.000005371094,0|8,3:2|3:2,0:0:0:0:
509,227,186038,2,0,B|490:292|490:292|455:298|455:298|432:372,1,176.000005371094,0|8,3:2|0:2,0:0:0:0:
239,374,187160,5,10,3:2:0:0:
221,278,187440,1,10,3:2:0:0:
291,211,187720,1,10,3:2:0:0:
309,115,188000,1,8,3:2:0:0:
251,36,188281,2,0,L|156:50,1,88.000002685547,2|0,3:2|0:2,0:0:0:0:
67,62,188842,2,0,L|50:156,1,88.000002685547,2|10,3:2|0:2,0:2:0:0:
36,244,189403,69,2,3:2:0:0:
130,222,189683,1,8,3:2:0:0:
199,289,189963,2,0,L|216:380,1,88.000002685547,0|10,3:2|3:2,0:0:0:0:
309,351,190524,1,2,3:2:0:0:
383,288,190805,1,10,3:2:0:0:
476,315,191085,2,0,L|523:329,2,44.0000013427735,2|2|10,3:2|0:2|3:2,0:0:0:0:
454,220,191646,5,2,3:2:0:0:
365,180,191926,2,0,L|318:194,2,44.0000013427735,10|2|2,3:2|0:2|3:2,0:0:0:0:
421,101,192487,1,10,3:2:0:0:
360,25,192767,2,0,L|265:41,1,88.000002685547,2|10,3:2|3:2,0:2:0:0:
177,55,193328,2,0,L|156:0,2,44.0000013427735,2|2|10,3:2|0:2|3:2,0:0:0:0:
243,126,193889,70,0,P|255:175|265:221,1,88.000002685547,2|10,3:2|3:2,0:2:0:0:
341,268,194449,2,0,P|329:317|319:363,1,88.000002685547,2|10,3:2|3:2,0:2:0:0:
227,378,195010,2,0,P|179:352|137:345,1,88.000002685547,2|10,3:2|3:2,0:2:0:0:
55,379,195571,1,2,3:2:0:0:
9,293,195851,1,8,3:2:0:0:
69,216,196132,2,0,L|60:120,2,88.000002685547,2|10|2,3:2|3:2|3:2,0:2:0:0:
159,249,196973,1,10,3:2:0:0:
239,195,197253,5,2,3:2:0:0:
317,251,197534,2,0,P|380:263|442:107,1,264.000008056641,10|0,3:2|3:2,0:0:0:0:
383,47,198655,53,8,0:2:0:0:
296,64,198935,1,8,0:2:0:0:
228,7,199216,1,8,0:2:0:0:
143,29,199496,2,0,L|130:109,1,80,8|8,0:2|0:2,0:2:0:0:
43,121,200057,2,0,L|56:201,1,80,8|8,0:2|0:2,0:2:0:0:
43,287,200618,2,0,L|1:304,2,40,0|0|8,3:2|3:2|0:2,0:0:0:0:
125,256,201178,69,8,0:2:0:0:
206,289,201459,1,8,0:2:0:0:
228,373,201739,1,8,0:2:0:0:
309,340,202020,1,8,0:2:0:0:
343,259,202300,2,0,L|334:216,2,40,8|0|0,1:2|1:2|1:2,0:0:0:0:
413,311,202861,6,0,P|493:301|492:223,1,160,8|0,3:2|0:2,0:0:0:0:
362,123,203982,2,0,P|282:113|283:35,1,160,8|0,3:2|0:2,0:0:0:0:
437,42,205104,6,0,L|451:135,1,80,8|10,1:2|3:2,0:2:0:0:
411,200,205664,2,0,L|397:293,1,80,10|8,3:2|3:2,0:0:0:0:
349,351,206225,2,0,B|218:333|281:227|145:227,1,240,0|0,3:2|0:2,0:2:0:0:
65,194,207347,70,0,L|247:152,1,176.000005371094,4|10,3:2|0:2,0:2:0:0:
292,85,208188,2,0,P|309:43|395:17,2,132.00000402832,0|0|10,3:2|3:2|0:2,0:0:0:0:
333,162,209309,1,2,0:2:0:0:
414,127,209590,1,0,3:2:0:0:
496,310,210150,69,8,0:2:0:0:
425,363,210431,2,0,L|287:333,2,132.00000402832,0|0|8,3:2|3:2|0:2,0:2:0:0:
496,310,211552,5,8,0:2:0:0:
422,261,211833,1,4,3:2:0:0:
465,184,212113,1,12,3:2:0:0:
433,102,212393,2,0,L|335:87,1,88.000002685547,0|8,3:2|3:2,0:0:0:0:
275,35,212954,2,0,L|188:48,1,88.000002685547,0|8,3:2|3:2,0:0:0:0:
111,98,213515,2,0,L|24:84,1,88.000002685547,0|8,3:2|3:2,0:0:0:0:
2,179,214076,69,0,3:2:0:0:
88,191,214356,1,8,3:2:0:0:
147,256,214636,2,0,L|164:336,1,58.6666684570313,0|0,3:2|3:2,0:2:0:0:
273,286,215197,2,0,L|290:366,1,58.6666684570313,0|0,3:2|3:2,0:2:0:0:
402,351,215758,1,2,3:2:0:0:
464,288,216038,1,2,0:2:0:0:
408,219,216319,6,0,B|340:229|340:229|329:259|329:259|246:271,1,176.000005371094,0|8,3:2|0:2,0:2:0:0:
189,210,217160,2,0,L|50:192,2,132.00000402832,0|0|8,3:2|3:2|0:2,0:0:0:0:
235,135,218281,1,2,0:3:0:0:
182,63,218562,1,2,3:2:0:0:
353,23,219122,69,8,0:2:0:0:
415,84,219403,2,0,P|481:71|501:4,2,132.00000402832,0|0|10,3:2|3:2|0:2,0:0:0:0:
353,23,220524,5,8,0:2:0:0:
305,97,220805,1,4,3:2:0:0:
361,164,221085,2,0,P|372:234|375:271,1,88.000002685547,8|0,0:2|3:2,0:2:0:0:
461,252,221646,2,0,P|450:322|447:359,1,88.000002685547,8|0,0:2|0:3,0:2:0:0:
361,354,222206,2,0,P|303:336|258:324,1,88.000002685547,8|0,0:2|3:2,0:0:0:0:
206,275,222767,1,8,0:2:0:0:
139,216,223048,70,0,L|129:167,2,44.0000013427735,8|0|8,3:2|3:2|3:2,0:0:0:0:
52,232,223608,2,0,L|42:183,2,44.0000013427735,8|0|8,3:2|3:2|3:2,0:0:0:0:
13,311,224169,1,4,3:2:0:0:
257,57,225291,53,2,0:3:0:0:
