osu file format v14

[General]
AudioFilename: miss A (Only You) M_V.mp3
AudioLeadIn: 0
PreviewTime: 57147
Countdown: 0
SampleSet: Soft
StackLeniency: 0.7
Mode: 0
LetterboxInBreaks: 1
WidescreenStoryboard: 0

[Editor]
DistanceSpacing: 1.5
BeatDivisor: 4
GridSize: 4
TimelineZoom: 2.3

[Metadata]
Title:Only You
TitleUnicode:다른 남자 말고 너
Artist:miss A
ArtistUnicode:미쓰에이
Creator:UnitedWeSin
Version:Insane
Source:
Tags:kpop uws
BeatmapID:947647
BeatmapSetID:440444

[Difficulty]
HPDrainRate:7
CircleSize:4
OverallDifficulty:8
ApproachRate:9
SliderMultiplier:1.8
SliderTickRate:2

[Events]
//Background and Video events
0,0,"bg.jpg",0,0
//Break Periods
2,150569,154769
//Storyboard Layer 0 (Background)
//Storyboard Layer 1 (Fail)
//Storyboard Layer 2 (Pass)
//Storyboard Layer 3 (Foreground)
//Storyboard Sound Samples

[TimingPoints]
370,357.142857142857,4,2,1,60,1,0
8941,-133.333333333333,4,2,1,60,0,0
10369,-133.333333333333,4,2,1,50,0,0
10727,-133.333333333333,4,2,1,45,0,0
11084,-133.333333333333,4,2,1,40,0,0
11441,-133.333333333333,4,2,0,30,0,0
11798,-133.333333333333,4,2,1,60,0,0
22155,-133.333333333333,4,2,0,40,0,0
23227,-125,4,2,1,50,0,0
46084,-133.333333333333,4,2,1,40,0,0
56084,-133.333333333333,4,2,1,50,0,0
56441,-133.333333333333,4,2,1,45,0,0
56798,-133.333333333333,4,2,1,40,0,0
57512,-100,4,2,1,60,0,1
80369,-100,4,2,0,40,0,0
81084,-200,4,2,0,30,0,0
81798,-133.333333333333,4,2,1,60,0,0
93227,-133.333333333333,4,2,1,50,0,0
101084,-133.333333333333,4,2,0,50,0,0
103048,-133.333333333333,4,2,1,50,0,0
104655,-125,4,2,1,60,0,0
116084,-133.333333333333,4,2,1,40,0,0
126084,-133.333333333333,4,2,1,50,0,0
126441,-133.333333333333,4,2,1,45,0,0
126798,-133.333333333333,4,2,1,40,0,0
127512,-100,4,2,1,60,0,1
150369,-133.333333333333,4,2,1,40,0,0
155369,-133.333333333333,4,2,0,50,0,0
161441,-133.333333333333,4,2,1,50,0,0
161798,-100,4,2,1,60,0,1
184655,-100,4,2,0,40,0,0
185369,-200,4,2,0,30,0,0
186084,-133.333333333333,4,2,1,60,0,0

[Colours]
Combo1 : 192,192,192
Combo2 : 255,28,141
Combo3 : 0,128,192

[HitObjects]
372,120,8941,5,0,0:0:0:0:
392,144,9477,1,0,0:0:0:0:
392,144,9655,2,0,L|392:232,1,67.5000025749208
476,84,10012,2,0,L|476:172,1,67.5000025749208
312,280,10369,5,2,0:0:0:0:
312,280,10489,2,0,L|312:224,1,45.0000017166138,2|0,0:0|0:0,0:0:0:0:
200,104,10727,1,8,0:3:0:0:
200,104,10847,2,0,L|200:160,1,45.0000017166138,2|0,0:0|0:0,0:0:0:0:
168,248,11084,1,4,0:3:0:0:
168,248,11204,2,0,L|224:248,1,45.0000017166138,2|0,0:0|0:0,0:0:0:0:
344,136,11441,6,0,L|272:136,1,67.5000025749208,2|0,2:0|0:0,0:0:0:0:
192,336,11798,6,0,B|240:338|240:338|269:315|269:315|334:315,1,135.000005149842,4|0,0:1|0:0,0:0:0:0:
404,360,12334,1,2,0:0:0:0:
480,272,12512,2,0,L|400:272,1,67.5000025749208,0|0,1:0|0:0,0:0:0:0:
328,228,12869,1,0,0:0:0:0:
380,96,13048,2,0,P|396:132|392:164,1,67.5000025749208,2|0,0:0|0:0,0:0:0:0:
328,228,13405,1,0,0:0:0:0:
288,68,13584,6,0,L|304:144,1,67.5000025749208,2|0,0:0|0:0,0:0:0:0:
228,340,13941,2,0,L|212:264,1,67.5000025749208,8|0,0:0|0:0,0:0:0:0:
388,272,14298,2,0,P|356:260|312:264,1,67.5000025749208
98,329,14655,6,0,P|158:349|234:337,1,135.000005149842,2|0,0:0|0:0,0:0:0:0:
252,240,15191,1,2,0:0:0:0:
88,220,15369,2,0,L|108:144,1,67.5000025749208,8|0,0:0|0:0,0:0:0:0:
172,76,15727,1,0,0:0:0:0:
308,200,15905,2,0,P|346:208|382:196,1,67.5000025749208,2|0,0:0|0:0,0:0:0:0:
268,84,16262,1,0,0:0:0:0:
216,240,16441,2,0,L|208:324,1,67.5000025749208,2|0,0:0|0:0,0:0:0:0:
376,112,16798,2,0,L|368:44,1,67.5000025749208,8|0,0:0|0:0,0:0:0:0:
184,164,17155,5,0,0:0:0:0:
132,48,17334,1,0,0:0:0:0:
184,164,17512,2,0,L|168:268,1,67.5000025749208,4|0,0:1|0:0,0:0:0:0:
104,304,17869,1,0,0:0:0:0:
132,48,18048,1,2,0:0:0:0:
184,164,18227,2,0,P|224:184|260:184,1,67.5000025749208,8|0,0:0|0:0,0:0:0:0:
240,84,18584,1,0,0:0:0:0:
104,208,18762,2,0,P|92:172|96:136,2,67.5000025749208,2|0|0,0:0|0:0|0:0,0:0:0:0:
184,352,19298,6,0,P|185:317|158:268,1,67.5000025749208,2|0,0:0|0:0,0:0:0:0:
272,60,19655,2,0,P|260:124|280:192,1,135.000005149842,8|0,0:0|0:0,0:0:0:0:
400,116,20191,1,0,0:0:0:0:
184,36,20369,5,2,0:0:0:0:
184,36,20548,1,0,0:0:0:0:
280,192,20727,1,0,0:0:0:0:
104,124,20905,1,2,0:0:0:0:
296,72,21084,5,8,0:0:0:0:
296,72,21262,1,0,0:0:0:0:
164,224,21441,1,0,0:0:0:0:
184,36,21619,1,0,0:0:0:0:
256,248,22155,5,0,0:0:0:0:
288,100,22334,1,2,0:0:0:0:
288,100,22512,2,0,L|272:176,1,67.5000025749208,2|0,0:0|0:0,0:0:0:0:
328,328,22869,2,0,L|340:256,1,67.5000025749208,2|0,0:0|0:0,0:0:0:0:
424,64,23227,6,0,L|412:136,1,72,2|0,0:0|0:0,0:0:0:0:
444,240,23584,1,0,0:0:0:0:
412,135,23762,1,2,0:0:0:0:
412,316,23941,2,0,P|376:288|364:256,1,72,8|0,0:0|0:0,0:0:0:0:
328,120,24298,2,0,P|320:156|288:196,1,72,0|2,0:0|0:0,0:0:0:0:
196,212,24655,5,0,0:0:0:0:
240,112,24834,1,0,0:0:0:0:
272,264,25012,2,0,L|264:348,1,72,2|0,0:0|0:0,0:0:0:0:
108,208,25369,2,0,L|116:128,1,72,8|0,0:0|0:0,0:0:0:0:
284,128,25727,1,0,0:0:0:0:
196,212,25905,1,2,0:0:0:0:
208,36,26084,6,0,L|200:107,1,72,2|0,0:0|0:0,0:0:0:0:
180,304,26441,1,0,0:0:0:0:
272,248,26619,1,2,0:0:0:0:
100,244,26798,2,0,P|132:216|168:208,1,72,8|0,0:0|0:0,0:0:0:0:
360,292,27155,2,0,P|328:320|292:328,1,72,0|2,0:0|0:0,0:0:0:0:
280,144,27512,5,0,0:0:0:0:
376,192,27691,1,0,0:0:0:0:
360,36,27869,2,0,L|356:108,1,72,2|0,0:0|0:0,0:0:0:0:
264,28,28227,1,8,0:0:0:0:
264,28,28405,1,0,0:0:0:0:
432,144,28584,1,0,0:0:0:0:
336,188,28762,1,2,0:0:0:0:
192,108,28941,6,0,P|236:116|264:136,1,72,2|0,0:0|0:0,0:0:0:0:
296,284,29298,1,0,0:0:0:0:
256,128,29477,1,2,0:0:0:0:
208,292,29655,2,0,P|214:253|236:216,1,72,8|0,0:0|0:0,0:0:0:0:
380,280,30012,2,0,P|373:318|352:356,1,72,0|2,0:0|0:0,0:0:0:0:
332,180,30369,5,0,0:0:0:0:
296,284,30548,1,0,0:0:0:0:
428,168,30727,2,0,P|460:204|468:244,1,72,2|0,0:0|0:0,0:0:0:0:
340,88,31084,2,0,L|348:8,1,72,8|0,0:0|0:0,0:0:0:0:
384,240,31441,5,0,0:0:0:0:
296,180,31619,1,2,0:0:0:0:
216,320,31798,2,0,P|176:324|128:304,1,72,2|0,0:0|0:0,0:0:0:0:
72,176,32155,2,0,L|84:252,1,72,0|2,0:0|0:0,0:0:0:0:
248,152,32512,2,0,L|259:80,1,72,8|0,0:0|0:0,0:0:0:0:
36,96,32869,2,0,P|67:88|109:99,1,72,0|2,0:0|0:0,0:0:0:0:
248,152,33227,1,0,0:0:0:0:
176,236,33405,1,0,0:0:0:0:
143,41,33584,2,0,L|136:112,1,72,2|0,0:0|0:0,0:0:0:0:
120,304,33941,6,0,P|96:272|88:224,1,72,8|0,0:0|0:0,0:0:0:0:
216,324,34298,2,0,P|200:360|162:391,1,72,0|2,0:0|0:0,0:0:0:0:
256,192,34655,5,2,0:0:0:0:
256,192,35012,2,0,L|268:264,1,72,0|2,0:0|0:0,0:0:0:0:
148,164,35369,2,0,L|160:56,1,96,8|0,0:0|0:0,0:0:0:0:
228,44,35727,1,0,0:0:0:0:
356,212,35905,6,0,P|356:164|340:132,1,72,2|0,0:0|0:0,0:0:0:0:
168,244,36262,1,0,0:0:0:0:
252,336,36441,2,0,P|296:308|348:300,1,96,2|0,0:0|0:0,0:0:0:0:
400,344,36798,2,0,P|446:334|486:307,1,96,8|0,0:0|0:0,0:0:0:0:
484,232,37155,1,0,0:0:0:0:
400,344,37334,1,2,0:0:0:0:
384,120,37512,6,0,L|380:208,1,72,2|0,0:0|0:0,0:0:0:0:
224,32,37869,2,0,L|228:120,1,72,0|2,0:0|0:0,0:0:0:0:
284,312,38227,2,0,P|272:248|248:216,1,96,8|0,0:0|0:0,0:0:0:0:
180,204,38584,1,0,0:0:0:0:
96,304,38762,6,0,P|136:308|172:300,1,72,2|0,0:0|0:0,0:0:0:0:
296,148,39119,2,0,P|256:138|220:141,1,72,0|2,0:0|0:0,0:0:0:0:
68,220,39477,1,0,0:0:0:0:
112,52,39655,2,0,L|132:140,1,72,8|0,0:0|0:0,0:0:0:0:
248,316,40012,1,0,0:0:0:0:
296,148,40191,1,2,0:0:0:0:
144,236,40369,6,0,B|192:244|192:244|240:224|240:224|288:236,1,144,2|0,0:0|0:0,0:0:0:0:
348,328,40905,1,2,0:0:0:0:
464,236,41084,2,0,P|472:192|464:144,1,72,8|0,0:0|0:0,0:0:0:0:
352,332,41441,1,0,0:0:0:0:
456,360,41619,1,2,0:0:0:0:
368,188,41798,6,0,P|332:164|300:156,1,72
176,288,42155,1,2,0:0:0:0:
304,156,42334,1,0,0:0:0:0:
164,36,42512,1,8,0:0:0:0:
176,288,42869,1,0,0:0:0:0:
176,288,43048,1,2,0:0:0:0:
164,36,43227,6,0,L|168:112,1,72,2|0,0:0|0:0,0:0:0:0:
96,224,43584,2,0,P|60:192|44:160,1,72,0|2,0:0|0:0,0:0:0:0:
248,180,43941,1,8,0:0:0:0:
200,308,44119,2,0,L|220:404,1,72
336,172,44477,2,0,L|321:101,1,72,2|0,0:0|0:0,0:0:0:0:
312,300,44834,5,0,0:0:0:0:
196,200,45012,1,2,0:0:0:0:
320,100,45191,1,0,0:0:0:0:
312,300,45369,1,8,0:0:0:0:
288,200,45548,5,0,0:0:0:0:
192,308,45727,1,0,0:0:0:0:
148,160,45905,1,0,0:0:0:0:
204,228,46084,5,0,0:0:0:0:
288,112,46441,1,8,0:0:0:0:
408,192,46798,1,0,0:0:0:0:
332,312,47155,1,8,0:0:0:0:
224,136,47512,6,0,P|192:200|124:228,1,135.000005149842,0|8,0:0|0:0,0:0:0:0:
132,124,48048,2,0,L|120:32,1,67.5000025749208
224,136,48405,2,0,L|232:202,1,67.5000025749208,0|8,0:0|0:0,0:0:0:0:
472,48,48941,5,0,0:0:0:0:
472,48,49119,1,0,0:0:0:0:
384,96,49298,1,8,0:0:0:0:
384,96,49477,1,0,0:0:0:0:
412,192,49655,2,0,L|392:280,1,67.5000025749208
256,324,50012,2,0,P|288:304|332:300,1,67.5000025749208,8|0,0:0|0:0,0:0:0:0:
488,316,50369,6,0,P|454:353|363:361,1,135.000005149842,0|8,0:0|0:0,0:0:0:0:
256,324,50905,1,0,0:0:0:0:
160,360,51084,2,0,P|152:324|164:280,1,67.5000025749208
204,180,51441,1,8,0:0:0:0:
300,236,51619,1,0,0:0:0:0:
324,64,51798,6,0,P|332:100|320:144,1,67.5000025749208
236,320,52155,1,8,0:0:0:0:
196,228,52334,1,0,0:0:0:0:
300,236,52512,1,0,0:0:0:0:
136,312,52691,1,0,0:0:0:0:
152,144,52869,2,0,P|188:132|224:140,1,67.5000025749208,8|0,0:0|0:0,0:0:0:0:
366,317,53227,6,0,P|310:333|218:309,2,135.000005149842,0|8|0,0:0|0:0|0:0,0:0:0:0:
444,252,54119,1,0,0:0:0:0:
364,164,54298,2,0,P|368:124|392:88,1,67.5000025749208,8|0,0:0|0:0,0:0:0:0:
324,248,54655,6,0,L|248:232,1,67.5000025749208
188,136,55012,2,0,L|264:152,1,67.5000025749208,8|0,0:0|0:0,0:0:0:0:
224,316,55369,2,0,P|192:296|168:252,1,67.5000025749208
288,68,55727,2,0,P|320:88|344:132,1,67.5000025749208,8|0,0:0|0:0,0:0:0:0:
312,340,56084,5,2,0:0:0:0:
312,340,56203,2,0,L|292:292,1,45.0000017166138,2|0,0:0|0:0,0:0:0:0:
156,216,56441,1,8,0:3:0:0:
156,216,56560,2,0,L|207:222,1,45.0000017166138,2|0,0:0|0:0,0:0:0:0:
332,148,56798,1,4,0:3:0:0:
332,148,56917,2,0,L|300:189,1,45.0000017166138,2|0,0:3|0:3,0:3:0:0:
196,332,57155,5,8,0:0:0:0:
216,128,57334,1,0,0:0:0:0:
392,264,57512,6,0,P|433:225|432:104,1,180,4|8,0:1|0:0,0:0:0:0:
268,52,58048,2,0,P|312:28|360:28,1,90,2|0,0:0|0:0,0:0:0:0:
476,40,58405,1,2,0:0:0:0:
352,168,58584,2,0,P|307:164|268:142,1,90,8|0,0:0|0:0,0:0:0:0:
120,64,58941,5,2,0:0:0:0:
288,32,59119,1,0,0:0:0:0:
180,200,59298,1,8,0:0:0:0:
200,24,59477,2,0,P|208:76|196:116,1,90,2|0,0:0|0:0,0:0:0:0:
104,256,59834,1,2,0:0:0:0:
28,40,60012,1,8,0:0:0:0:
280,368,60369,5,2,0:0:0:0:
312,200,60548,1,0,0:0:0:0:
188,312,60727,1,8,0:0:0:0:
352,300,60905,1,2,0:0:0:0:
212,220,61084,2,0,P|208:168|220:124,1,90,0|2,0:0|0:0,0:0:0:0:
332,68,61441,1,8,0:0:0:0:
400,284,61619,1,0,0:0:0:0:
400,284,61709,1,0,0:0:0:0:
400,284,61798,6,0,P|404:232|392:188,1,90,2|0,0:0|0:0,0:0:0:0:
300,336,62155,2,0,P|272:312|212:296,1,90,8|2,0:0|0:0,0:0:0:0:
56,288,62512,1,0,0:0:0:0:
160,376,62691,1,2,0:0:0:0:
144,160,62869,2,0,P|136:201|148:256,1,90,8|0,0:0|0:0,0:0:0:0:
212,96,63227,5,2,0:0:0:0:
56,196,63405,1,0,0:0:0:0:
96,52,63584,1,8,0:0:0:0:
240,208,63762,2,0,P|286:206|332:184,1,90,2|0,0:0|0:0,0:0:0:0:
280,20,64119,2,0,P|264:64|272:120,1,90,2|8,0:0|0:0,0:0:0:0:
408,284,64477,1,0,0:0:0:0:
424,160,64655,5,2,0:0:0:0:
292,304,64834,1,0,0:0:0:0:
267,106,65012,1,8,0:0:0:0:
328,208,65191,1,2,0:0:0:0:
328,208,65280,1,0,0:0:0:0:
328,208,65369,2,0,P|280:192|236:196,1,90,0|2,0:0|0:0,0:0:0:0:
116,364,65727,5,8,0:0:0:0:
96,240,65905,1,0,0:0:0:0:
224,356,66084,2,0,P|244:304|236:256,1,90,2|0,0:0|0:0,0:0:0:0:
164,144,66441,1,8,0:0:0:0:
52,296,66619,2,0,L|156:288,1,90,2|0,0:0|0:0,0:0:0:0:
348,184,66977,2,0,L|244:176,1,90,2|8,0:0|0:0,0:0:0:0:
376,304,67334,1,0,0:0:0:0:
432,100,67512,5,2,0:0:0:0:
468,224,67691,1,0,0:0:0:0:
320,48,67869,1,8,0:0:0:0:
336,224,68048,1,2,0:0:0:0:
336,224,68137,1,0,0:0:0:0:
336,224,68227,2,0,P|327:177|348:120,1,90,0|2,0:0|0:0,0:0:0:0:
428,312,68584,5,8,0:0:0:0:
338,136,68762,1,0,0:0:0:0:
248,328,68941,6,0,B|231:296|231:296|246:268|246:268|222:205|240:156,1,180,4|8,0:1|0:0,0:0:0:0:
420,100,69477,2,0,P|380:132|328:140,1,90,2|0,0:0|0:0,0:0:0:0:
224,64,69834,1,2,0:0:0:0:
52,224,70012,2,0,P|92:192|144:184,1,90,8|0,0:0|0:0,0:0:0:0:
300,308,70369,6,0,P|248:308|204:284,1,90,2|0,0:0|0:0,0:0:0:0:
272,168,70727,1,8,0:0:0:0:
396,292,70905,1,2,0:0:0:0:
296,128,71084,1,0,0:0:0:0:
332,364,71262,1,2,0:0:0:0:
332,100,71441,1,8,0:0:0:0:
484,224,71798,5,2,0:0:0:0:
328,192,71977,1,0,0:0:0:0:
428,108,72155,1,8,0:0:0:0:
388,308,72334,1,2,0:0:0:0:
428,108,72512,2,0,L|410:196,1,90,0|2,0:0|0:0,0:0:0:0:
328,24,72869,1,8,0:0:0:0:
288,208,73048,5,0,0:0:0:0:
288,208,73137,1,0,0:0:0:0:
288,208,73227,2,0,P|260:172|220:148,1,90,2|0,0:0|0:0,0:0:0:0:
88,200,73584,1,8,0:0:0:0:
184,60,73762,1,2,0:0:0:0:
184,60,73852,1,0,0:0:0:0:
184,60,73941,1,0,0:0:0:0:
184,248,74119,1,2,0:0:0:0:
16,164,74298,2,0,P|-2:209|2:259,1,90,8|0,0:0|0:0,0:0:0:0:
216,344,74655,5,2,0:0:0:0:
376,256,74834,1,0,0:0:0:0:
376,256,75012,1,8,0:0:0:0:
216,160,75191,5,2,0:0:0:0:
328,356,75369,1,0,0:0:0:0:
328,356,75548,1,2,0:0:0:0:
324,156,75727,5,8,0:0:0:0:
160,248,75905,2,0,L|144:296,1,45
100,196,76084,2,0,P|133:173|186:175,1,90,2|0,0:0|0:0,0:0:0:0:
284,276,76441,1,8,0:0:0:0:
172,372,76619,1,2,0:0:0:0:
172,372,76709,1,0,0:0:0:0:
172,372,76798,1,0,0:0:0:0:
100,196,76977,1,2,0:0:0:0:
296,232,77155,2,0,P|312:188|304:140,1,90,8|0,0:0|0:0,0:0:0:0:
112,24,77512,6,0,P|96:68|104:116,1,90,2|0,0:0|0:0,0:0:0:0:
232,192,77869,1,8,0:0:0:0:
360,16,78048,1,2,0:0:0:0:
192,76,78227,2,0,L|284:76,1,90,0|2,0:0|0:0,0:0:0:0:
364,300,78584,2,0,L|274:300,1,90,8|0,0:0|0:0,0:0:0:0:
466,188,78941,6,0,L|376:188,1,90,2|0,0:0|0:0,0:0:0:0:
200,152,79298,1,8,0:0:0:0:
364,300,79477,1,2,0:0:0:0:
320,80,79655,1,0,0:0:0:0:
228,284,79834,1,2,0:0:0:0:
420,184,80012,1,8,0:0:0:0:
420,184,80191,1,0,0:0:0:0:
192,108,80369,5,2,0:0:0:0:
317,348,81084,6,0,P|254:334|224:276,1,135,2|0,0:0|0:0,0:0:0:0:
304,268,81798,6,0,B|312:232|312:232|264:192|276:132,1,135.000005149842,4|0,0:1|0:0,0:0:0:0:
368,152,82334,1,2,0:0:0:0:
432,220,82512,2,0,P|456:188|460:160,1,67.5000025749208,8|0,0:0|0:0,0:0:0:0:
428,72,82869,1,0,0:0:0:0:
274,145,83048,2,0,L|192:132,1,67.5000025749208,2|0,0:0|0:0,0:0:0:0:
144,64,83405,1,0,0:0:0:0:
192,212,83584,6,0,P|184:248|160:288,1,67.5000025749208,2|0,0:0|0:0,0:0:0:0:
48,128,83941,2,0,P|56:164|80:204,1,67.5000025749208,8|0,0:0|0:0,0:0:0:0:
280,108,84298,2,0,L|198:95,1,67.5000025749208
72,288,84655,6,0,L|228:308,1,135.000005149842,2|0,0:0|0:0,0:0:0:0:
280,248,85191,1,2,0:0:0:0:
392,356,85369,2,0,P|416:324|424:296,1,67.5000025749208,8|0,0:0|0:0,0:0:0:0:
388,212,85727,1,0,0:0:0:0:
300,328,85905,1,2,0:0:0:0:
484,220,86084,1,0,0:0:0:0:
324,108,86262,1,0,0:0:0:0:
300,328,86441,2,0,P|296:288|304:256,1,67.5000025749208,2|0,0:0|0:0,0:0:0:0:
408,72,86798,2,0,P|412:112|404:144,1,67.5000025749208,8|0,0:0|0:0,0:0:0:0:
212,168,87155,5,0,0:0:0:0:
264,40,87334,1,0,0:0:0:0:
372,224,87512,2,0,P|348:196|308:184,1,67.5000025749208,4|0,0:1|0:0,0:0:0:0:
156,240,87869,1,0,0:0:0:0:
264,40,88048,1,2,0:0:0:0:
174,152,88227,2,0,P|167:120|176:88,1,67.5000025749208,8|0,0:0|0:0,0:0:0:0:
344,52,88584,1,0,0:0:0:0:
268,204,88762,2,0,L|260:272,1,67.5000025749208,2|0,0:0|0:0,0:0:0:0:
428,204,89119,1,0,0:0:0:0:
264,116,89298,6,0,P|304:120|328:136,1,67.5000025749208,2|0,0:0|0:0,0:0:0:0:
268,352,89655,2,0,P|228:348|204:332,1,67.5000025749208,8|0,0:0|0:0,0:0:0:0:
156,216,90012,1,0,0:0:0:0:
356,252,90191,1,0,0:0:0:0:
256,256,90369,5,2,0:0:0:0:
256,256,90548,1,0,0:0:0:0:
124,352,90727,1,0,0:0:0:0:
256,224,90905,1,2,0:0:0:0:
368,360,91084,5,8,0:0:0:0:
368,360,91262,1,0,0:0:0:0:
256,192,91441,1,0,0:0:0:0:
124,332,91619,1,0,0:0:0:0:
256,192,92512,12,2,93227,0:0:0:0:
388,76,93584,5,2,0:0:0:0:
96,328,95369,2,0,L|72:260,1,67.5000025749208
192,352,95727,2,0,L|168:284,1,67.5000025749208
240,72,96084,5,2,0:0:0:0:
240,72,96441,1,2,0:0:0:0:
444,320,98048,1,0,0:0:0:0:
444,320,98227,1,0,0:0:0:0:
460,216,98584,1,0,0:0:0:0:
428,116,98941,5,2,0:0:0:0:
84,268,99298,1,2,0:0:0:0:
168,76,101084,2,0,P|128:48|104:116,1,135.000005149842,2|0,0:0|0:0,0:0:0:0:
164,188,101619,1,0,0:0:0:0:
264,172,101798,5,2,0:0:0:0:
264,172,101977,2,0,L|288:308,1,135.000005149842,2|0,0:0|0:0,0:0:0:0:
360,84,102512,2,0,L|360:228,1,135.000005149842,2|0,0:0|0:0,0:0:0:0:
428,32,103048,1,8,0:3:0:0:
472,320,103405,2,0,P|412:300|352:344,1,135.000005149842,4|0,0:3|0:0,0:0:0:0:
256,360,103941,1,8,0:0:0:0:
316,216,104119,1,8,0:3:0:0:
152,248,104298,1,8,0:0:0:0:
256,360,104477,1,8,0:0:0:0:
228,168,104655,6,0,L|240:240,1,72,2|0,0:0|0:0,0:0:0:0:
384,108,105012,2,0,P|365:71|333:53,1,72,0|2,0:0|0:0,0:0:0:0:
204,84,105369,1,8,0:0:0:0:
160,200,105548,1,0,0:0:0:0:
112,20,105727,1,0,0:0:0:0:
248,168,105905,2,0,P|256:204|248:240,1,72,2|0,0:0|0:0,0:0:0:0:
140,296,106262,1,0,0:0:0:0:
60,204,106441,6,0,P|68:156|104:116,1,96,2|0,0:0|0:0,0:0:0:0:
180,108,106798,2,0,P|200:72|204:40,1,72,8|0,0:0|0:0,0:0:0:0:
160,200,107155,1,0,0:0:0:0:
116,40,107334,1,2,0:0:0:0:
252,168,107512,6,0,P|257:132|276:101,1,72,2|0,0:0|0:0,0:0:0:0:
440,84,107869,2,0,P|434:119|415:150,1,72,0|2,0:0|0:0,0:0:0:0:
256,280,108227,2,0,B|304:264|304:264|360:276,1,96,8|0,0:0|0:0,0:0:0:0:
404,328,108584,1,0,0:0:0:0:
492,256,108762,6,0,P|464:228|432:216,1,72,2|0,0:0|0:0,0:0:0:0:
312,352,109119,1,0,0:0:0:0:
196,204,109298,1,2,0:0:0:0:
176,336,109477,1,0,0:0:0:0:
328,212,109655,2,0,P|336:172|328:136,1,72,8|0,0:0|0:0,0:0:0:0:
136,104,110012,1,0,0:0:0:0:
216,232,110191,1,2,0:0:0:0:
248,12,110369,6,0,B|208:76|264:100|224:156,1,144,2|0,0:0|0:0,0:0:0:0:
132,212,110905,1,2,0:0:0:0:
44,140,111084,2,0,L|32:56,1,72,8|0,0:0|0:0,0:0:0:0:
168,212,111441,1,0,0:0:0:0:
64,264,111619,1,2,0:0:0:0:
136,96,111798,6,0,L|228:88,1,72
308,216,112155,1,2,0:0:0:0:
152,324,112334,1,0,0:0:0:0:
208,88,112512,1,8,0:0:0:0:
272,352,112869,1,0,0:0:0:0:
272,352,113048,1,2,0:0:0:0:
208,88,113227,6,0,L|224:164,1,72,2|0,0:0|0:0,0:0:0:0:
316,260,113584,2,0,P|340:232|348:188,1,72,0|2,0:0|0:0,0:0:0:0:
152,232,113941,1,8,0:0:0:0:
224,312,114119,2,0,L|204:384,1,72
52,228,114477,2,0,L|71:158,1,72,2|0,0:0|0:0,0:0:0:0:
204,128,114834,5,0,0:0:0:0:
224,312,115012,1,2,0:0:0:0:
164,100,115191,1,0,0:0:0:0:
304,220,115369,1,8,0:0:0:0:
204,220,115548,5,0,0:0:0:0:
356,136,115727,1,0,0:0:0:0:
352,312,115905,1,0,0:0:0:0:
304,220,116084,5,0,0:0:0:0:
408,252,116441,1,8,0:0:0:0:
480,172,116798,1,0,0:0:0:0:
480,172,117155,1,8,0:0:0:0:
452,348,117512,6,0,P|392:324|320:352,1,135.000005149842,0|8,0:0|0:0,0:0:0:0:
327,345,118048,2,0,L|295:265,1,67.5000025749208
208,264,118405,2,0,L|232:326,1,67.5000025749208,0|8,0:0|0:0,0:0:0:0:
288,40,118941,5,0,0:0:0:0:
288,40,119119,1,0,0:0:0:0:
228,116,119298,2,0,L|256:184,1,67.5000025749208,8|0,0:0|0:0,0:0:0:0:
192,24,119655,2,0,P|160:8|120:4,1,67.5000025749208
64,132,120012,2,0,P|96:148|136:152,1,67.5000025749208,8|0,0:0|0:0,0:0:0:0:
280,112,120369,6,0,P|308:76|396:68,1,135.000005149842,0|8,0:0|0:0,0:0:0:0:
460,132,120905,1,0,0:0:0:0:
392,196,121084,2,0,P|380:236|388:280,1,67.5000025749208
460,132,121441,1,8,0:0:0:0:
460,132,121619,1,0,0:0:0:0:
292,188,121798,5,0,0:0:0:0:
352,80,121977,1,0,0:0:0:0:
381,261,122155,1,8,0:0:0:0:
444,152,122334,1,0,0:0:0:0:
292,188,122512,2,0,P|256:176|228:152,1,67.5000025749208
208,60,122869,1,8,0:0:0:0:
308,72,123048,1,0,0:0:0:0:
276,292,123227,6,0,P|340:277|380:224,2,135.000005149842,0|8|0,0:0|0:0|0:0,0:0:0:0:
164,256,124119,1,0,0:0:0:0:
164,256,124298,2,0,P|159:295|168:324,1,67.5000025749208,8|0,0:0|0:0,0:0:0:0:
244,184,124655,6,0,P|222:150|197:134,1,67.5000025749208
32,168,125012,2,0,L|104:172,1,67.5000025749208,8|0,0:0|0:0,0:0:0:0:
288,64,125369,2,0,L|220:60,1,67.5000025749208
208,276,125727,2,0,L|280:280,1,67.5000025749208,8|0,0:0|0:0,0:0:0:0:
440,180,126084,5,2,0:0:0:0:
440,180,126203,2,0,L|393:177,1,45.0000017166138,2|0,0:0|0:0,0:0:0:0:
280,160,126441,1,8,0:3:0:0:
280,160,126560,2,0,L|283:207,1,45.0000017166138,2|0,0:0|0:0,0:0:0:0:
376,320,126798,1,4,0:3:0:0:
376,320,126917,2,0,L|379:273,1,45.0000017166138,2|0,0:0|0:0,0:0:0:0:
352,96,127155,5,8,0:0:0:0:
276,296,127334,1,0,0:0:0:0:
184,116,127512,6,0,B|186:179|186:179|155:220|155:220|156:303,1,180,4|8,0:1|0:0,0:0:0:0:
32,268,128048,2,0,L|32:164,1,90,2|0,0:0|0:0,0:0:0:0:
108,76,128405,1,2,0:0:0:0:
224,192,128584,2,0,P|272:200|320:192,1,90,8|0,0:0|0:0,0:0:0:0:
404,64,128941,5,2,0:0:0:0:
224,192,129119,1,0,0:0:0:0:
252,24,129298,1,8,0:0:0:0:
368,264,129477,1,2,0:0:0:0:
368,264,129566,1,0,0:0:0:0:
368,264,129655,2,0,P|392:220|396:176,1,90,0|2,0:0|0:0,0:0:0:0:
252,24,130012,1,8,0:0:0:0:
264,344,130369,5,2,0:0:0:0:
288,180,130548,1,0,0:0:0:0:
224,340,130727,1,8,0:0:0:0:
364,248,130905,1,2,0:0:0:0:
204,168,131084,2,0,P|196:120|212:72,1,90,0|2,0:0|0:0,0:0:0:0:
360,40,131441,1,8,0:0:0:0:
320,240,131619,5,0,0:0:0:0:
320,240,131709,1,0,0:0:0:0:
320,240,131798,2,0,P|292:280|243:301,1,90,2|0,0:0|0:0,0:0:0:0:
52,224,132155,2,0,P|100:216|144:228,1,90,8|2,0:0|0:0,0:0:0:0:
256,298,132512,1,0,0:0:0:0:
92,300,132691,1,2,0:0:0:0:
192,144,132869,2,0,L|180:44,1,90,8|0,0:0|0:0,0:0:0:0:
48,372,133227,6,0,P|91:381|135:373,1,90,2|0,0:0|0:0,0:0:0:0:
264,160,133584,1,8,0:0:0:0:
324,268,133762,2,0,L|296:364,1,90,2|0,0:0|0:0,0:0:0:0:
136,208,134119,2,0,L|164:112,1,90,2|8,0:0|0:0,0:0:0:0:
200,312,134477,1,0,0:0:0:0:
344,192,134655,5,2,0:0:0:0:
192,88,134834,1,0,0:0:0:0:
272,252,135012,1,8,0:0:0:0:
312,48,135191,1,2,0:0:0:0:
312,48,135280,1,0,0:0:0:0:
312,48,135369,1,0,0:0:0:0:
252,224,135548,1,2,0:0:0:0:
420,144,135727,5,8,0:0:0:0:
300,24,135905,1,0,0:0:0:0:
344,252,136084,2,0,P|344:200|324:164,1,90,2|0,0:0|0:0,0:0:0:0:
168,92,136441,1,8,0:0:0:0:
104,200,136619,2,0,P|104:252|124:288,1,90,2|0,0:0|0:0,0:0:0:0:
72,92,136977,2,0,P|24:113|0:146,1,90,2|8,0:0|0:0,0:0:0:0:
56,348,137334,1,0,0:0:0:0:
220,180,137512,5,2,0:0:0:0:
256,336,137691,1,0,0:0:0:0:
104,232,137869,1,8,0:0:0:0:
224,64,138048,1,2,0:0:0:0:
232,80,138137,1,0,0:0:0:0:
240,96,138227,1,0,0:0:0:0:
324,224,138405,1,2,0:0:0:0:
164,152,138584,5,8,0:0:0:0:
312,24,138762,1,0,0:0:0:0:
248,280,138941,6,0,P|232:212|296:128,1,180,4|8,0:1|0:0,0:0:0:0:
440,184,139477,2,0,L|460:280,1,90,2|0,0:0|0:0,0:0:0:0:
392,48,139834,1,2,0:0:0:0:
336,224,140012,2,0,P|288:228|244:212,1,90,8|0,0:0|0:0,0:0:0:0:
68,72,140369,6,0,P|116:68|160:84,1,90,2|0,0:0|0:0,0:0:0:0:
180,256,140727,1,8,0:0:0:0:
32,152,140905,2,0,L|16:196,2,45,2|0|0,0:0|0:0|0:0,0:0:0:0:
208,268,141262,1,2,0:0:0:0:
208,24,141441,1,8,0:0:0:0:
96,308,141798,5,2,0:0:0:0:
176,172,141977,1,0,0:0:0:0:
212,356,142155,1,8,0:0:0:0:
168,144,142334,1,2,0:0:0:0:
288,276,142512,2,0,P|304:228|300:188,1,90,0|2,0:0|0:0,0:0:0:0:
208,60,142869,1,8,0:0:0:0:
184,272,143048,1,0,0:0:0:0:
184,272,143137,1,0,0:0:0:0:
184,272,143227,6,0,P|144:256|84:264,1,90,2|0,0:0|0:0,0:0:0:0:
264,356,143584,1,8,0:0:0:0:
232,148,143762,1,2,0:0:0:0:
236,168,143852,1,0,0:0:0:0:
240,184,143941,1,0,0:0:0:0:
216,40,144119,1,2,0:0:0:0:
256,272,144298,2,0,P|300:252|324:216,1,90,8|0,0:0|0:0,0:0:0:0:
108,100,144655,5,2,0:0:0:0:
256,272,144834,1,0,0:0:0:0:
256,272,145012,1,8,0:0:0:0:
64,224,145191,5,2,0:0:0:0:
224,72,145369,1,0,0:0:0:0:
224,72,145548,1,2,0:0:0:0:
160,312,145727,5,8,0:0:0:0:
100,76,145905,2,0,L|88:120,1,45
136,184,146084,2,0,P|184:164|228:172,1,90,2|0,0:0|0:0,0:0:0:0:
372,288,146441,1,8,0:0:0:0:
200,272,146619,1,2,0:0:0:0:
200,272,146709,1,0,0:0:0:0:
200,272,146798,1,0,0:0:0:0:
284,96,146977,1,2,0:0:0:0:
308,344,147155,2,0,P|288:296|296:252,1,90,8|0,0:0|0:0,0:0:0:0:
464,160,147512,6,0,B|424:184|424:184|364:188,1,90,2|0,0:0|0:0,0:0:0:0:
208,132,147869,1,8,0:0:0:0:
320,32,148048,1,2,0:0:0:0:
380,186,148227,2,0,B|340:168|340:168|293:170,1,90,0|2,0:0|0:0,0:0:0:0:
112,272,148584,2,0,B|151:289|151:289|198:287,1,90,8|0,0:0|0:0,0:0:0:0:
380,188,148941,5,2,0:0:0:0:
296,312,149119,1,0,0:0:0:0:
164,140,149298,1,8,0:0:0:0:
272,352,149477,1,2,0:0:0:0:
232,84,149655,1,8,0:0:0:0:
228,376,149834,1,2,0:0:0:0:
308,36,150012,1,8,0:0:0:0:
308,36,150191,1,0,0:0:0:0:
268,200,150369,5,2,0:0:0:0:
384,88,155369,5,0,0:0:0:0:
436,184,155727,1,0,0:0:0:0:
396,284,156084,6,0,L|392:368,2,67.5000025749208,2|0|0,0:0|0:0|0:0,0:0:0:0:
340,200,156619,2,0,P|296:184|204:216,1,135.000005149842,2|0,0:0|0:0,0:0:0:0:
156,292,157155,1,0,0:0:0:0:
156,292,157334,2,0,P|104:248|92:164,1,135.000005149842,2|0,0:0|0:0,0:0:0:0:
140,96,157869,1,0,0:0:0:0:
228,148,158048,2,0,L|368:120,1,135.000005149842,2|0,0:0|0:0,0:0:0:0:
424,44,158584,1,2,0:0:0:0:
320,352,158941,6,0,P|332:316|328:280,1,67.5000025749208,2|0,0:0|0:0,0:0:0:0:
192,352,159298,2,0,P|180:316|184:280,1,67.5000025749208,2|0,0:0|0:0,0:0:0:0:
368,152,159655,2,0,P|380:188|376:224,1,67.5000025749208,2|0,0:0|0:0,0:0:0:0:
144,152,160012,2,0,P|132:183|134:217,1,67.5000025749208,2|0,0:0|0:0,0:0:0:0:
256,61,160369,6,0,B|263:111|233:149|233:149|277:184|277:184|246:214|259:249,2,202.500007724762,2|2|8,0:0|0:0|0:0,0:0:0:0:
156,72,161619,1,0,0:0:0:0:
204,352,161798,6,0,P|152:316|136:196,1,180,4|8,0:1|0:0,0:0:0:0:
324,280,162334,2,0,L|312:376,1,90,2|0,0:0|0:0,0:0:0:0:
232,176,162691,1,2,0:0:0:0:
352,104,162869,2,0,L|444:144,1,90,8|0,0:0|0:0,0:0:0:0:
216,304,163227,6,0,P|172:292|136:264,1,90,2|0,0:0|0:0,0:0:0:0:
56,144,163584,1,8,0:0:0:0:
244,80,163762,1,2,0:0:0:0:
244,80,163852,1,0,0:0:0:0:
244,80,163941,1,0,0:0:0:0:
136,264,164120,1,2,0:0:0:0:
124,48,164298,1,8,0:0:0:0:
384,340,164655,5,2,0:0:0:0:
344,212,164834,1,0,0:0:0:0:
248,308,165012,1,8,0:0:0:0:
360,164,165191,1,2,0:0:0:0:
404,352,165369,2,0,L|384:248,1,90,0|2,0:0|0:0,0:0:0:0:
288,100,165727,1,8,0:0:0:0:
232,280,165905,1,0,0:0:0:0:
232,280,165994,1,0,0:0:0:0:
232,280,166084,6,0,P|184:264|140:268,1,90,2|0,0:0|0:0,0:0:0:0:
48,360,166441,1,8,0:0:0:0:
296,216,166619,1,2,0:0:0:0:
28,200,166798,1,0,0:0:0:0:
240,376,166977,1,2,0:0:0:0:
168,128,167155,2,0,L|160:240,1,90,8|0,0:0|0:0,0:0:0:0:
288,28,167512,6,0,L|304:128,1,90,2|0,0:0|0:0,0:0:0:0:
276,248,167869,1,8,0:0:0:0:
168,128,168048,2,0,P|124:120|76:136,1,90,2|0,0:0|0:0,0:0:0:0:
248,352,168405,2,0,P|292:360|340:344,1,90,2|8,0:0|0:0,0:0:0:0:
404,232,168762,1,0,0:0:0:0:
248,112,168941,5,2,0:0:0:0:
248,352,169119,1,0,0:0:0:0:
136,236,169298,1,8,0:0:0:0:
328,232,169477,1,2,0:0:0:0:
328,232,169566,1,0,0:0:0:0:
328,232,169655,2,0,P|284:224|236:240,1,90,0|2,0:0|0:0,0:0:0:0:
124,356,170012,5,8,0:0:0:0:
241,236,170191,1,0,0:0:0:0:
60,152,170369,2,0,P|112:148|152:164,1,90,2|0,0:0|0:0,0:0:0:0:
292,316,170727,1,8,0:0:0:0:
164,376,170905,2,0,L|144:272,1,90,2|0,0:0|0:0,0:0:0:0:
304,68,171262,2,0,L|324:172,1,90,2|8,0:0|0:0,0:0:0:0:
292,336,171619,1,0,0:0:0:0:
184,196,171798,5,2,0:0:0:0:
304,68,171977,1,0,0:0:0:0:
316,320,172155,1,8,0:0:0:0:
216,100,172334,1,2,0:0:0:0:
216,100,172423,1,0,0:0:0:0:
216,100,172512,1,0,0:0:0:0:
196,272,172691,1,2,0:0:0:0:
360,152,172869,5,8,0:0:0:0:
88,200,173048,1,0,0:0:0:0:
232,8,173227,6,0,B|234:71|234:71|203:112|203:112|204:195,1,180,4|8,0:1|0:0,0:0:0:0:
300,272,173762,2,0,L|300:180,1,90,2|0,0:0|0:0,0:0:0:0:
112,112,174119,1,2,0:0:0:0:
152,280,174298,2,0,P|132:332|104:356,1,90,8|0,0:0|0:0,0:0:0:0:
24,188,174655,5,2,0:0:0:0:
152,280,174834,1,0,0:0:0:0:
136,128,175012,1,8,0:0:0:0:
16,332,175191,1,2,0:0:0:0:
16,332,175280,1,0,0:0:0:0:
16,332,175369,1,0,0:0:0:0:
220,348,175548,1,2,0:0:0:0:
136,128,175727,1,8,0:0:0:0:
412,320,176084,5,2,0:0:0:0:
272,196,176262,1,0,0:0:0:0:
412,320,176441,1,8,0:0:0:0:
356,136,176619,1,2,0:0:0:0:
328,372,176798,2,0,P|312:316|320:280,1,90,0|2,0:0|0:0,0:0:0:0:
448,160,177155,1,8,0:0:0:0:
497,344,177334,1,0,0:0:0:0:
497,344,177423,1,0,0:0:0:0:
497,344,177512,6,0,P|453:324|405:320,1,90,2|0,0:0|0:0,0:0:0:0:
236,368,177869,1,8,0:0:0:0:
308,168,178048,1,2,0:0:0:0:
312,188,178137,1,0,0:0:0:0:
316,208,178227,1,0,0:0:0:0:
316,64,178405,1,2,0:0:0:0:
228,272,178584,2,0,P|184:252|156:216,1,90,8|0,0:0|0:0,0:0:0:0:
136,36,178941,5,2,0:0:0:0:
324,212,179119,1,0,0:0:0:0:
324,212,179298,1,8,0:0:0:0:
112,56,179477,5,2,0:0:0:0:
224,312,179655,1,0,0:0:0:0:
224,312,179834,1,2,0:0:0:0:
168,24,180012,5,8,0:0:0:0:
96,312,180191,2,0,L|92:252,1,45
96,312,180369,2,0,P|138:342|178:344,1,90,2|0,0:0|0:0,0:0:0:0:
328,284,180727,1,8,0:0:0:0:
216,128,180905,1,2,0:0:0:0:
216,128,180994,1,0,0:0:0:0:
216,128,181084,1,0,0:0:0:0:
264,360,181262,1,2,0:0:0:0:
432,240,181441,2,0,P|404:200|364:180,1,90,8|0,0:0|0:0,0:0:0:0:
120,216,181798,6,0,L|220:232,1,90,2|0,0:0|0:0,0:0:0:0:
368,180,182155,1,8,0:0:0:0:
260,48,182334,1,2,0:0:0:0:
308,312,182512,2,0,L|288:220,1,90,0|2,0:0|0:0,0:0:0:0:
144,360,182869,2,0,P|170:325|219:309,1,90,8|0,0:0|0:0,0:0:0:0:
480,360,183227,6,0,P|431:357|395:333,1,90,2|0,0:0|0:0,0:0:0:0:
184,208,183584,1,8,0:0:0:0:
380,160,183762,1,2,0:0:0:0:
300,368,183941,1,0,0:0:0:0:
248,120,184119,1,2,0:0:0:0:
92,268,184298,1,8,0:0:0:0:
92,268,184477,1,0,0:0:0:0:
264,76,184655,5,2,0:0:0:0:
456,352,185369,6,0,P|488:284|464:216,1,135,2|0,0:0|0:0,0:0:0:0:
388,276,186084,6,0,B|324:252|324:252|256:256,1,135.000005149842,4|0,0:1|0:0,0:0:0:0:
188,320,186619,1,2,0:0:0:0:
60,252,186798,2,0,L|32:176,1,67.5000025749208,8|0,0:0|0:0,0:0:0:0:
92,112,187155,1,0,0:0:0:0:
100,324,187334,2,0,P|64:336|32:332,1,67.5000025749208,2|0,0:0|0:0,0:0:0:0:
160,160,187691,1,0,0:0:0:0:
204,280,187869,6,0,P|240:292|272:288,1,67.5000025749208,2|0,0:0|0:0,0:0:0:0:
308,104,188227,2,0,P|272:92|240:96,1,67.5000025749208,8|0,0:0|0:0,0:0:0:0:
132,328,188584,2,0,P|116:280|120:248,1,67.5000025749208
352,212,188941,6,0,P|376:272|356:356,1,135.000005149842,2|0,0:0|0:0,0:0:0:0:
248,184,189477,1,2,0:0:0:0:
132,328,189655,2,0,L|60:304,1,67.5000025749208,8|0,0:0|0:0,0:0:0:0:
36,196,190012,1,0,0:0:0:0:
216,264,190191,1,2,0:0:0:0:
156,88,190369,1,0,0:0:0:0:
112,284,190548,1,0,0:0:0:0:
156,88,190727,6,0,L|143:155,1,67.5000025749208,2|0,0:0|0:0,0:0:0:0:
360,320,191084,2,0,L|373:253,1,67.5000025749208,8|0,0:0|0:0,0:0:0:0:
288,128,191441,1,0,0:0:0:0:
264,320,191619,1,0,0:0:0:0:
288,128,191798,6,0,P|256:116|208:124,1,67.5000025749208,4|0,0:1|0:0,0:0:0:0:
148,204,192155,1,0,0:0:0:0:
56,24,192334,1,2,0:0:0:0:
148,204,192512,2,0,L|128:284,1,67.5000025749208,8|0,0:0|0:0,0:0:0:0:
40,340,192869,1,0,0:0:0:0:
48,124,193048,2,0,P|88:104|124:104,1,67.5000025749208,2|0,0:0|0:0,0:0:0:0:
248,184,193405,1,0,0:0:0:0:
146,333,193584,6,0,P|130:293|134:261,1,67.5000025749208,2|0,0:0|0:0,0:0:0:0:
344,128,193941,2,0,P|360:168|336:260,1,135.000005149842,8|0,0:0|0:0,0:0:0:0:
260,336,194477,1,0,0:0:0:0:
200,88,194655,5,2,0:0:0:0:
200,88,194834,1,0,0:0:0:0:
260,336,195012,1,0,0:0:0:0:
108,200,195191,1,2,0:0:0:0:
332,88,195369,5,8,0:0:0:0:
332,88,195548,1,0,0:0:0:0:
168,272,195727,1,0,0:0:0:0:
96,44,195905,1,0,0:0:0:0:
