osu file format v14

[General]
AudioFilename: audio.mp3
AudioLeadIn: 0
PreviewTime: 56245
Countdown: 0
SampleSet: Soft
StackLeniency: 0.7
Mode: 0
LetterboxInBreaks: 0
WidescreenStoryboard: 1

[Editor]
Bookmarks: 14517,28635,42752,56870,85105,99223,113341,141576,169811,198047,212164
DistanceSpacing: 1
BeatDivisor: 3
GridSize: 8
TimelineZoom: 1

[Metadata]
Title:Bad Girl, Good Girl
TitleUnicode:Bad Girl, Good Girl
Artist:miss A
ArtistUnicode:미쓰에이
Creator:Sonnyc
Version:Normal
Source:
Tags:missa Bad But Good 배드걸 굿걸 유목농민 페이 fei 지아 jia 수지 suzy 민 min jyp kpop k-pop korean pop
BeatmapID:2637429
BeatmapSetID:1266796

[Difficulty]
HPDrainRate:4
CircleSize:3.7
OverallDifficulty:5
ApproachRate:5.5
SliderMultiplier:1.44
SliderTickRate:3

[Events]
//Background and Video events
0,0,"bg.jpg",0,0
//Break Periods
//Storyboard Layer 0 (Background)
//Storyboard Layer 1 (Fail)
//Storyboard Layer 2 (Pass)
//Storyboard Layer 3 (Foreground)
//Storyboard Layer 4 (Overlay)
//Storyboard Sound Samples

[TimingPoints]
400,441.176470588235,4,2,1,70,1,0
56870,-83.3333333333333,4,2,1,80,0,1
85105,-100,4,2,1,70,0,0
113341,-83.3333333333333,4,2,1,80,0,1
141576,-100,4,2,1,70,0,0
169811,-83.3333333333333,4,2,1,80,0,1
198047,-100,4,2,1,70,0,0

[Colours]
Combo1 : 253,115,173
Combo2 : 121,193,62
Combo3 : 155,160,227
Combo4 : 113,236,233
Combo5 : 247,172,72

[HitObjects]
128,80,14517,5,4,0:0:0:0:
256,48,15252,2,0,L|256:192,1,144,2|2,0:0|0:1,0:0:0:0:
384,80,16282,1,2,0:0:0:0:
256,48,17017,2,0,L|256:192,1,144,2|2,0:0|0:1,0:0:0:0:
128,224,18047,1,2,0:0:0:0:
256,192,18782,2,0,L|256:336,1,144,2|2,0:0|0:1,0:0:0:0:
384,224,19812,1,2,0:0:0:0:
256,192,20547,2,0,L|256:336,1,144,2|2,0:0|0:1,0:0:0:0:
400,48,21576,6,0,L|400:288,1,240,2|2,0:0|0:0,0:0:0:0:
208,48,23341,2,0,L|208:288,1,240,2|2,0:0|0:0,0:0:0:0:
304,48,25105,2,0,L|304:288,1,240,2|2,0:0|0:0,0:0:0:0:
112,48,26870,2,0,L|112:344,1,288,2|2,0:0|0:0,0:0:0:0:
256,192,28635,5,4,0:3:0:0:
256,280,29076,1,0,1:0:0:0:
256,368,29517,1,4,0:3:0:0:
400,120,30399,6,0,P|352:160|344:248,1,144,4|0,0:3|1:0,0:0:0:0:
440,216,31281,2,0,P|488:256|496:344,1,144,4|0,0:3|1:0,0:0:0:0:
256,368,32605,53,0,1:0:0:0:
256,280,33046,1,4,0:3:0:0:
256,192,33488,1,0,1:0:0:0:
144,144,33929,6,0,P|96:184|88:272,1,144,4|0,0:3|1:0,0:0:0:0:
184,240,34811,2,0,P|232:280|240:368,2,144,4|0|4,0:3|1:0|0:3,0:0:0:0:
152,288,38341,54,0,P|208:360|360:288,1,288,4|4,0:3|0:3,0:0:0:0:
256,264,39664,1,0,1:0:0:0:
416,72,42752,22,0,L|288:72,1,96,2|0,0:1|0:0,0:0:0:0:
192,72,43635,1,0,1:0:0:0:
192,72,44076,2,0,L|96:72,1,96,2|0,0:0|0:0,0:0:0:0:
256,192,45399,21,0,1:0:0:0:
96,312,46282,38,0,L|224:312,1,96,2|0,0:1|0:0,0:0:0:0:
320,312,47165,1,0,1:0:0:0:
320,312,47606,2,0,L|416:312,1,96,2|0,0:0|0:0,0:0:0:0:
256,96,48929,21,2,0:0:0:0:
256,192,49370,1,0,1:0:0:0:
256,288,49811,1,4,0:3:0:0:
312,72,51576,6,0,L|472:72,2,144,4|0|4,0:3|1:0|0:3,0:0:0:0:
168,192,53341,2,0,L|8:192,2,144,4|0|4,0:3|1:0|0:3,0:0:0:0:
288,192,54664,1,0,1:0:0:0:
312,312,55105,2,0,L|472:312,2,144,4|0|4,0:3|1:0|0:3,0:0:0:0:
424,192,56429,37,8,1:2:0:0:
312,128,56870,2,0,P|310:52|200:128,1,287.999991210938,4|2,0:0|0:1,0:0:0:0:
88,192,58047,1,2,0:0:0:0:
88,192,58194,1,8,0:0:0:0:
200,256,58635,2,0,P|202:332|312:256,1,287.999991210938,2|2,0:0|0:1,0:0:0:0:
424,192,59811,1,2,0:0:0:0:
424,192,59958,1,8,0:0:0:0:
352,80,60399,5,4,0:3:0:0:
376,336,61282,1,4,0:3:0:0:
256,280,61723,1,0,1:0:0:0:
136,336,62164,1,4,0:3:0:0:
160,80,63047,1,4,0:3:0:0:
160,80,63488,1,0,1:0:0:0:
192,224,63929,22,0,L|16:224,2,172.799994726563,2|8|2,0:0|0:0|0:0,0:0:0:0:
256,112,65252,1,8,0:0:0:0:
320,224,65694,2,0,L|496:224,2,172.799994726563,2|8|2,0:0|0:0|0:0,0:0:0:0:
256,112,67017,1,8,0:0:0:0:
152,200,67458,5,4,0:3:0:0:
360,120,68341,1,4,0:3:0:0:
256,376,69223,2,2,L|256:24,1,345.599989453125,2|2,0:1|0:1,0:1:0:0:
416,120,70547,5,8,0:2:0:0:
472,248,70988,2,0,P|416:352|360:248,1,287.999991210938,2|2,0:0|0:1,0:0:0:0:
256,168,72164,1,2,0:0:0:0:
256,168,72312,1,8,0:0:0:0:
152,248,72752,2,0,P|96:352|40:248,1,287.999991210938,2|2,0:0|0:1,0:0:0:0:
96,120,73929,1,2,0:0:0:0:
96,120,74075,1,8,0:0:0:0:
24,16,74517,5,4,0:3:0:0:
136,240,75399,1,4,0:3:0:0:
256,184,75840,1,0,1:0:0:0:
376,240,76281,1,4,0:3:0:0:
488,16,77164,1,4,0:3:0:0:
488,16,77605,1,0,1:0:0:0:
384,96,78047,22,0,L|384:280,2,172.799994726563,2|8|2,0:0|0:0|0:0,0:0:0:0:
256,48,79370,1,8,0:0:0:0:
128,96,79811,2,0,L|128:280,2,172.799994726563,2|8|2,0:0|0:0|0:0,0:0:0:0:
256,48,81135,1,8,0:0:0:0:
216,168,81576,5,4,0:3:0:0:
296,376,82459,1,4,0:3:0:0:
83,272,83341,2,2,L|435:272,1,345.599989453125,2|2,0:1|0:1,0:1:0:0:
256,192,85105,37,4,0:3:0:0:
256,280,85546,1,0,1:0:0:0:
256,368,85987,1,4,0:3:0:0:
136,144,86870,6,0,P|88:184|80:272,1,144,4|0,0:3|1:0,0:0:0:0:
168,312,87752,2,0,P|216:272|224:184,1,144,4|0,0:3|1:0,0:0:0:0:
256,368,89075,53,0,1:0:0:0:
256,280,89516,1,4,0:3:0:0:
256,192,89958,1,0,1:0:0:0:
360,136,90399,6,0,P|430:143|477:195,1,144,4|0,0:3|1:0,0:0:0:0:
427,287,91282,2,0,P|356:279|309:227,2,144,4|0|2,0:3|1:0|0:1,0:0:0:0:
512,240,92605,1,2,1:1:0:0:
221,297,94811,2,0,P|291:304|338:356,2,144,4|0|2,0:3|1:0|0:1,0:0:0:0:
136,344,96134,1,2,1:1:0:0:
136,344,97458,54,0,P|224:280|376:344,1,288,4|4,0:3|0:3,0:0:0:0:
96,72,99223,22,0,L|224:72,1,96,2|0,0:1|0:0,0:0:0:0:
320,72,100106,1,0,1:0:0:0:
320,72,100547,2,0,L|416:72,1,96,2|0,0:0|0:0,0:0:0:0:
256,192,101870,21,0,1:0:0:0:
416,312,102753,38,0,L|288:312,1,96,2|0,0:1|0:0,0:0:0:0:
192,312,103636,1,0,1:0:0:0:
192,312,104077,2,0,L|96:312,1,96,2|0,0:0|0:0,0:0:0:0:
256,96,105400,21,2,0:0:0:0:
256,192,105841,1,0,1:0:0:0:
256,288,106282,1,4,0:3:0:0:
200,72,108047,6,0,L|40:72,2,144,4|0|4,0:3|1:0|0:3,0:0:0:0:
344,192,109812,2,0,L|504:192,2,144,4|0|4,0:3|1:0|0:3,0:0:0:0:
224,192,111135,1,0,1:0:0:0:
200,312,111576,2,0,L|40:312,2,144,4|0|4,0:3|1:0|0:3,0:0:0:0:
88,192,112899,37,8,1:2:0:0:
200,128,113341,2,0,P|202:52|312:128,1,287.999991210938,4|2,0:0|0:1,0:0:0:0:
424,192,114517,1,2,0:0:0:0:
424,192,114664,1,8,0:0:0:0:
312,256,115105,2,0,P|310:332|200:256,1,287.999991210938,2|2,0:0|0:1,0:0:0:0:
88,192,116281,1,2,0:0:0:0:
88,192,116428,1,8,0:0:0:0:
160,80,116870,5,4,0:3:0:0:
136,336,117753,1,4,0:3:0:0:
256,280,118194,1,0,1:0:0:0:
376,336,118635,1,4,0:3:0:0:
352,80,119518,1,4,0:3:0:0:
352,80,119959,1,0,1:0:0:0:
320,224,120400,22,0,L|496:224,2,172.799994726563,2|8|2,0:0|0:0|0:0,0:0:0:0:
256,112,121723,1,8,0:0:0:0:
192,224,122165,2,0,L|16:224,2,172.799994726563,2|8|2,0:0|0:0|0:0,0:0:0:0:
256,112,123488,1,8,0:0:0:0:
360,200,123929,5,4,0:3:0:0:
152,120,124812,1,4,0:3:0:0:
256,376,125694,2,2,L|256:24,1,345.599989453125,2|2,0:1|0:1,0:1:0:0:
96,120,127018,5,8,0:0:0:0:
40,248,127459,2,0,P|96:352|152:248,1,287.999991210938,2|2,0:0|0:1,0:0:0:0:
256,168,128635,1,2,0:0:0:0:
256,168,128783,1,8,0:0:0:0:
360,248,129223,2,0,P|416:352|472:248,1,287.999991210938,2|2,0:0|0:1,0:0:0:0:
416,120,130400,1,2,0:0:0:0:
416,120,130546,1,8,0:0:0:0:
488,16,130988,5,4,0:3:0:0:
376,240,131870,1,4,0:3:0:0:
256,184,132311,1,0,1:0:0:0:
136,240,132752,1,4,0:3:0:0:
24,16,133635,1,4,0:3:0:0:
24,16,134076,1,0,1:0:0:0:
128,96,134518,22,0,L|128:280,2,172.799994726563,2|8|2,0:0|0:0|0:0,0:0:0:0:
256,48,135841,1,8,0:0:0:0:
384,96,136282,2,0,L|384:280,2,172.799994726563,2|8|2,0:0|0:0|0:0,0:0:0:0:
256,48,137606,1,8,0:0:0:0:
296,168,138047,5,4,0:3:0:0:
216,376,138930,1,4,0:3:0:0:
429,272,139812,2,2,L|77:272,1,345.599989453125,2|2,0:1|0:1,0:1:0:0:
8,72,141576,6,0,B|62:-9|185:13|195:72|207:132|322:157|384:73,1,432,4|0,0:0|1:0,0:0:0:0:
384,240,143341,2,0,B|329:320|206:298|196:240|184:179|69:154|7:238,1,432,2|0,0:0|1:0,0:0:0:0:
104,360,145105,21,4,0:3:0:0:
296,240,145988,2,0,L|448:272,2,144,4|0|4,0:3|1:0|0:3,0:0:0:0:
512,176,147752,2,0,L|371:146,1,144,4|0,0:3|1:0,0:0:0:0:
312,288,148635,38,0,P|268:133|200:288,1,432,2|0,0:0|1:0,0:0:0:0:
88,160,150399,2,0,P|210:51|424:160,1,432,2|0,0:0|1:0,0:0:0:0:
448,320,152164,21,4,0:3:0:0:
280,152,153047,2,0,L|310:293,2,144,4|0|4,0:3|1:0|0:3,0:0:0:0:
448,320,154811,2,0,L|418:179,1,144,4|0,0:3|1:0,0:0:0:0:
504,72,155694,38,0,B|450:-9|327:13|317:72|305:132|190:157|128:73,1,432,2|0,0:0|1:0,0:0:0:0:
128,240,157459,2,0,B|183:320|306:298|316:240|328:179|443:154|505:238,1,432,2|0,0:0|1:0,0:0:0:0:
408,360,159223,21,4,0:3:0:0:
216,240,160106,2,0,L|64:272,2,144,4|0|4,0:3|1:0|0:3,0:0:0:0:
0,176,161870,2,0,L|141:146,1,144,4|0,0:3|1:0,0:0:0:0:
192,32,162752,53,4,0:3:0:0:
320,32,163194,1,0,1:0:0:0:
256,144,163635,2,0,L|256:312,2,144,4|0|4,0:3|1:0|0:3,0:0:0:0:
512,176,165399,6,0,L|371:146,1,144,4|0,0:3|1:0,0:0:0:0:
320,32,166281,53,4,0:3:0:0:
192,32,166723,1,0,1:0:0:0:
256,144,167164,2,0,L|256:312,2,144,4|0|4,0:3|1:0|0:3,0:0:0:0:
56,192,169370,53,8,0:0:0:0:
200,112,169811,2,0,P|202:36|312:112,1,287.999991210938,4|2,0:0|0:1,0:0:0:0:
456,192,170988,1,2,0:0:0:0:
456,192,171135,1,8,0:0:0:0:
312,272,171576,2,0,P|310:348|200:272,1,287.999991210938,2|2,0:0|0:1,0:0:0:0:
56,192,172752,1,2,0:0:0:0:
56,192,172899,1,8,0:0:0:0:
8,336,173341,5,4,0:3:0:0:
120,264,173782,1,0,1:0:0:0:
256,304,174223,2,0,L|256:112,2,172.799994726563,4|0|4,0:3|1:0|0:3,0:0:0:0:
392,264,175546,1,0,1:0:0:0:
504,336,175988,1,4,0:3:0:0:
504,336,176429,1,0,1:0:0:0:
456,192,176870,22,0,L|456:-8,2,172.799994726563,2|8|2,0:0|0:0|0:0,0:0:0:0:
328,144,178194,1,8,0:0:0:0:
200,192,178635,2,0,L|200:392,2,172.799994726563,2|8|2,0:0|0:0|0:0,0:0:0:0:
72,144,179958,1,8,0:0:0:0:
200,88,180399,5,4,0:3:0:0:
200,88,180841,1,8,0:0:0:0:
336,128,181282,1,4,0:3:0:0:
336,128,181723,1,8,0:0:0:0:
256,20,182164,2,2,L|256:372,1,345.599989453125,2|2,0:1|0:1,0:1:0:0:
392,312,183488,5,8,0:0:0:0:
392,144,183929,1,6,0:1:0:0:
256,312,184664,1,2,0:1:0:0:
120,312,185105,1,2,0:0:0:0:
120,312,185252,1,8,0:0:0:0:
120,144,185693,1,6,0:1:0:0:
256,312,186429,1,2,0:1:0:0:
392,312,186870,1,2,0:0:0:0:
392,312,187017,1,8,0:0:0:0:
480,192,187458,5,4,0:3:0:0:
352,152,187899,1,0,1:0:0:0:
256,248,188340,2,0,L|256:56,2,172.799994726563,4|0|4,0:3|1:0|0:3,0:0:0:0:
160,152,189663,1,0,1:0:0:0:
48,224,190105,1,4,0:3:0:0:
48,224,190546,1,0,1:0:0:0:
176,320,190988,22,0,L|376:320,2,172.799994726563,2|8|2,0:0|0:0|0:0,0:0:0:0:
232,192,192312,1,8,0:0:0:0:
176,64,192753,2,0,L|-24:64,2,172.799994726563,2|8|2,0:0|0:0|0:0,0:0:0:0:
120,192,194076,1,8,0:0:0:0:
256,120,194517,5,4,0:3:0:0:
256,120,194959,1,8,0:0:0:0:
320,248,195400,1,4,0:3:0:0:
320,248,195841,1,8,0:0:0:0:
428,160,196282,2,2,L|76:160,1,345.599989453125,2|2,0:1|0:1,0:1:0:0:
416,80,198047,5,4,0:0:0:0:
256,48,198782,2,0,L|256:192,1,144,2|2,0:0|0:1,0:0:0:0:
96,80,199811,1,2,0:0:0:0:
256,48,200547,2,0,L|256:192,1,144,2|2,0:0|0:1,0:0:0:0:
416,224,201577,1,2,0:0:0:0:
256,192,202312,2,0,L|256:336,1,144,2|2,0:0|0:1,0:0:0:0:
96,224,203342,1,2,0:0:0:0:
256,192,204077,2,0,L|256:336,1,144,2|2,0:0|0:1,0:0:0:0:
88,48,205105,6,0,L|88:288,1,240,2|2,0:0|0:0,0:0:0:0:
312,48,206870,2,0,L|312:288,1,240,2|2,0:0|0:0,0:0:0:0:
200,48,208635,2,0,L|200:288,1,240,2|2,0:0|0:0,0:0:0:0:
424,48,210399,2,0,L|424:344,1,288,2|2,0:0|0:0,0:0:0:0:
