osu file format v14

[General]
AudioFilename: audio.mp3
AudioLeadIn: 0
PreviewTime: 56245
Countdown: 0
SampleSet: Soft
StackLeniency: 0.7
Mode: 0
LetterboxInBreaks: 0
WidescreenStoryboard: 1

[Editor]
Bookmarks: 14517,28635,42752,56870,85105,99223,113341,141576,169811,198047,212164
DistanceSpacing: 1.2
BeatDivisor: 3
GridSize: 8
TimelineZoom: 1

[Metadata]
Title:Bad Girl, Good Girl
TitleUnicode:Bad Girl, Good Girl
Artist:miss A
ArtistUnicode:미쓰에이
Creator:Sonnyc
Version:Hard
Source:
Tags:missa Bad But Good 배드걸 굿걸 유목농민 페이 fei 지아 jia 수지 suzy 민 min jyp kpop k-pop korean pop
BeatmapID:2634802
BeatmapSetID:1266796

[Difficulty]
HPDrainRate:5
CircleSize:4
OverallDifficulty:6
ApproachRate:7.5
SliderMultiplier:1.6
SliderTickRate:3

[Events]
//Background and Video events
0,0,"bg.jpg",0,0
//Break Periods
//Storyboard Layer 0 (Background)
//Storyboard Layer 1 (Fail)
//Storyboard Layer 2 (Pass)
//Storyboard Layer 3 (Foreground)
//Storyboard Layer 4 (Overlay)
//Storyboard Sound Samples

[TimingPoints]
400,441.176470588235,4,2,1,70,1,0
56870,-83.3333333333333,4,2,1,80,0,1
58047,-100,4,2,1,80,0,1
58635,-83.3333333333333,4,2,1,80,0,1
59811,-100,4,2,1,80,0,1
70988,-83.3333333333333,4,2,1,80,0,1
72165,-100,4,2,1,80,0,1
72752,-83.3333333333333,4,2,1,80,0,1
73929,-100,4,2,1,80,0,1
85105,-100,4,2,1,70,0,0
113341,-83.3333333333333,4,2,1,80,0,1
114518,-100,4,2,1,80,0,1
115105,-83.3333333333333,4,2,1,80,0,1
116282,-100,4,2,1,80,0,1
127458,-83.3333333333333,4,2,1,80,0,1
128636,-100,4,2,1,80,0,1
129223,-83.3333333333333,4,2,1,80,0,1
130400,-100,4,2,1,80,0,1
141576,-100,4,2,1,70,0,0
169223,-83.3333333333333,4,2,1,70,0,0
169811,-66.6666666666667,4,2,1,80,0,1
170988,-83.3333333333333,4,2,1,80,0,1
171576,-66.6666666666667,4,2,1,80,0,1
172752,-83.3333333333333,4,2,1,80,0,1
196576,-100,4,2,1,80,0,1
198047,-90.9090909090909,4,2,1,70,0,0

[Colours]
Combo1 : 253,115,173
Combo2 : 121,193,62
Combo3 : 155,160,227
Combo4 : 113,236,233
Combo5 : 247,172,72

[HitObjects]
96,80,14517,5,4,0:0:0:0:
176,56,14885,1,2,0:0:0:0:
256,32,15252,2,0,L|256:192,1,160,2|2,0:0|0:1,0:0:0:0:
416,80,16282,1,2,0:0:0:0:
336,56,16649,1,2,0:0:0:0:
256,32,17017,2,0,L|256:192,1,160,2|2,0:0|0:1,0:0:0:0:
96,240,18047,1,2,0:0:0:0:
176,216,18414,1,2,0:0:0:0:
256,192,18782,2,0,L|256:352,1,160,2|2,0:0|0:1,0:0:0:0:
416,240,19811,1,2,0:0:0:0:
336,216,20179,1,2,0:0:0:0:
256,192,20547,2,0,L|256:352,1,160,2|2,0:0|0:1,0:0:0:0:
136,56,21429,5,0,0:0:0:0:
136,56,21576,2,0,L|136:176,1,106.666666666667,2|0,0:0|0:0,0:0:0:0:
136,288,22311,1,2,0:0:0:0:
296,56,23194,1,0,0:0:0:0:
296,56,23341,2,0,L|296:176,1,106.666666666667,2|0,0:0|0:0,0:0:0:0:
296,288,24076,1,2,0:0:0:0:
216,56,24958,1,0,0:0:0:0:
216,56,25105,2,0,L|216:176,1,106.666666666667,2|0,0:0|0:0,0:0:0:0:
216,288,25841,1,2,0:0:0:0:
376,56,26723,1,0,0:0:0:0:
376,56,26870,2,0,L|376:176,1,106.666666666667,2|0,0:0|0:0,0:0:0:0:
216,56,27605,2,0,L|216:152,1,53.3333333333333,2|0,0:0|0:0,0:0:0:0:
256,192,28635,5,4,0:3:0:0:
256,280,29076,1,0,1:0:0:0:
256,368,29517,1,4,0:3:0:0:
488,192,29958,6,0,P|496:140|466:97,1,106.666666666667,0|0,1:0|0:3,0:0:0:0:
400,132,30399,2,0,P|391:80|421:37,1,106.666666666667,4|0,0:3|0:3,0:0:0:0:
495,24,30841,1,0,1:0:0:0:
344,192,31282,2,0,P|342:269|401:319,2,160,4|0|4,0:3|1:0|0:3,0:0:0:0:
256,368,32605,53,0,1:0:0:0:
256,280,33047,1,4,0:3:0:0:
256,192,33488,1,0,1:0:0:0:
80,80,33929,6,0,P|50:123|58:174,1,106.666666666667,4|0,0:3|0:3,0:0:0:0:
131,141,34370,1,0,1:0:0:0:
131,141,34811,2,0,P|189:191|188:268,2,160,4|0|4,0:3|1:0|0:3,0:0:0:0:
184,344,38341,54,0,P|256:376|328:344,1,160,4|0,0:3|1:0,0:0:0:0:
328,248,39076,2,0,P|256:216|184:248,1,160,2|2,0:0|0:0,0:0:0:0:
154,56,42752,22,0,L|48:56,1,106.666666666667,2|0,0:0|0:0,0:0:0:0:
256,56,43488,1,2,0:0:0:0:
256,56,43635,1,0,0:0:0:0:
465,56,44076,2,0,L|358:56,1,106.666666666667,2|0,0:0|0:0,0:0:0:0:
256,216,44811,21,2,0:0:0:0:
256,216,44958,2,0,L|256:56,2,160,0|0|0,1:0|0:0|1:0,0:0:0:0:
357,328,46282,38,0,L|464:328,1,106.666666666667,2|0,0:0|0:0,0:0:0:0:
256,328,47017,1,2,0:0:0:0:
256,328,47164,1,0,0:0:0:0:
47,328,47605,2,0,L|154:328,1,106.666666666667,2|0,0:0|0:0,0:0:0:0:
256,168,48341,21,0,0:0:0:0:
256,168,48488,2,0,L|256:328,2,160,0|0|0,1:0|0:0|1:0,0:0:0:0:
256,56,49811,1,2,0:0:0:0:
136,296,50988,5,2,0:0:0:0:
136,296,51135,1,0,1:0:0:0:
272,296,51429,1,0,0:0:0:0:
272,296,51576,2,0,L|456:296,2,160,2|0|2,0:0|1:0|0:0,0:0:0:0:
392,192,53341,53,2,0:0:0:0:
256,192,53782,2,0,L|96:192,1,160,0|2,1:0|0:0,0:0:0:0:
136,88,54664,5,0,1:0:0:0:
272,88,54958,1,0,0:0:0:0:
272,88,55105,2,0,L|456:88,2,160,2|0|2,0:0|1:0|0:0,0:0:0:0:
136,88,56282,37,8,0:0:0:0:
136,88,56429,2,0,L|136:208,1,106.666666666667,2|8,0:0|0:0,0:0:0:0:
200,240,56870,2,0,P|280:352|312:240,1,319.999990234375,4|2,0:0|0:1,0:0:0:0:
376,88,58047,1,2,0:0:0:0:
376,88,58194,2,0,L|376:208,1,106.666666666667,8|8,0:0|0:0,0:0:0:0:
312,240,58635,2,0,P|232:352|200:240,1,319.999990234375,2|2,0:0|0:1,0:0:0:0:
256,16,59811,5,2,0:0:0:0:
256,16,59958,1,8,0:0:0:0:
208,168,60252,1,0,0:0:0:0:
208,168,60399,2,0,L|112:120,1,106.666666666667,2|0,0:0|0:0,0:0:0:0:
112,120,60841,1,8,0:0:0:0:
304,168,61135,1,0,0:0:0:0:
304,168,61282,2,0,L|400:120,1,106.666666666667,2|0,0:0|0:0,0:0:0:0:
399,120,61723,1,8,0:0:0:0:
472,280,62017,5,0,0:0:0:0:
472,360,62164,1,2,0:0:0:0:
328,280,62458,1,0,0:0:0:0:
328,360,62605,1,8,0:0:0:0:
184,280,62899,1,8,0:0:0:0:
184,360,63047,1,2,0:0:0:0:
40,280,63341,1,0,0:0:0:0:
40,360,63488,1,8,0:0:0:0:
256,264,63929,6,0,L|256:80,2,160,2|8|2,0:0|0:0|0:0,0:0:0:0:
408,384,65252,2,0,L|408:256,1,106.666666666667,8|0,0:0|0:0,0:0:0:0:
408,200,65694,1,2,0:0:0:0:
256,112,66135,1,8,0:0:0:0:
104,200,66576,1,2,0:0:0:0:
256,272,67017,2,0,L|256:165,1,106.666666666667,8|0,0:0|0:0,0:0:0:0:
207,100,67458,6,0,P|241:84|305:100,1,106.666666666667,2|0,0:0|0:0,0:0:0:0:
352,160,67899,1,8,0:0:0:0:
160,240,68194,1,8,0:0:0:0:
207,300,68341,2,0,P|241:316|305:300,1,106.666666666667,2|0,0:0|0:0,0:0:0:0:
352,240,68782,1,8,0:0:0:0:
160,160,69076,1,2,0:1:0:0:
256,316,69517,2,2,L|256:100,1,213.333333333333,2|0,0:1|0:0,0:1:0:0:
480,192,70399,5,8,0:0:0:0:
480,192,70547,2,0,L|360:192,1,106.666666666667,2|8,0:0|0:0,0:0:0:0:
312,144,70988,2,0,P|232:32|200:144,1,319.999990234375,4|2,0:0|0:1,0:0:0:0:
32,192,72164,1,2,0:0:0:0:
32,192,72311,2,0,L|152:192,1,106.666666666667,8|8,0:0|0:0,0:0:0:0:
200,144,72752,2,0,P|280:32|312:144,1,319.999990234375,2|2,0:0|0:1,0:0:0:0:
256,368,73929,5,2,0:0:0:0:
256,368,74076,1,8,0:0:0:0:
112,280,74370,1,0,0:0:0:0:
112,280,74517,2,0,L|208:232,1,106.666666666667,2|0,0:0|0:0,0:0:0:0:
208,232,74958,1,8,0:0:0:0:
400,280,75252,1,0,0:0:0:0:
400,280,75399,2,0,L|304:232,1,106.666666666667,2|0,0:0|0:0,0:0:0:0:
304,232,75841,1,8,0:0:0:0:
472,56,76135,5,0,0:0:0:0:
472,136,76282,1,2,0:0:0:0:
328,56,76576,1,0,0:0:0:0:
328,136,76723,1,8,0:0:0:0:
184,56,77017,1,8,0:0:0:0:
184,136,77164,1,2,0:0:0:0:
40,56,77458,1,0,0:0:0:0:
40,136,77605,1,8,0:0:0:0:
256,224,78047,6,0,L|256:408,2,160,2|8|2,0:0|0:0|0:0,0:0:0:0:
88,128,79370,2,0,L|88:256,1,106.666666666667,8|0,0:0|0:0,0:0:0:0:
88,312,79811,1,2,0:0:0:0:
256,264,80252,1,8,0:0:0:0:
424,312,80694,1,2,0:0:0:0:
256,264,80988,1,0,0:0:0:0:
256,264,81135,1,8,0:0:0:0:
356,56,81576,6,0,P|372:90|356:154,1,106.666666666667,2|0,0:0|0:0,0:0:0:0:
296,201,82017,1,8,0:0:0:0:
216,9,82311,1,8,0:0:0:0:
156,56,82458,2,0,P|140:90|156:154,1,106.666666666667,2|0,0:0|0:0,0:0:0:0:
216,201,82899,1,8,0:0:0:0:
296,9,83194,1,2,0:1:0:0:
68,105,83635,2,2,L|444:105,1,373.333333333333,2|8,0:1|0:0,0:1:0:0:
256,192,85105,37,4,0:3:0:0:
256,280,85547,1,0,1:0:0:0:
256,368,85988,1,4,0:3:0:0:
152,56,86429,6,0,P|160:108|130:151,1,106.666666666667,0|0,1:0|0:3,0:0:0:0:
80,88,86870,2,0,P|51:132|59:183,1,106.666666666667,4|0,0:3|0:3,0:0:0:0:
120,232,87311,1,0,1:0:0:0:
280,120,87752,2,0,P|338:171|336:248,2,160,4|0|4,0:3|1:0|0:3,0:0:0:0:
256,368,89076,53,0,1:0:0:0:
256,280,89370,1,0,0:0:0:0:
256,280,89517,1,4,0:3:0:0:
256,192,89958,1,0,1:0:0:0:
406,94,90399,6,0,P|436:137|428:188,1,106.666666666667,4|0,0:3|0:3,0:0:0:0:
355,155,90841,2,0,P|297:205|298:282,2,160,0|4|0,1:3|0:3|1:0,0:0:0:0:
406,342,92164,1,2,0:1:0:0:
406,342,92605,1,2,1:1:0:0:
157,155,94811,2,0,P|215:205|213:283,1,160,4|0,0:3|1:3,0:0:0:0:
105,341,95693,1,2,0:1:0:0:
105,341,96134,1,2,1:1:0:0:
105,341,97458,54,0,P|225:301|409:341,1,320,2|0,0:0|0:0,0:0:0:0:
358,56,99223,22,0,L|464:56,1,106.666666666667,2|0,0:0|0:0,0:0:0:0:
256,56,99958,1,2,0:0:0:0:
256,56,100105,1,0,0:0:0:0:
47,56,100547,2,0,L|154:56,1,106.666666666667,2|0,0:0|0:0,0:0:0:0:
280,192,101282,21,2,0:0:0:0:
280,192,101429,2,0,L|120:192,2,160,0|0|0,1:0|0:0|1:0,0:0:0:0:
155,328,102752,38,0,L|48:328,1,106.666666666667,2|0,0:0|0:0,0:0:0:0:
256,328,103488,1,2,0:0:0:0:
256,328,103635,1,0,0:0:0:0:
465,328,104076,2,0,L|358:328,1,106.666666666667,2|0,0:0|0:0,0:0:0:0:
232,192,104811,21,2,0:0:0:0:
232,192,104958,2,0,L|392:192,2,160,0|0|0,1:0|0:0|1:0,0:0:0:0:
120,192,106282,1,2,0:0:0:0:
376,296,107458,5,2,0:0:0:0:
376,296,107605,1,0,1:0:0:0:
240,296,107899,1,0,0:0:0:0:
240,296,108047,2,0,L|56:296,2,160,2|0|2,0:0|1:0|0:0,0:0:0:0:
120,192,109811,53,2,0:0:0:0:
256,192,110252,2,0,L|416:192,1,160,0|2,1:0|0:0,0:0:0:0:
376,88,111135,5,0,1:0:0:0:
240,88,111429,1,0,0:0:0:0:
240,88,111576,2,0,L|56:88,2,160,2|0|2,0:0|1:0|0:0,0:0:0:0:
376,88,112752,37,8,0:0:0:0:
376,88,112899,2,0,L|376:208,1,106.666666666667,2|8,0:0|0:0,0:0:0:0:
312,240,113341,2,0,P|232:352|200:240,1,319.999990234375,4|2,0:0|0:1,0:0:0:0:
136,88,114517,1,2,0:0:0:0:
136,88,114664,2,0,L|136:208,1,106.666666666667,8|8,0:0|0:0,0:0:0:0:
200,240,115105,2,0,P|280:352|312:240,1,319.999990234375,2|2,0:0|0:1,0:0:0:0:
256,16,116282,5,2,0:0:0:0:
256,16,116429,1,8,0:0:0:0:
304,168,116723,1,0,0:0:0:0:
304,168,116870,2,0,L|400:120,1,106.666666666667,2|0,0:0|0:0,0:0:0:0:
400,120,117311,1,8,0:0:0:0:
208,168,117605,1,0,0:0:0:0:
208,168,117752,2,0,L|112:120,1,106.666666666667,2|0,0:0|0:0,0:0:0:0:
113,120,118194,1,8,0:0:0:0:
40,280,118488,5,0,0:0:0:0:
40,360,118635,1,2,0:0:0:0:
184,280,118929,1,0,0:0:0:0:
184,360,119076,1,8,0:0:0:0:
328,280,119370,1,8,0:0:0:0:
328,360,119517,1,2,0:0:0:0:
472,280,119811,1,0,0:0:0:0:
472,360,119958,1,8,0:0:0:0:
256,264,120399,6,0,L|256:80,2,160,2|8|2,0:0|0:0|0:0,0:0:0:0:
104,384,121723,2,0,L|104:256,1,106.666666666667,8|0,0:0|0:0,0:0:0:0:
104,200,122164,1,2,0:0:0:0:
256,112,122605,1,8,0:0:0:0:
408,200,123047,1,2,0:0:0:0:
256,272,123488,2,0,L|256:165,1,106.666666666667,8|0,0:0|0:0,0:0:0:0:
305,100,123929,6,0,P|271:84|207:100,1,106.666666666667,2|0,0:0|0:0,0:0:0:0:
160,160,124370,1,8,0:0:0:0:
352,240,124664,1,8,0:0:0:0:
305,300,124811,2,0,P|271:316|207:300,1,106.666666666667,2|0,0:0|0:0,0:0:0:0:
160,240,125252,1,8,0:0:0:0:
352,160,125547,1,2,0:1:0:0:
256,316,125988,2,2,L|256:100,1,213.333333333333,2|0,0:1|0:0,0:1:0:0:
32,192,126870,5,8,0:0:0:0:
32,192,127017,2,0,L|152:192,1,106.666666666667,2|8,0:0|0:0,0:0:0:0:
200,144,127458,2,0,P|280:32|312:144,1,319.999990234375,4|2,0:0|0:1,0:0:0:0:
480,192,128635,1,2,0:0:0:0:
480,192,128782,2,0,L|360:192,1,106.666666666667,8|8,0:0|0:0,0:0:0:0:
312,144,129223,2,0,P|232:32|200:144,1,319.999990234375,2|2,0:0|0:1,0:0:0:0:
256,368,130399,5,2,0:0:0:0:
256,368,130547,1,8,0:0:0:0:
400,280,130841,1,0,0:0:0:0:
400,280,130988,2,0,L|304:232,1,106.666666666667,2|0,0:0|0:0,0:0:0:0:
304,232,131429,1,8,0:0:0:0:
112,280,131723,1,0,0:0:0:0:
112,280,131870,2,0,L|208:232,1,106.666666666667,2|0,0:0|0:0,0:0:0:0:
208,232,132311,1,8,0:0:0:0:
40,56,132605,5,0,0:0:0:0:
40,136,132752,1,2,0:0:0:0:
184,56,133047,1,0,0:0:0:0:
184,136,133194,1,8,0:0:0:0:
328,56,133488,1,8,0:0:0:0:
328,136,133635,1,2,0:0:0:0:
472,56,133929,1,0,0:0:0:0:
472,136,134076,1,8,0:0:0:0:
256,224,134517,6,0,L|256:408,2,160,2|8|2,0:0|0:0|0:0,0:0:0:0:
424,128,135841,2,0,L|424:256,1,106.666666666667,8|0,0:0|0:0,0:0:0:0:
424,312,136282,1,2,0:0:0:0:
256,264,136723,1,8,0:0:0:0:
88,312,137164,1,2,0:0:0:0:
256,264,137458,1,0,0:0:0:0:
256,264,137605,1,8,0:0:0:0:
156,56,138047,6,0,P|140:90|156:154,1,106.666666666667,2|0,0:0|0:0,0:0:0:0:
216,201,138488,1,8,0:0:0:0:
296,9,138782,1,8,0:0:0:0:
356,56,138929,2,0,P|372:90|356:154,1,106.666666666667,2|0,0:0|0:0,0:0:0:0:
296,201,139370,1,8,0:0:0:0:
216,9,139664,1,2,0:1:0:0:
444,105,140105,2,2,L|68:105,1,373.333333333333,2|8,0:1|0:0,0:1:0:0:
0,256,141576,6,0,B|60:167|197:191|208:256|221:323|348:351|417:258,1,480,4|8,0:0|0:0,0:0:0:0:
480,104,143341,2,0,B|439:163|348:146|340:103|332:59|247:40|201:102,1,320,2|0,0:0|0:0,0:0:0:0:
320,304,144517,21,0,0:0:0:0:
320,304,144664,2,0,L|472:248,2,160,8|2|8,0:0|0:0|0:0,0:0:0:0:
406,176,145988,2,0,L|256:232,1,160,2|8,0:0|0:0,0:0:0:0:
65,383,146870,2,0,L|216:328,1,160,2|8,0:0|0:0,0:0:0:0:
1,311,147752,2,0,L|152:256,1,160,2|8,0:0|0:0,0:0:0:0:
176,24,148635,38,0,P|192:176|336:24,1,480,2|8,0:0|0:0,0:0:0:0:
400,224,150399,2,0,P|328:272|112:224,1,320,2|0,0:0|0:0,0:0:0:0:
224,16,151576,21,0,0:0:0:0:
224,16,151723,2,0,L|280:168,2,160,8|2|8,0:0|0:0|0:0,0:0:0:0:
184,152,153047,2,0,L|128:0,2,160,2|8|2,0:0|0:0|0:0,0:0:0:0:
320,24,154811,2,0,L|376:176,1,160,2|8,0:0|0:0,0:0:0:0:
512,256,155694,38,0,B|452:167|315:191|304:256|291:323|164:351|95:258,1,480,2|8,0:0|0:0,0:0:0:0:
32,104,157459,2,0,B|73:163|164:146|172:103|180:59|265:40|311:102,1,320,2|0,0:0|0:0,0:0:0:0:
192,304,158635,21,0,0:0:0:0:
192,304,158782,2,0,L|40:248,2,160,8|2|8,0:0|0:0|0:0,0:0:0:0:
106,176,160105,2,0,L|256:232,1,160,2|8,0:0|0:0,0:0:0:0:
447,383,160988,2,0,L|296:328,1,160,2|8,0:0|0:0,0:0:0:0:
511,311,161870,2,0,L|360:256,1,160,2|8,0:0|0:0,0:0:0:0:
96,184,162751,53,2,0:0:0:0:
128,24,163194,1,8,0:0:0:0:
256,64,163635,1,2,0:0:0:0:
384,24,164076,1,8,0:0:0:0:
416,184,164517,1,2,0:0:0:0:
256,64,165252,5,0,0:0:0:0:
256,64,165399,2,0,L|256:256,1,160,2|8,0:0|0:0,0:0:0:0:
512,352,166282,53,2,0:0:0:0:
384,352,166724,1,8,0:0:0:0:
256,352,167165,1,2,0:0:0:0:
128,352,167606,1,8,0:0:0:0:
0,352,168047,1,2,0:0:0:0:
128,32,169223,53,8,0:0:0:0:
128,32,169370,2,0,L|128:168,1,127.99999609375,2|8,0:0|0:0,0:0:0:0:
200,224,169811,2,0,P|296:359|312:224,1,400.00001525879,4|2,0:0|0:1,0:0:0:0:
384,32,170988,1,2,0:0:0:0:
384,32,171135,2,0,L|384:168,1,127.99999609375,8|8,0:0|0:0,0:0:0:0:
312,224,171576,2,0,P|216:359|200:224,1,400.00001525879,2|2,0:0|0:1,0:0:0:0:
256,32,172752,5,2,0:0:0:0:
256,32,172899,1,8,0:0:0:0:
56,136,173194,1,0,0:0:0:0:
56,136,173341,2,0,L|180:167,1,127.99999609375,2|0,0:0|0:0,0:0:0:0:
256,184,173782,1,8,0:0:0:0:
456,136,174076,1,0,0:0:0:0:
456,136,174223,2,0,L|331:167,1,127.99999609375,2|0,0:0|0:0,0:0:0:0:
256,184,174664,1,8,0:0:0:0:
464,312,174958,5,0,0:0:0:0:
384,360,175105,1,2,0:0:0:0:
328,200,175399,1,0,0:0:0:0:
312,288,175547,1,8,0:0:0:0:
184,200,175841,1,8,0:0:0:0:
200,288,175988,1,2,0:0:0:0:
48,312,176282,1,0,0:0:0:0:
128,360,176429,1,8,0:0:0:0:
256,208,176870,6,0,L|256:16,2,191.999994140625,2|8|2,0:0|0:0|0:0,0:0:0:0:
88,384,178194,2,0,L|88:256,1,127.99999609375,8|0,0:0|0:0,0:0:0:0:
40,192,178635,1,2,0:0:0:0:
256,280,179076,1,8,0:0:0:0:
472,192,179517,1,2,0:0:0:0:
256,104,179958,2,0,L|256:232,1,127.99999609375,8|0,0:0|0:0,0:0:0:0:
200,280,180399,6,0,P|240:304|312:280,1,127.99999609375,2|0,0:0|0:0,0:0:0:0:
352,216,180841,1,8,0:0:0:0:
160,136,181135,1,8,0:0:0:0:
199,73,181283,2,0,P|255:47|312:72,1,127.99999609375,2|0,0:0|0:0,0:0:0:0:
352,136,181723,1,8,0:0:0:0:
160,216,182017,1,2,0:1:0:0:
256,48,182458,2,2,L|256:336,1,255.9999921875,2|0,0:1|0:0,0:1:0:0:
512,112,183341,5,8,0:0:0:0:
512,112,183488,2,0,L|384:112,1,127.99999609375,2|8,0:0|0:0,0:0:0:0:
312,48,183929,1,6,0:1:0:0:
312,48,184664,1,2,0:1:0:0:
0,112,185105,1,2,0:0:0:0:
0,112,185252,2,0,L|128:112,1,127.99999609375,8|8,0:0|0:0,0:0:0:0:
200,48,185694,1,6,0:1:0:0:
200,48,186429,1,2,0:1:0:0:
256,352,186870,5,2,0:0:0:0:
256,352,187017,1,8,0:0:0:0:
200,168,187312,1,0,0:0:0:0:
200,168,187459,2,0,L|76:199,1,127.99999609375,2|0,0:0|0:0,0:0:0:0:
0,216,187900,1,8,0:0:0:0:
312,168,188194,1,0,0:0:0:0:
312,168,188341,2,0,L|436:199,1,127.99999609375,2|0,0:0|0:0,0:0:0:0:
512,216,188782,1,8,0:0:0:0:
392,24,189076,5,0,0:0:0:0:
472,72,189223,1,2,0:0:0:0:
312,120,189517,1,0,0:0:0:0:
328,208,189664,1,8,0:0:0:0:
200,120,189958,1,8,0:0:0:0:
184,208,190105,1,2,0:0:0:0:
120,24,190399,1,0,0:0:0:0:
40,72,190546,1,8,0:0:0:0:
256,184,190988,6,0,L|256:376,2,191.999994140625,2|8|2,0:0|0:0|0:0,0:0:0:0:
400,0,192311,2,0,L|400:128,1,127.99999609375,8|0,0:0|0:0,0:0:0:0:
440,192,192752,1,2,0:0:0:0:
256,64,193193,1,8,0:0:0:0:
72,192,193635,1,2,0:0:0:0:
256,64,193929,1,0,0:0:0:0:
256,64,194076,1,8,0:0:0:0:
152,288,194517,6,0,P|128:248|152:176,1,127.99999609375,2|0,0:0|0:0,0:0:0:0:
216,136,194958,1,8,0:0:0:0:
296,328,195252,1,8,0:0:0:0:
359,289,195400,2,0,P|385:233|360:176,1,127.99999609375,2|0,0:0|0:0,0:0:0:0:
296,136,195841,1,8,0:0:0:0:
216,328,196135,1,2,0:1:0:0:
443,232,196576,2,2,L|67:232,1,373.333333333333,2|8,0:1|0:0,0:1:0:0:
440,72,198047,5,4,0:0:0:0:
348,44,198414,1,2,0:0:0:0:
256,16,198782,2,0,L|256:192,1,176.000005371094,2|2,0:0|0:1,0:0:0:0:
72,72,199811,1,2,0:0:0:0:
164,44,200179,1,2,0:0:0:0:
256,16,200546,2,0,L|256:192,1,176.000005371094,2|2,0:0|0:1,0:0:0:0:
440,248,201576,1,2,0:0:0:0:
348,220,201944,1,2,0:0:0:0:
256,192,202311,2,0,L|256:368,1,176.000005371094,2|2,0:0|0:1,0:0:0:0:
72,248,203341,1,2,0:0:0:0:
164,220,203708,1,2,0:0:0:0:
256,192,204076,2,0,L|256:368,1,176.000005371094,2|2,0:0|0:1,0:0:0:0:
400,56,204959,5,0,0:0:0:0:
400,56,205106,2,0,L|400:192,1,117.333336914063,2|0,0:0|0:0,0:0:0:0:
400,336,205841,1,2,0:0:0:0:
208,56,206723,1,0,0:0:0:0:
208,56,206870,2,0,L|208:192,1,117.333336914063,2|0,0:0|0:0,0:0:0:0:
208,336,207605,1,2,0:0:0:0:
304,56,208488,1,0,0:0:0:0:
304,56,208635,2,0,L|304:192,1,117.333336914063,2|0,0:0|0:0,0:0:0:0:
304,336,209370,1,2,0:0:0:0:
112,56,210252,1,0,0:0:0:0:
112,56,210399,2,0,L|112:192,1,117.333336914063,2|0,0:0|0:0,0:0:0:0:
304,56,211135,2,0,L|304:120,1,58.6666684570313,2|0,0:0|0:0,0:0:0:0:
