osu file format v14

[General]
AudioFilename: audio.mp3
AudioLeadIn: 0
PreviewTime: 56245
Countdown: 0
SampleSet: Soft
StackLeniency: 0.7
Mode: 0
LetterboxInBreaks: 0
WidescreenStoryboard: 1

[Editor]
Bookmarks: 14517,28635,42752,56870,85105,99223,113341,141576,169811,198047,212164
DistanceSpacing: 1.2
BeatDivisor: 3
GridSize: 8
TimelineZoom: 1

[Metadata]
Title:Bad Girl, Good Girl
TitleUnicode:Bad Girl, Good Girl
Artist:miss A
ArtistUnicode:미쓰에이
Creator:Sonnyc
Version:Easy
Source:
Tags:missa Bad But Good 배드걸 굿걸 유목농민 페이 fei 지아 jia 수지 suzy 민 min jyp kpop k-pop korean pop
BeatmapID:2637428
BeatmapSetID:1266796

[Difficulty]
HPDrainRate:3
CircleSize:3
OverallDifficulty:2
ApproachRate:2
SliderMultiplier:0.8
SliderTickRate:1

[Events]
//Background and Video events
0,0,"bg.jpg",0,0
//Break Periods
//Storyboard Layer 0 (Background)
//Storyboard Layer 1 (Fail)
//Storyboard Layer 2 (Pass)
//Storyboard Layer 3 (Foreground)
//Storyboard Layer 4 (Overlay)
//Storyboard Sound Samples

[TimingPoints]
400,441.176470588235,4,2,1,70,1,0
56870,-83.3333333333333,4,2,1,80,0,1
85105,-100,4,2,1,70,0,0
113341,-83.3333333333333,4,2,1,80,0,1
141576,-100,4,2,1,70,0,0
169811,-83.3333333333333,4,2,1,80,0,1
198047,-100,4,2,1,70,0,0

[Colours]
Combo1 : 253,115,173
Combo2 : 121,193,62
Combo3 : 155,160,227
Combo4 : 113,236,233
Combo5 : 247,172,72

[HitObjects]
102,153,14517,5,4,0:0:0:0:
256,86,15399,1,2,1:1:0:0:
409,153,16282,1,4,0:3:0:0:
256,86,17164,1,2,1:1:0:0:
256,249,18047,1,4,0:3:0:0:
102,316,18929,1,2,1:1:0:0:
256,249,19811,1,4,0:3:0:0:
409,316,20694,1,2,1:1:0:0:
368,80,21576,6,0,L|368:240,1,160,4|0,0:3|1:0,0:0:0:0:
208,80,23341,2,0,L|208:240,1,160,4|0,0:3|1:0,0:0:0:0:
304,80,25105,2,0,L|304:240,1,160,4|0,0:3|1:0,0:0:0:0:
144,80,26870,2,0,L|144:240,1,160,4|2,0:3|1:0,0:0:0:0:
256,312,28635,5,4,0:3:0:0:
256,216,29517,1,0,1:0:0:0:
328,152,30399,2,0,P|392:192|400:280,2,160,4|0|4,0:3|1:0|0:3,0:0:0:0:
256,216,33047,1,0,1:0:0:0:
256,312,33929,1,4,0:3:0:0:
184,376,34811,2,0,P|120:336|112:248,1,160,0|4,1:0|0:3,0:0:0:0:
144,320,38341,2,0,P|216:352|368:320,1,240,4|0,0:3|1:0,0:0:0:0:
392,88,42752,21,2,0:1:0:0:
224,88,43635,1,0,1:0:0:0:
120,88,44370,1,0,1:3:0:0:
120,88,46281,1,2,0:1:0:0:
288,88,47164,1,0,1:0:0:0:
392,88,47899,1,0,1:3:0:0:
256,336,49811,37,4,0:3:0:0:
96,240,51576,2,0,L|264:240,1,160,4|0,0:3|1:0,0:0:0:0:
416,144,53341,2,0,L|256:144,1,160,4|0,0:3|1:0,0:0:0:0:
96,48,55105,2,0,L|264:48,1,160,4|0,0:3|1:0,0:0:0:0:
304,240,56870,38,0,P|264:344|208:240,1,287.999991210938,4|2,0:0|1:1,0:0:0:0:
208,144,58635,2,0,P|279:44|304:144,1,287.999991210938,2|2,0:0|1:1,0:0:0:0:
384,192,60399,5,4,0:3:0:0:
256,336,61282,1,0,1:0:0:0:
128,192,62164,1,4,0:3:0:0:
256,48,63047,1,0,1:0:0:0:
432,112,63929,22,0,L|328:280,1,191.999994140625,4|0,0:3|1:3,0:0:0:0:
192,144,65694,2,0,L|88:312,1,191.999994140625,4|0,0:3|1:3,0:0:0:0:
256,384,67458,6,0,L|256:-16,1,383.99998828125,4|2,0:3|1:1,0:0:0:0:
400,192,70988,6,0,P|352:88|304:192,1,287.999991210938,2|2,0:0|1:1,0:0:0:0:
208,192,72753,2,0,P|164:297|112:192,1,287.999991210938,2|2,0:0|1:1,0:0:0:0:
72,112,74517,5,4,0:3:0:0:
256,32,75400,1,0,1:0:0:0:
440,112,76282,1,4,0:3:0:0:
256,192,77165,1,0,1:0:0:0:
344,368,78047,21,2,1:1:0:0:
344,16,79812,1,4,1:3:0:0:
64,192,81576,6,0,L|464:192,1,383.99998828125,4|2,0:3|1:1,0:0:0:0:
256,312,85105,37,4,0:3:0:0:
256,216,85987,1,0,1:0:0:0:
184,152,86870,2,0,P|120:192|112:280,2,160,4|0|4,0:3|1:0|0:3,0:0:0:0:
256,312,89517,1,0,1:0:0:0:
256,216,90399,1,4,0:3:0:0:
328,152,91281,2,0,P|392:192|400:280,1,160,0|2,1:0|0:1,0:0:0:0:
184,152,94811,2,0,P|120:192|112:280,1,160,0|2,1:3|0:1,0:0:0:0:
184,296,97458,2,0,P|224:272|328:296,1,160,4|0,0:3|1:0,0:0:0:0:
120,88,99223,21,2,0:1:0:0:
288,88,100106,1,0,1:0:0:0:
392,88,100841,1,0,1:3:0:0:
392,88,102752,1,2,0:1:0:0:
224,88,103635,1,0,1:0:0:0:
120,88,104370,1,0,1:3:0:0:
256,336,106282,37,4,0:3:0:0:
416,240,108047,2,0,L|248:240,1,160,4|0,0:3|1:0,0:0:0:0:
96,144,109812,2,0,L|256:144,1,160,4|0,0:3|1:0,0:0:0:0:
416,48,111576,2,0,L|248:48,1,160,4|0,0:3|1:0,0:0:0:0:
208,240,113341,38,0,P|248:344|304:240,1,287.999991210938,4|2,0:0|1:1,0:0:0:0:
304,144,115106,2,0,P|252:39|208:143,1,287.999991210938,2|2,0:0|1:1,0:0:0:0:
128,192,116870,5,4,0:3:0:0:
256,336,117753,1,0,1:0:0:0:
384,192,118635,1,4,0:3:0:0:
256,48,119518,1,0,1:0:0:0:
80,112,120399,22,0,L|184:280,1,191.999994140625,4|0,0:3|1:3,0:0:0:0:
320,144,122164,2,0,L|424:312,1,191.999994140625,4|0,0:3|1:3,0:0:0:0:
256,384,123929,6,0,L|256:-16,1,383.99998828125,4|2,0:3|1:1,0:0:0:0:
112,192,127458,6,0,P|160:88|208:192,1,287.999991210938,2|2,0:0|1:1,0:0:0:0:
304,192,129223,2,0,P|348:297|400:192,1,287.999991210938,2|2,0:0|1:1,0:0:0:0:
440,112,130987,5,4,0:3:0:0:
256,32,131870,1,0,1:0:0:0:
72,112,132752,1,4,0:3:0:0:
256,192,133635,1,0,1:0:0:0:
168,368,134518,21,2,1:0:0:0:
168,16,136283,1,4,1:3:0:0:
448,192,138047,6,0,L|48:192,1,383.99998828125,4|2,0:3|1:1,0:0:0:0:
46,296,141576,6,0,B|107:385|244:361|256:295|268:229|396:201|465:293,1,480,4|0,0:0|1:0,0:0:0:0:
488,120,145105,21,4,0:3:0:0:
344,40,145988,1,0,1:0:0:0:
200,120,146870,1,4,0:3:0:0:
56,40,147752,1,0,1:0:0:0:
176,208,148635,38,0,P|202:49|336:208,1,480,2|0,0:0|1:0,0:0:0:0:
416,360,152164,21,4,0:3:0:0:
256,360,153047,1,0,1:0:0:0:
96,360,153929,1,4,0:3:0:0:
465,296,155694,38,0,B|404:385|267:361|256:295|243:229|115:201|46:293,1,480,2|0,0:0|1:0,0:0:0:0:
24,120,159223,21,4,0:3:0:0:
168,40,160106,1,0,1:0:0:0:
312,120,160988,1,4,0:3:0:0:
456,40,161870,1,0,1:0:0:0:
368,240,162752,54,0,L|208:200,2,160,4|0|4,0:3|1:0|0:3,0:0:0:0:
144,312,166282,2,0,L|304:352,2,160,4|0|4,0:3|1:0|0:3,0:0:0:0:
352,152,169811,54,0,P|240:64|160:152,1,287.999991210938,4|2,0:0|1:0,0:0:0:0:
161,257,171576,2,0,P|256:346|352:257,1,287.999991210938,2|2,0:0|1:0,0:0:0:0:
448,216,173341,5,4,0:3:0:0:
256,104,174223,2,0,L|256:8,2,95.9999970703126,4|0|4,0:3|1:0|0:3,0:0:0:0:
64,216,175988,1,0,1:0:0:0:
354,274,176870,21,2,1:0:0:0:
256,101,177752,1,0,1:0:0:0:
156,274,178635,1,4,0:3:0:0:
354,274,179517,1,0,1:0:0:0:
256,0,180399,6,0,L|256:400,1,383.99998828125,4|2,0:3|1:1,0:0:0:0:
144,128,183929,5,6,0:1:0:0:
144,320,184811,1,0,1:0:0:0:
368,128,185694,1,6,0:1:0:0:
368,320,186576,1,0,1:0:0:0:
64,216,187458,5,4,0:3:0:0:
256,104,188341,2,0,L|256:8,2,95.9999970703126,4|0|4,0:3|1:0|0:3,0:0:0:0:
448,216,190105,1,0,1:0:0:0:
256,332,190988,21,2,1:0:0:0:
157,159,191870,1,0,1:0:0:0:
355,159,192752,1,4,0:3:0:0:
256,332,193635,1,0,1:0:0:0:
448,192,194517,6,0,L|48:192,1,383.99998828125,4|2,0:3|1:1,0:0:0:0:
438,145,198047,5,4,0:0:0:0:
256,66,198929,1,2,1:1:0:0:
74,145,199812,1,4,0:3:0:0:
256,66,200694,1,2,1:1:0:0:
256,259,201577,1,4,0:3:0:0:
438,338,202459,1,2,1:1:0:0:
256,259,203341,1,4,0:3:0:0:
74,338,204224,1,2,1:1:0:0:
120,64,205106,6,0,L|120:256,1,160,4|0,0:3|1:0,0:0:0:0:
304,64,206871,2,0,L|304:256,1,160,4|0,0:3|1:0,0:0:0:0:
208,64,208635,2,0,L|208:256,1,160,4|0,0:3|1:0,0:0:0:0:
392,64,210399,2,0,L|392:256,1,160,4|2,0:3|1:0,0:0:0:0:
