osu file format v14

[General]
AudioFilename: audio.mp3
AudioLeadIn: 0
PreviewTime: 65609
Countdown: 0
SampleSet: Soft
StackLeniency: 0.7
Mode: 0
LetterboxInBreaks: 0
WidescreenStoryboard: 1

[Editor]
DistanceSpacing: 1
BeatDivisor: 4
GridSize: 4
TimelineZoom: 1

[Metadata]
Title:O-Ku-Ri-Mo-No Sunday!
TitleUnicode:O-Ku-Ri-Mo-No Sunday!
Artist:miroir
ArtistUnicode:miroir
Creator:MoeAsuka
Version:Normal
Source:アイドルマスターシンデレラガールズ
Tags:久川颯 久川凪 長江里加 立花日菜 Hisakawa Hayate Nagi Nagae Rika Tachibana Hina cgss デレステ imas im@s idol master cinderella girls
BeatmapID:2014145
BeatmapSetID:958331

[Difficulty]
HPDrainRate:3
CircleSize:3
OverallDifficulty:4
ApproachRate:5
SliderMultiplier:1.1
SliderTickRate:1

[Events]
//Background and Video events
0,0,"521783011447.jpg",0,0
//Break Periods
//Storyboard Layer 0 (Background)
//Storyboard Layer 1 (Fail)
//Storyboard Layer 2 (Pass)
//Storyboard Layer 3 (Foreground)
//Storyboard Sound Samples

[TimingPoints]
-391,413.793103448276,4,2,1,60,1,0
437,-100,4,2,1,60,0,0
13677,-100,4,2,1,80,0,0
14505,-100,4,2,0,80,0,0
14712,-100,4,2,1,80,0,0
14712,-100,4,2,1,80,0,0
27746,-100,4,2,0,80,0,0
27746,-100,4,2,0,80,0,0
27953,-100,4,2,1,80,0,0
27953,-100,4,2,1,80,0,0
40988,-100,4,2,0,80,0,0
41195,-100,4,2,1,80,0,0
41195,-100,4,2,1,80,0,0
50919,-100,4,2,1,80,0,0
52367,-100,4,2,0,80,0,0
53195,-100,4,2,1,80,0,0
54229,-100,4,2,0,80,0,0
54436,-100,4,2,1,80,0,0
54436,-100,4,2,1,80,0,0
67471,-100,4,2,0,95,0,0
67677,-100,4,2,1,95,0,0
67677,-100,4,2,1,95,0,0
79264,-100,4,2,1,5,0,0
79264,-100,4,2,1,5,0,0
79677,-100,4,2,1,95,0,0
79677,-100,4,2,1,95,0,0
80712,-100,4,2,0,95,0,1
80919,-100,4,2,1,95,0,1
80919,-100,4,2,1,95,0,1
107195,-100,4,2,0,80,0,0
107402,-100,4,2,1,80,0,0
107402,-100,4,2,1,80,0,0
122919,-100,4,2,1,60,0,0
123333,-100,4,2,1,50,0,0
123746,-100,4,2,1,20,0,0

[Colours]
Combo1 : 0,128,255
Combo2 : 192,192,192
Combo3 : 255,128,0

[HitObjects]
287,55,1264,6,0,P|362:66|408:93,1,110,4|8,0:0|0:0,0:0:0:0:
459,167,2091,1,8,0:0:0:0:
370,232,2505,2,0,L|361:160,1,55,8|8,0:0|0:0,0:0:0:0:
261,134,3126,1,8,0:0:0:0:
184,213,3540,1,8,0:0:0:0:
74,214,3953,2,0,L|89:278,1,55,8|8,0:0|0:0,0:0:0:0:
169,340,4574,6,0,P|240:319|286:288,1,110,4|8,0:0|0:0,0:0:0:0:
335,214,5402,1,8,0:0:0:0:
325,104,5815,2,0,L|316:19,1,55,8|8,0:0|0:0,0:0:0:0:
209,34,6436,1,8,0:0:0:0:
107,76,6850,1,8,0:0:0:0:
82,183,7264,2,0,L|99:253,1,55,8|8,0:0|0:0,0:0:0:0:
201,264,7884,6,0,P|264:226|316:211,1,110,4|8,0:0|0:0,0:0:0:0:
408,203,8712,1,8,0:0:0:0:
440,308,9126,2,0,L|367:298,1,55,8|8,0:0|0:0,0:0:0:0:
285,253,9746,1,8,0:0:0:0:
190,309,10160,1,8,0:0:0:0:
82,285,10574,2,0,L|68:215,1,55,8|8,0:0|0:0,0:0:0:0:
27,129,11195,5,4,0:0:0:0:
122,75,11609,1,8,0:0:0:0:
230,93,12022,1,8,0:0:0:0:
315,162,12436,2,0,L|310:240,1,55,8|8,0:0|0:0,0:0:0:0:
311,216,13677,2,0,L|273:330,1,110,2|8,3:0|0:0,0:0:0:0:
169,346,14505,6,0,P|108:329|56:275,1,110,4|8,0:2|0:0,0:0:0:0:
64,189,15333,2,0,P|109:144|181:126,1,110,8|8,0:0|0:0,0:0:0:0:
261,139,16160,1,8,0:0:0:0:
342,213,16574,1,8,0:0:0:0:
449,190,16988,2,0,L|465:95,1,55,0|10,3:0|0:1,0:0:0:0:
432,86,17402,1,10,0:1:0:0:
331,41,17815,6,0,P|263:33|217:38,1,110,4|8,0:0|0:0,0:0:0:0:
167,132,18643,2,0,P|235:140|281:135,1,110,8|8,0:0|0:0,0:0:0:0:
347,220,19471,1,4,0:0:0:0:
352,329,19884,1,8,0:0:0:0:
244,351,20298,2,0,P|174:346|125:304,1,110,10|10,0:1|0:1,0:0:0:0:
70,240,21126,6,0,P|76:169|85:112,1,110,4|8,0:0|0:0,0:0:0:0:
188,103,21953,2,0,P|182:174|173:231,1,110,8|8,0:0|0:0,0:0:0:0:
280,249,22781,1,4,0:0:0:0:
369,184,23195,1,8,0:0:0:0:
363,74,23609,2,0,L|286:54,1,55,0|10,3:0|0:1,0:0:0:0:
257,78,24022,1,10,0:1:0:0:
153,41,24436,6,0,P|60:47|9:77,1,110,4|8,0:0|0:0,0:0:0:0:
18,159,25264,2,0,P|111:153|162:123,1,110,8|8,0:0|0:0,0:0:0:0:
219,203,26091,1,4,0:0:0:0:
178,305,26505,1,8,0:0:0:0:
283,336,26919,2,0,P|354:347|398:344,1,110,8|12,0:0|0:0,0:0:0:0:
473,270,27746,6,0,P|489:197|491:132,1,110,4|8,0:0|0:0,0:0:0:0:
399,100,28574,2,0,P|383:173|381:238,1,110,8|8,0:0|0:0,0:0:0:0:
273,235,29402,1,8,0:0:0:0:
185,168,29815,1,8,0:0:0:0:
118,255,30229,2,0,L|145:327,1,55,8|10,0:0|0:1,0:0:0:0:
112,355,30643,1,10,0:1:0:0:
21,292,31057,6,0,P|29:215|45:171,1,110,4|8,0:0|0:0,0:0:0:0:
134,128,31884,2,0,P|193:177|220:215,1,110,8|8,0:0|0:0,0:0:0:0:
226,312,32712,1,4,0:0:0:0:
328,352,33126,1,8,0:0:0:0:
423,297,33540,2,0,P|469:246|481:200,1,110,10|10,0:1|0:1,0:0:0:0:
451,101,34367,6,0,P|379:74|313:62,1,110,4|8,0:0|0:0,0:0:0:0:
258,133,35195,2,0,P|330:160|396:172,1,110,8|8,0:0|0:0,0:0:0:0:
305,261,36022,1,0,0:0:0:0:
199,228,36436,1,8,0:0:0:0:
149,129,36850,2,0,L|170:46,1,55,0|10,3:0|0:1,0:0:0:0:
135,27,37264,1,10,0:1:0:0:
46,91,37677,6,0,P|41:162|43:222,1,110,4|8,0:0|0:0,0:0:0:0:
144,238,38505,2,0,P|149:167|147:107,1,110,8|8,0:0|0:0,0:0:0:0:
251,89,39333,1,4,0:0:0:0:
357,116,39746,1,8,0:0:0:0:
430,197,40160,2,0,P|431:293|427:327,1,110,8|12,0:0|0:0,0:0:0:0:
331,357,40988,6,0,P|243:354|192:345,1,110,4|10,0:0|0:0,0:0:0:0:
137,279,41815,2,0,P|62:265|20:237,1,110,8|8,0:0|0:0,0:0:0:0:
36,138,42643,1,8,0:0:0:0:
122,69,43057,1,8,0:0:0:0:
225,107,43471,2,0,P|254:179|268:238,1,110,8|8,0:0|0:0,0:0:0:0:
227,314,44298,5,4,0:0:0:0:
332,344,44712,1,8,0:0:0:0:
424,284,45126,2,0,P|451:230|463:167,1,110,8|8,0:0|0:0,0:0:0:0:
399,91,45953,2,0,P|302:69|246:64,1,110,8|8,0:0|0:0,0:0:0:0:
182,83,46781,2,0,P|113:124|76:162,1,110,8|8,0:0|0:0,0:0:0:0:
107,253,47609,6,0,P|185:270|232:266,1,110,14|10,0:0|0:0,0:0:0:0:
324,267,48436,2,0,P|304:332|286:363,2,82.5,10|10|10,0:0|0:0|0:0,0:0:0:0:
334,212,49264,2,0,P|340:162|338:86,1,110,10|10,0:0|0:0,0:0:0:0:
234,68,50091,2,0,P|228:118|230:194,1,110,10|10,0:0|0:0,0:0:0:0:
182,278,50919,5,0,1:0:0:0:
78,314,51333,1,12,0:0:0:0:
19,221,51746,2,0,P|32:152|44:116,2,82.5,12|4|12,0:0|3:0|0:2,0:0:0:0:
19,221,54229,5,4,0:2:0:0:
123,186,54643,1,8,0:0:0:0:
216,127,55057,2,0,P|259:149|290:187,2,82.5,10|10|8,0:0|0:0|0:0,0:0:0:0:
168,99,55884,1,4,0:0:0:0:
99,12,56298,1,8,0:0:0:0:
208,22,56712,2,0,P|261:43|336:37,1,110,10|8,0:0|0:0,0:0:0:0:
402,108,57540,5,4,0:0:0:0:
460,200,57953,1,8,0:0:0:0:
432,306,58367,2,0,P|384:358|352:373,2,82.5,10|10|10,0:0|0:0|0:0,0:0:0:0:
398,262,59195,1,4,0:0:0:0:
294,223,59609,1,8,0:0:0:0:
192,265,60022,2,0,P|137:285|76:280,1,110,10|2,0:0|0:0,0:0:0:0:
21,193,60850,5,4,0:0:0:0:
38,84,61264,1,8,0:0:0:0:
142,51,61677,2,0,L|244:30,2,82.5,10|10|10,0:0|0:0|0:0,0:0:0:0:
130,105,62505,1,4,0:0:0:0:
211,178,62919,1,8,0:0:0:0:
319,160,63333,2,0,P|386:140|444:147,1,110,10|0,0:0|0:0,0:0:0:0:
484,235,64160,6,0,P|480:297|473:348,1,110,4|8,0:0|0:0,0:0:0:0:
380,284,64988,2,0,P|374:232|367:202,2,82.5,10|10|10,0:0|0:0|0:0,0:0:0:0:
331,309,65815,1,4,0:0:0:0:
225,340,66229,1,4,0:0:0:0:
117,316,66643,2,0,P|74:292|48:218,1,110,8|8,0:0|0:0,0:0:0:0:
32,129,67471,6,0,P|62:85|122:38,1,110,4|8,0:0|0:0,0:0:0:0:
202,99,68298,1,2,3:2:0:0:
300,49,68712,1,8,0:0:0:0:
402,88,69126,2,0,P|433:141|455:202,1,110,0|8,3:0|0:0,0:0:0:0:
340,189,69953,2,0,P|356:248|367:313,1,110,2|8,3:2|0:0,0:0:0:0:
265,343,70781,6,0,P|229:357|148:345,1,110,4|8,0:0|0:0,0:0:0:0:
73,281,71609,1,2,3:2:0:0:
105,176,72022,1,8,0:0:0:0:
199,231,72436,2,0,P|256:228|320:215,1,110,0|8,3:0|0:0,0:0:0:0:
350,116,73264,2,0,P|293:119|229:132,1,110,2|8,3:2|0:0,0:0:0:0:
152,63,74091,6,0,P|106:79|66:146,1,110,6|10,0:2|0:2,0:0:0:0:
80,236,74919,2,0,L|88:299,1,55,10|10,0:2|0:2,0:0:0:0:
129,325,75333,1,10,0:2:0:0:
237,342,75746,2,0,P|276:283|263:232,1,110,10|10,0:2|0:2,0:0:0:0:
180,183,76574,2,0,L|250:146,1,55,10|10,0:2|0:2,0:0:0:0:
283,155,76988,1,10,0:2:0:0:
382,202,77402,5,8,2:0:0:0:
482,246,77815,1,10,3:2:0:0:
475,136,78229,1,10,3:2:0:0:
375,92,78642,1,10,1:2:0:0:
283,155,79057,1,2,3:3:0:0:
68,108,79884,2,0,P|47:163|42:228,1,110,8|8,0:0|0:0,0:0:0:0:
135,270,80712,6,0,P|77:301|55:324,2,82.5,4|8|8,0:0|0:0|0:0,0:0:0:0:
244,278,81746,2,0,P|217:318|208:340,2,55,0|8|0,0:0|0:0|0:0,0:0:0:0:
294,255,82367,2,0,P|334:269|413:242,1,110,8|8,0:0|0:0,0:0:0:0:
433,149,83195,2,0,L|421:80,1,55,8|8,0:0|0:0,0:0:0:0:
376,63,83609,1,8,0:0:0:0:
270,32,84022,6,0,P|219:31|172:40,2,82.5,4|8|8,0:0|0:0|0:0,0:0:0:0:
221,131,85057,2,0,P|172:169|162:182,2,55,0|8|0,0:0|0:0|0:0,0:0:0:0:
274,144,85677,2,0,P|291:184|298:273,1,110,8|8,0:0|0:0,0:0:0:0:
226,332,86505,1,8,0:0:0:0:
121,365,86919,1,8,0:0:0:0:
47,283,87333,6,0,P|42:233|59:163,1,110,4|8,0:0|0:0,0:0:0:0:
155,133,88160,2,0,P|160:183|143:253,1,110,8|8,0:0|0:0,0:0:0:0:
226,318,88988,2,0,P|280:339|355:342,1,110,8|8,0:0|0:0,0:0:0:0:
421,281,89815,2,0,L|447:222,1,55,8|8,0:0|0:0,0:0:0:0:
428,177,90229,2,0,L|416:119,1,55,8|8,0:0|0:0,0:0:0:0:
373,88,90643,6,0,P|296:61|250:58,1,110,4|8,0:0|0:0,0:0:0:0:
238,164,91471,2,0,P|176:132|115:115,1,110,4|8,0:0|0:0,0:0:0:0:
36,162,92298,1,4,0:0:0:0:
108,244,92712,1,8,0:0:0:0:
27,318,93126,2,0,P|65:343|137:354,1,110,8|8,0:0|0:0,0:0:0:0:
223,300,93953,6,0,P|212:250|193:211,2,82.5,4|8|8,0:0|0:0|0:0,0:0:0:0:
328,333,94988,2,0,P|324:295|315:270,2,55,0|8|0,0:0|0:0|0:0,0:0:0:0:
376,359,95609,2,0,P|423:345|473:290,1,110,8|8,0:0|0:0,0:0:0:0:
478,194,96436,2,0,L|462:128,1,55,8|8,0:0|0:0,0:0:0:0:
414,117,96850,1,8,0:0:0:0:
310,154,97264,6,0,P|282:200|273:251,2,82.5,4|8|8,0:0|0:0|0:0,0:0:0:0:
230,77,98298,2,0,P|201:107|191:124,2,55,0|8|0,0:0|0:0|0:0,0:0:0:0:
179,54,98919,2,0,P|124:57|64:78,1,110,8|8,0:0|0:0,0:0:0:0:
15,168,99746,1,8,0:0:0:0:
71,262,100160,1,8,0:0:0:0:
173,221,100574,6,0,P|215:213|293:241,1,110,4|8,0:0|0:0,0:0:0:0:
335,325,101402,2,0,P|293:332|215:305,1,110,8|8,0:0|0:0,0:0:0:0:
173,221,102229,2,0,P|183:141|195:105,1,110,4|8,0:0|0:0,0:0:0:0:
280,46,103057,2,0,L|337:52,1,55,8|8,0:0|0:0,0:0:0:0:
380,83,103471,1,8,0:0:0:0:
464,152,103884,6,0,L|434:272,1,110,4|8,0:0|0:0,0:0:0:0:
351,328,104712,2,0,L|324:221,1,110,4|8,0:0|0:0,0:0:0:0:
231,161,105540,2,0,P|165:156|121:177,1,110,8|8,0:0|0:0,0:0:0:0:
83,274,106367,1,8,0:0:0:0:
156,356,106781,6,0,P|188:316|189:245,1,110,8|4,0:0|0:0,0:0:0:0:
126,173,107609,1,8,0:0:0:0:
175,75,108022,2,0,P|231:57|299:63,1,110,8|8,0:0|0:0,0:0:0:0:
375,116,108850,2,0,L|390:228,1,110,8|8,0:0|0:0,0:0:0:0:
315,306,109677,2,0,L|292:250,2,55,8|8|8,0:0|0:0|0:0,0:0:0:0:
212,347,110505,5,4,0:0:0:0:
145,259,110919,1,8,0:0:0:0:
186,156,111333,2,0,P|221:95|266:53,1,110,8|8,0:0|0:0,0:0:0:0:
357,93,112160,2,0,P|405:121|413:186,1,110,8|8,0:0|0:0,0:0:0:0:
404,280,112988,1,8,0:0:0:0:
302,236,113402,1,8,0:0:0:0:
211,297,113815,6,0,P|146:323|96:322,1,110,8|8,0:0|0:0,0:0:0:0:
39,236,114643,2,0,P|104:210|154:211,1,110,8|8,0:0|0:0,0:0:0:0:
232,144,115471,2,0,P|286:85|330:65,1,110,8|8,0:0|0:0,0:0:0:0:
406,127,116298,2,0,L|414:188,1,55,8|8,0:0|0:0,0:0:0:0:
410,236,116712,1,8,0:0:0:0:
344,324,117126,6,0,P|292:339|222:318,1,110,4|8,0:0|0:0,0:0:0:0:
132,296,117953,1,8,0:0:0:0:
204,212,118367,1,8,0:0:0:0:
126,133,118781,2,0,P|76:114|26:62,1,110,8|8,0:0|0:0,0:0:0:0:
133,26,119609,2,0,P|183:45|233:97,1,110,8|8,0:0|0:0,0:0:0:0:
322,132,120436,6,0,P|368:118|413:114,2,82.5,4|4|4,0:0|0:0|0:0,0:0:0:0:
294,209,121367,2,0,P|329:241|355:278,2,82.5,4|4|4,0:0|0:0|0:0,0:0:0:0:
242,143,122298,2,0,P|167:117|102:340,1,385,4|0,0:0|0:0,0:0:0:0:
