osu file format v14

[General]
AudioFilename: audio.mp3
AudioLeadIn: 0
PreviewTime: 65609
Countdown: 0
SampleSet: Soft
StackLeniency: 0.7
Mode: 0
LetterboxInBreaks: 0
WidescreenStoryboard: 0

[Editor]
DistanceSpacing: 1.5
BeatDivisor: 4
GridSize: 4
TimelineZoom: 1

[Metadata]
Title:O-Ku-Ri-Mo-No Sunday!
TitleUnicode:O-Ku-Ri-Mo-No Sunday!
Artist:miroir
ArtistUnicode:miroir
Creator:MoeAsuka
Version:Hard
Source:アイドルマスターシンデレラガールズ
Tags:久川颯 久川凪 長江里加 立花日菜 Hisakawa Hayate Nagi Nagae Rika Tachibana Hina cgss デレステ imas im@s idol master cinderella girls
BeatmapID:2013772
BeatmapSetID:958331

[Difficulty]
HPDrainRate:4
CircleSize:4
OverallDifficulty:6.5
ApproachRate:7.5
SliderMultiplier:1.4
SliderTickRate:1

[Events]
//Background and Video events
0,0,"521783011447.jpg",0,0
//Break Periods
//Storyboard Layer 0 (Background)
//Storyboard Layer 1 (Fail)
//Storyboard Layer 2 (Pass)
//Storyboard Layer 3 (Foreground)
//Storyboard Sound Samples

[TimingPoints]
-391,413.793103448276,4,2,1,60,1,0
437,-125,4,2,1,60,0,0
13677,-125,4,2,1,80,0,0
14505,-100,4,2,0,80,0,0
14712,-100,4,2,1,80,0,0
27746,-100,4,2,0,80,0,0
27953,-100,4,2,1,80,0,0
40988,-111.111111111111,4,2,0,80,0,0
41195,-111.111111111111,4,2,1,80,0,0
50919,-100,4,2,1,80,0,0
52367,-153.846153846154,4,2,0,80,0,0
53195,-100,4,2,1,80,0,0
54229,-111.111111111111,4,2,0,80,0,0
54436,-111.111111111111,4,2,1,80,0,0
67471,-83.3333333333333,4,2,0,95,0,0
67677,-83.3333333333333,4,2,1,95,0,0
79264,-83.3333333333333,4,2,1,5,0,0
79677,-83.3333333333333,4,2,1,95,0,0
80712,-83.3333333333333,4,2,0,95,0,1
80919,-83.3333333333333,4,2,1,95,0,1
107195,-100,4,2,0,80,0,0
107402,-100,4,2,1,80,0,0
122919,-100,4,2,1,60,0,0
123333,-100,4,2,1,50,0,0
123746,-100,4,2,1,20,0,0

[Colours]
Combo1 : 0,128,255
Combo2 : 192,192,192
Combo3 : 255,128,0

[HitObjects]
250,55,643,5,8,0:0:0:0:
250,55,850,2,0,L|300:46,2,28,0|0|8,3:0|3:0|1:2,0:0:0:0:
198,122,1264,6,0,L|214:183,1,56,4|0,0:0|0:0,0:0:0:0:
200,259,1677,2,0,L|266:308,1,56,8|0,0:0|0:0,0:0:0:0:
261,375,2091,2,0,L|337:348,1,56,8|0,0:0|0:0,0:0:0:0:
384,310,2505,1,8,0:0:0:0:
421,234,2712,2,0,P|431:177|429:167,1,56,0|8,0:0|0:0,0:0:0:0:
363,129,3126,6,0,P|353:186|355:196,1,56,0|8,0:0|0:0,0:0:0:0:
292,241,3540,2,0,P|235:254|225:253,1,56,0|8,0:0|0:0,0:0:0:0:
155,241,3953,1,0,0:0:0:0:
202,171,4160,2,0,P|158:132|153:123,1,56,8|0,0:0|0:0,0:0:0:0:
69,34,4574,6,0,L|60:108,1,56,4|0,0:0|0:0,0:0:0:0:
11,156,4988,2,0,L|22:222,1,56,8|0,0:0|0:0,0:0:0:0:
71,278,5402,2,0,L|62:352,1,56,8|0,0:0|0:0,0:0:0:0:
147,324,5815,1,8,0:0:0:0:
226,351,6022,6,0,P|271:358|284:355,1,56,0|8,0:0|0:0,0:0:0:0:
352,311,6436,2,0,P|376:272|378:259,1,56,0|8,0:0|0:0,0:0:0:0:
381,156,6850,2,0,L|374:85,1,56,0|8,0:0|0:0,0:0:0:0:
310,46,7264,1,0,0:0:0:0:
234,83,7471,2,0,P|251:121|256:150,1,56,8|0,0:0|0:0,0:0:0:0:
198,247,7884,6,0,L|141:207,1,56,4|0,0:0|0:0,0:0:0:0:
79,257,8298,2,0,L|56:178,1,56,8|0,0:0|0:0,0:0:0:0:
8,139,8712,2,0,L|24:80,1,56,8|0,0:0|0:0,0:0:0:0:
89,33,9126,1,8,0:0:0:0:
151,88,9333,6,0,P|185:64|216:57,1,56,0|8,0:0|0:0,0:0:0:0:
273,97,9746,2,0,P|276:138|267:168,1,56,0|8,0:0|0:0,0:0:0:0:
203,199,10160,2,0,P|165:181|143:158,1,56,0|8,0:0|0:0,0:0:0:0:
71,183,10574,1,0,0:0:0:0:
21,251,10781,2,0,P|21:277|33:323,1,56,8|0,0:0|0:0,0:0:0:0:
166,357,11195,6,0,L|247:345,1,56,4|0,0:0|0:0,0:0:0:0:
310,275,11609,2,0,L|229:263,1,56,8|0,0:0|0:0,0:0:0:0:
180,227,12022,2,0,P|165:183|168:162,1,56,8|0,0:0|0:0,0:0:0:0:
224,121,12436,1,8,0:0:0:0:
300,102,12643,2,0,P|315:58|312:37,1,56,8|0,0:0|0:0,0:0:0:0:
314,49,13677,5,2,3:0:0:0:
437,57,13884,1,4,3:0:0:0:
437,57,13988,1,4,3:0:0:0:
437,57,14091,2,0,L|427:125,1,56,8|0,0:0|0:1,0:0:0:0:
446,216,14505,1,4,0:2:0:0:
357,271,14712,5,0,0:0:0:0:
357,271,14815,1,0,0:0:0:0:
357,271,14919,2,0,P|320:241|305:218,1,70,8|0,0:0|0:0,0:0:0:0:
252,132,15333,2,0,P|220:112|173:110,1,70,8|0,0:0|0:0,0:0:0:0:
112,182,15746,2,0,P|97:226|104:273,1,70,8|0,0:0|0:0,0:0:0:0:
159,334,16160,1,8,0:0:0:0:
20,356,16367,5,0,0:0:0:0:
20,356,16471,1,0,0:0:0:0:
20,356,16574,2,0,P|31:292|39:257,1,70,8|0,0:0|0:0,0:0:0:0:
21,161,16988,2,0,L|106:182,1,70,0|10,3:0|0:1,0:0:0:0:
194,172,17402,2,0,P|236:158|260:131,1,70,10|0,0:1|0:0,0:0:0:0:
176,69,17815,1,4,0:0:0:0:
279,48,18022,5,0,0:0:0:0:
279,48,18126,1,0,0:0:0:0:
279,48,18229,2,0,P|320:54|369:62,1,70,8|0,0:0|0:0,0:0:0:0:
440,109,18643,2,0,P|396:137|376:172,1,70,8|0,0:0|0:0,0:0:0:0:
360,188,18953,1,0,0:0:0:0:
380,228,19057,2,0,P|423:243|461:262,1,70,8|8,0:0|0:0,0:0:0:0:
389,342,19471,6,0,P|323:353|311:350,1,70,4|0,0:0|0:0,0:0:0:0:
231,297,19884,2,0,P|196:296|163:307,1,70,8|0,0:0|0:0,0:0:0:0:
27,365,20298,2,0,L|52:268,1,70,10|0,0:1|0:0,0:0:0:0:
112,167,20712,2,0,L|129:234,1,70,10|0,0:1|0:0,0:0:0:0:
231,297,21126,5,4,0:0:0:0:
334,276,21333,1,0,0:0:0:0:
334,276,21436,1,0,0:0:0:0:
334,276,21540,2,0,P|342:233|340:192,1,70,8|0,0:0|0:0,0:0:0:0:
278,122,21953,2,0,P|244:100|200:83,1,70,8|0,0:0|0:0,0:0:0:0:
113,110,22367,1,8,0:0:0:0:
60,201,22574,2,0,P|61:258|71:298,1,70,8|4,0:0|0:0,0:0:0:0:
144,338,22988,5,0,0:0:0:0:
144,338,23091,1,0,0:0:0:0:
144,338,23195,2,0,L|225:325,1,70,8|0,0:0|0:0,0:0:0:0:
336,357,23609,2,0,B|377:348|377:348|429:360,1,70,0|10,3:0|0:1,0:0:0:0:
476,257,24022,2,0,P|499:210|493:172,1,70,10|0,0:1|0:0,0:0:0:0:
434,109,24436,1,4,0:0:0:0:
331,131,24643,5,0,0:0:0:0:
331,131,24746,1,0,0:0:0:0:
331,131,24850,2,0,P|287:118|245:106,1,70,8|0,0:0|0:0,0:0:0:0:
177,50,25264,2,0,P|134:43|95:59,1,70,8|0,0:0|0:0,0:0:0:0:
85,89,25574,1,0,0:0:0:0:
97,132,25677,2,0,P|102:177|98:209,1,70,8|8,0:0|0:0,0:0:0:0:
40,289,26091,6,0,P|47:357|54:382,1,70,4|0,0:0|0:0,0:0:0:0:
151,378,26505,2,0,P|144:310|137:285,1,70,8|0,0:0|0:0,0:0:0:0:
202,220,26919,2,0,L|241:228,2,35,8|0|4,0:0|3:0|3:0,0:0:0:0:
127,143,27333,2,0,P|130:92|147:49,1,70,12|0,0:0|3:0,0:0:0:0:
176,40,27643,1,0,3:0:0:0:
176,40,27746,1,4,0:0:0:0:
274,91,27953,5,0,0:0:0:0:
274,91,28057,1,0,0:0:0:0:
274,91,28160,2,0,P|320:97|354:114,1,70,8|0,0:0|0:0,0:0:0:0:
415,181,28574,2,0,P|410:240|394:268,1,70,8|0,0:0|0:0,0:0:0:0:
308,288,28988,1,8,0:0:0:0:
288,183,29195,2,0,P|249:174|192:179,1,70,0|8,0:0|0:0,0:0:0:0:
144,249,29609,5,0,0:0:0:0:
144,249,29712,1,0,0:0:0:0:
144,249,29815,2,0,P|96:230|79:216,1,70,8|0,0:0|0:0,0:0:0:0:
46,73,30229,2,0,L|129:83,1,70,8|10,0:0|0:1,0:0:0:0:
239,114,30643,2,0,P|298:99|325:82,1,70,10|0,0:1|0:0,0:0:0:0:
386,27,31057,1,4,0:0:0:0:
469,91,31264,5,0,0:0:0:0:
469,91,31367,1,0,0:0:0:0:
469,91,31471,2,0,L|464:183,1,70,8|0,0:0|0:0,0:0:0:0:
420,255,31884,2,0,P|394:207|364:184,1,70,8|0,0:0|0:0,0:0:0:0:
340,180,32195,1,0,0:0:0:0:
307,211,32298,2,0,P|297:265|288:293,1,70,8|8,0:0|0:0,0:0:0:0:
205,339,32712,6,0,P|138:327|110:329,1,70,4|0,0:0|0:0,0:0:0:0:
64,249,33126,2,0,P|131:237|159:239,1,70,8|0,0:0|0:0,0:0:0:0:
225,181,33540,2,0,P|262:143|265:121,1,70,10|0,0:1|0:0,0:0:0:0:
334,49,33953,2,0,P|359:93|372:140,1,70,10|0,0:1|0:0,0:0:0:0:
454,168,34367,1,4,0:0:0:0:
410,263,34574,5,0,0:0:0:0:
410,263,34677,1,0,0:0:0:0:
410,263,34781,2,0,P|357:241|339:237,1,70,8|0,0:0|0:0,0:0:0:0:
249,282,35195,2,0,P|225:316|199:334,1,70,8|0,0:0|0:0,0:0:0:0:
100,305,35609,1,8,0:0:0:0:
152,214,35815,2,0,P|149:170|141:141,1,70,8|0,0:0|0:0,0:0:0:0:
73,64,36229,5,0,0:0:0:0:
73,64,36333,1,0,0:0:0:0:
73,64,36436,2,0,P|117:46|156:40,1,70,8|0,0:0|0:0,0:0:0:0:
301,80,36850,2,0,L|216:139,1,70,0|10,3:0|0:1,0:0:0:0:
152,214,37264,2,0,P|138:265|141:298,1,70,10|0,0:1|0:0,0:0:0:0:
201,365,37677,1,4,0:0:0:0:
305,356,37884,5,0,0:0:0:0:
305,356,37988,1,0,0:0:0:0:
305,356,38091,2,0,P|368:342|387:332,1,70,8|0,0:0|0:0,0:0:0:0:
435,254,38505,2,0,P|383:223|356:193,1,70,8|0,0:0|0:0,0:0:0:0:
346,181,38815,1,0,0:0:0:0:
369,142,38919,2,0,P|408:122|447:113,1,70,8|8,0:0|0:0,0:0:0:0:
361,37,39333,6,0,P|314:32|274:46,1,70,4|0,0:0|0:0,0:0:0:0:
256,65,39643,1,0,0:0:0:0:
219,91,39746,2,0,P|216:105|215:175,1,70,8|0,0:0|0:0,0:0:0:0:
306,209,40160,2,0,L|265:245,3,35,8|2|0|2,0:0|3:0|3:0|3:0,0:0:0:0:
236,262,40574,2,0,P|184:277|156:280,1,70,12|2,0:0|3:0,0:0:0:0:
123,270,40884,1,2,3:0:0:0:
123,270,40988,1,4,0:0:0:0:
66,193,41195,5,2,0:0:0:0:
159,175,41402,2,0,P|189:166|219:171,1,62.9999980773926,10|0,0:0|0:0,0:0:0:0:
306,209,41815,2,0,P|297:255|304:295,1,62.9999980773926,8|0,0:0|0:0,0:0:0:0:
388,298,42229,2,0,P|396:251|389:211,1,62.9999980773926,8|0,0:0|0:0,0:0:0:0:
373,143,42643,6,0,P|345:121|313:110,1,62.9999980773926,8|2,0:0|0:0,0:0:0:0:
230,79,43057,1,8,0:0:0:0:
145,85,43264,1,2,0:0:0:0:
161,178,43471,2,0,P|160:214|149:243,1,62.9999980773926,8|2,0:0|0:0,0:0:0:0:
57,254,43884,2,0,P|58:218|69:189,1,62.9999980773926,8|2,0:0|0:0,0:0:0:0:
51,99,44298,1,4,0:0:0:0:
145,85,44505,5,2,0:0:0:0:
228,128,44712,2,0,L|220:190,1,62.9999980773926,8|0,0:0|0:0,0:0:0:0:
309,156,45126,2,0,L|301:93,1,62.9999980773926,8|0,0:0|0:0,0:0:0:0:
396,91,45540,2,0,P|446:71|478:71,1,62.9999980773926,8|0,0:0|0:0,0:0:0:0:
451,164,45953,6,0,L|465:249,1,62.9999980773926,8|0,0:0|0:0,0:0:0:0:
395,294,46367,1,8,0:0:0:0:
308,255,46574,1,0,0:0:0:0:
321,160,46781,2,0,P|312:119|286:83,1,62.9999980773926,8|2,0:0|0:0,0:0:0:0:
210,74,47195,2,0,P|158:63|129:75,1,62.9999980773926,8|2,0:0|0:0,0:0:0:0:
57,122,47609,6,0,L|66:201,1,62.9999980773926,14|0,0:0|0:0,0:0:0:0:
181,191,48022,2,0,L|172:270,1,62.9999980773926,10|0,0:0|0:0,0:0:0:0:
233,327,48436,1,10,0:0:0:0:
408,292,48746,1,10,0:0:0:0:
285,160,49057,1,10,0:0:0:0:
382,202,49264,6,0,P|437:183|457:166,1,62.9999980773926,10|0,0:0|0:0,0:0:0:0:
439,86,49677,2,0,P|384:105|364:122,1,62.9999980773926,10|0,0:0|0:0,0:0:0:0:
285,160,50091,2,0,P|242:161|196:151,1,62.9999980773926,10|0,0:0|0:0,0:0:0:0:
195,66,50505,2,0,P|238:65|284:75,1,62.9999980773926,10|0,0:0|0:0,0:0:0:0:
380,107,50919,6,0,L|369:180,1,70,0|0,1:0|0:0,0:0:0:0:
295,282,51333,2,0,L|284:212,1,70,12|0,0:0|0:0,0:0:0:0:
204,144,51746,2,0,P|156:116|130:117,1,70,12|0,0:0|0:0,0:0:0:0:
92,133,52057,2,0,P|60:152|39:192,1,70,4|0,3:0|0:0,0:0:0:0:
38,213,52367,6,0,P|60:275|132:296,1,136.499993751526,12|0,0:2|0:0,0:0:0:0:
219,255,53195,2,0,L|257:245,1,35,2|0,3:0|3:0,0:0:0:0:
289,284,53402,2,0,L|341:289,1,35,8|4,3:0|3:0,0:0:0:0:
434,253,53712,1,4,3:0:0:0:
445,248,53815,2,0,P|465:208|446:137,1,105,4|0,3:0|0:0,0:0:0:0:
436,129,54229,6,0,L|372:172,1,62.9999980773926,4|2,0:2|0:0,0:0:0:0:
350,268,54643,2,0,L|275:287,1,62.9999980773926,8|2,0:0|0:0,0:0:0:0:
210,336,55057,1,10,0:0:0:0:
107,238,55367,1,10,0:0:0:0:
202,132,55677,1,8,0:0:0:0:
275,191,55884,6,0,P|312:142|320:126,1,62.9999980773926,4|2,0:0|0:0,0:0:0:0:
202,132,56298,2,0,P|239:83|247:67,1,62.9999980773926,8|2,0:0|0:0,0:0:0:0:
117,9,56712,2,0,P|134:35|154:59,1,62.9999980773926,10|0,0:0|0:0,0:0:0:0:
121,129,57126,2,0,P|121:160|116:191,1,62.9999980773926,8|2,0:0|0:0,0:0:0:0:
16,263,57540,6,0,L|92:273,1,62.9999980773926,4|2,0:0|0:0,0:0:0:0:
153,328,57953,2,0,L|215:319,1,62.9999980773926,8|2,0:0|0:0,0:0:0:0:
309,332,58367,1,10,0:0:0:0:
366,202,58677,1,10,0:0:0:0:
256,111,58988,1,10,0:0:0:0:
226,200,59195,6,0,P|272:196|308:185,1,62.9999980773926,4|2,0:0|0:0,0:0:0:0:
335,109,59609,2,0,P|378:94|411:75,1,62.9999980773926,8|2,0:0|0:0,0:0:0:0:
306,37,60022,2,0,P|270:65|256:116,1,94.499997116089,10|10,0:0|0:0,0:0:0:0:
265,156,60436,2,0,L|287:229,1,62.9999980773926,2|2,0:0|0:0,0:0:0:0:
256,307,60850,6,0,P|197:354|131:334,1,125.999996154785,4|8,0:0|0:0,0:0:0:0:
60,181,61677,1,10,0:0:0:0:
199,205,61988,1,10,0:0:0:0:
128,82,62298,1,10,0:0:0:0:
211,38,62505,6,0,L|284:28,1,62.9999980773926,4|2,0:0|0:0,0:0:0:0:
344,92,62919,2,0,L|406:100,1,62.9999980773926,8|2,0:0|0:0,0:0:0:0:
456,181,63333,2,0,P|467:222|436:273,1,94.499997116089,10|10,0:0|0:0,0:0:0:0:
399,278,63746,2,0,L|316:265,1,62.9999980773926,0|10,0:0|0:0,0:0:0:0:
233,312,64160,6,0,P|237:271|234:239,1,62.9999980773926,4|2,0:0|0:0,0:0:0:0:
180,172,64574,2,0,P|176:131|179:99,1,62.9999980773926,8|2,0:0|0:0,0:0:0:0:
269,64,64988,2,0,P|311:62|366:75,1,94.499997116089,10|10,0:0|0:0,0:0:0:0:
402,98,65402,2,0,L|390:177,1,62.9999980773926,0|10,0:0|0:0,0:0:0:0:
366,286,65815,6,0,P|343:239|320:208,1,62.9999980773926,4|2,0:0|0:0,0:0:0:0:
249,291,66229,2,0,P|251:238|246:200,1,62.9999980773926,4|2,0:0|0:0,0:0:0:0:
164,174,66643,2,0,P|161:226|166:264,1,62.9999980773926,8|2,0:0|0:0,0:0:0:0:
248,147,67057,2,0,P|291:138|311:127,1,62.9999980773926,8|0,0:0|0:0,0:0:0:0:
436,72,67471,6,0,P|374:55|261:54,1,167.999994873047,4|8,0:0|0:0,0:0:0:0:
153,98,68091,1,0,0:0:0:0:
153,98,68195,1,0,0:0:0:0:
153,98,68298,2,0,L|167:195,1,83.9999974365235,2|0,3:2|0:0,0:0:0:0:
232,286,68712,2,0,L|243:202,1,83.9999974365235,8|0,0:0|0:0,0:0:0:0:
331,112,69126,6,0,P|399:104|431:110,1,83.9999974365235,0|0,3:0|0:0,0:0:0:0:
326,197,69540,2,0,P|258:205|226:199,1,83.9999974365235,8|0,0:0|0:0,0:0:0:0:
153,113,69953,2,0,P|221:105|253:111,1,83.9999974365235,2|0,3:2|0:0,0:0:0:0:
148,198,70367,2,0,P|80:206|48:200,1,83.9999974365235,8|0,0:0|0:0,0:0:0:0:
24,84,70781,6,0,P|37:173|41:285,1,167.999994873047,4|8,0:0|0:0,0:0:0:0:
141,328,71402,1,0,0:0:0:0:
141,328,71505,1,0,0:0:0:0:
141,328,71609,2,0,P|202:320|232:319,1,83.9999974365235,2|0,3:2|0:0,0:0:0:0:
326,245,72022,2,0,P|265:237|235:236,1,83.9999974365235,8|0,0:0|0:0,0:0:0:0:
136,166,72436,6,0,P|152:116|169:74,1,83.9999974365235,0|0,3:0|0:0,0:0:0:0:
274,25,72850,2,0,P|289:64|301:104,1,83.9999974365235,8|0,0:0|0:0,0:0:0:0:
365,213,73264,2,0,P|381:163|398:121,1,83.9999974365235,2|0,3:2|0:0,0:0:0:0:
477,227,73678,2,0,P|492:266|504:306,1,83.9999974365235,8|0,0:0|0:0,0:0:0:0:
370,340,74091,6,0,P|305:337|252:341,1,83.9999974365235,6|0,0:2|0:0,0:0:0:0:
161,315,74505,1,10,0:2:0:0:
267,247,74712,1,0,0:0:0:0:
267,247,74815,2,0,L|214:221,1,41.9999987182618,0|10,0:0|0:2,0:0:0:0:
74,194,75126,1,10,0:2:0:0:
207,115,75333,2,0,P|281:124|298:134,1,83.9999974365235,10|0,0:2|0:0,0:0:0:0:
407,169,75746,6,0,P|395:122|365:80,1,83.9999974365235,10|0,0:2|0:0,0:0:0:0:
277,12,76160,1,10,0:2:0:0:
207,115,76367,1,0,0:0:0:0:
207,115,76471,2,0,L|196:169,1,41.9999987182618,0|10,0:0|0:2,0:0:0:0:
94,266,76781,1,10,0:2:0:0:
117,115,76988,2,0,P|140:55|183:30,1,83.9999974365235,10|0,0:2|0:0,0:0:0:0:
279,60,77402,6,0,L|394:69,1,83.9999974365235,8|0,2:0|2:0,0:0:0:0:
461,144,77815,2,0,L|346:153,1,83.9999974365235,10|0,3:2|3:0,0:0:0:0:
279,230,78229,2,0,L|394:239,1,83.9999974365235,10|2,3:2|3:0,0:0:0:0:
459,317,78643,2,0,P|423:354|381:356,1,83.9999974365235,10|0,1:2|1:0,0:0:0:0:
269,327,79057,5,2,3:3:0:0:
269,327,79677,1,0,0:0:0:0:
269,327,79781,1,0,0:0:0:0:
269,327,79884,2,0,P|201:311|176:290,1,83.9999974365235,8|0,0:0|0:0,0:0:0:0:
70,262,80298,2,0,P|104:220|144:196,1,83.9999974365235,8|8,0:0|0:0,0:0:0:0:
246,156,80712,6,0,P|217:114|158:98,1,83.9999974365235,4|0,0:0|0:0,0:0:0:0:
146,91,81022,2,0,P|98:92|61:127,1,83.9999974365235,8|0,0:0|0:0,0:0:0:0:
55,152,81333,2,0,P|53:204|59:242,1,83.9999974365235,8|8,0:0|0:0,0:0:0:0:
120,344,81746,1,0,0:0:0:0:
243,300,81953,2,0,P|307:285|339:284,1,83.9999974365235,8|0,0:0|0:0,0:0:0:0:
442,235,82367,6,0,P|449:171|447:127,1,83.9999974365235,8|0,0:0|0:0,0:0:0:0:
339,87,82781,2,0,P|332:151|334:195,1,83.9999974365235,8|0,0:0|0:0,0:0:0:0:
186,236,83195,1,8,0:0:0:0:
283,341,83402,1,8,0:0:0:0:
126,358,83609,2,0,P|72:308|68:283,1,83.9999974365235,8|0,0:0|0:0,0:0:0:0:
48,175,84022,6,0,P|62:136|110:97,1,83.9999974365235,4|0,0:0|0:0,0:0:0:0:
129,86,84333,2,0,P|181:72|212:87,1,83.9999974365235,8|0,0:0|0:0,0:0:0:0:
240,108,84643,2,0,P|269:137|283:176,1,83.9999974365235,8|2,0:0|0:0,0:0:0:0:
215,283,85057,1,0,0:0:0:0:
329,344,85264,2,0,P|392:347|421:339,1,83.9999974365235,8|0,0:0|0:0,0:0:0:0:
479,235,85677,6,0,L|488:141,1,83.9999974365235,8|0,0:0|0:0,0:0:0:0:
373,95,86091,2,0,L|381:178,1,83.9999974365235,8|0,0:0|0:0,0:0:0:0:
295,272,86505,2,0,P|244:291|206:281,1,83.9999974365235,8|0,0:0|0:0,0:0:0:0:
141,183,86919,2,0,P|192:164|230:174,1,83.9999974365235,8|0,0:0|0:0,0:0:0:0:
346,169,87333,6,0,L|329:80,1,83.9999974365235,4|0,0:0|0:0,0:0:0:0:
211,45,87746,2,0,L|195:127,1,83.9999974365235,8|0,0:0|0:0,0:0:0:0:
117,227,88160,1,8,0:0:0:0:
117,227,88264,1,0,0:0:0:0:
117,227,88367,2,0,P|135:295|155:335,1,83.9999974365235,0|8,0:0|0:0,0:0:0:0:
256,357,88781,6,0,P|300:333|341:330,1,83.9999974365235,0|8,0:0|0:0,0:0:0:0:
433,251,89195,2,0,P|394:212|359:197,1,83.9999974365235,0|8,0:0|0:0,0:0:0:0:
326,192,89505,2,0,P|305:184|284:182,1,41.9999987182618,0|0,0:0|0:0,0:0:0:0:
160,170,89815,1,8,0:0:0:0:
160,170,90022,1,8,0:0:0:0:
188,47,90229,1,8,0:0:0:0:
188,47,90436,1,8,0:0:0:0:
293,115,90643,6,0,L|308:215,1,83.9999974365235,4|0,0:0|0:0,0:0:0:0:
256,314,91057,1,8,0:0:0:0:
419,121,91471,2,0,L|434:221,1,83.9999974365235,4|0,0:0|0:0,0:0:0:0:
382,320,91885,1,8,0:0:0:0:
164,194,92298,6,0,P|106:199|58:184,1,83.9999974365235,4|0,0:0|0:0,0:0:0:0:
140,81,92712,2,0,P|198:76|246:91,1,83.9999974365235,8|0,0:0|0:0,0:0:0:0:
324,156,93126,2,0,L|306:210,4,41.9999987182618,8|0|0|0|8,0:0|0:0|0:0|0:0|0:0,0:0:0:0:
423,93,93746,1,0,0:0:0:0:
423,93,93850,1,0,0:0:0:0:
423,93,93953,6,0,P|433:158|424:216,1,83.9999974365235,4|0,0:0|0:0,0:0:0:0:
417,216,94264,2,0,P|360:230|326:254,1,83.9999974365235,8|0,0:0|0:0,0:0:0:0:
318,280,94574,2,0,P|246:308|214:306,1,83.9999974365235,8|2,0:0|0:0,0:0:0:0:
208,185,94988,1,0,0:0:0:0:
94,245,95195,2,0,P|46:224|26:198,1,83.9999974365235,8|0,0:0|0:0,0:0:0:0:
63,78,95609,6,0,L|163:64,1,83.9999974365235,8|0,0:0|0:0,0:0:0:0:
261,117,96022,2,0,L|344:128,1,83.9999974365235,8|0,0:0|0:0,0:0:0:0:
470,197,96436,1,8,0:0:0:0:
407,311,96643,1,8,0:0:0:0:
329,210,96850,2,0,P|338:144|355:106,1,83.9999974365235,8|0,0:0|0:0,0:0:0:0:
235,61,97264,6,0,P|171:40|121:48,1,83.9999974365235,4|0,0:0|0:0,0:0:0:0:
115,56,97574,2,0,P|71:80|49:115,1,83.9999974365235,8|0,0:0|0:0,0:0:0:0:
39,148,97884,2,0,P|27:197|45:234,1,83.9999974365235,8|2,0:0|0:0,0:0:0:0:
165,212,98298,1,0,0:0:0:0:
275,292,98505,2,0,P|289:225|299:187,1,83.9999974365235,8|0,0:0|0:0,0:0:0:0:
420,190,98919,6,0,P|478:199|513:197,1,83.9999974365235,8|0,0:0|0:0,0:0:0:0:
434,94,99333,2,0,P|376:85|341:87,1,83.9999974365235,8|0,0:0|0:0,0:0:0:0:
231,44,99746,2,0,P|192:55|159:95,1,83.9999974365235,8|0,0:0|0:0,0:0:0:0:
234,203,100160,2,0,P|243:163|225:115,1,83.9999974365235,8|0,0:0|0:0,0:0:0:0:
111,194,100574,6,0,L|121:290,1,83.9999974365235,4|0,0:0|0:0,0:0:0:0:
203,372,100988,2,0,L|211:288,1,83.9999974365235,8|0,0:0|0:0,0:0:0:0:
322,226,101402,1,8,0:0:0:0:
322,226,101505,2,0,P|342:285|358:341,1,83.9999974365235,0|0,0:0|0:0,0:0:0:0:
365,344,101815,1,8,0:0:0:0:
485,266,102022,1,0,0:0:0:0:
485,266,102126,1,0,0:0:0:0:
485,266,102229,6,0,P|482:196|473:160,1,83.9999974365235,4|0,0:0|0:0,0:0:0:0:
470,140,102540,2,0,P|446:84|423:49,1,83.9999974365235,0|0,0:0|0:0,0:0:0:0:
394,49,102850,1,0,0:0:0:0:
304,151,103057,2,0,B|354:166|354:166|398:161,1,83.9999974365235,8|8,0:0|0:0,0:0:0:0:
294,74,103471,2,0,P|238:103|225:130,1,83.9999974365235,8|0,0:0|0:0,0:0:0:0:
147,216,103884,6,0,L|261:201,1,83.9999974365235,4|0,0:0|0:0,0:0:0:0:
344,259,104298,1,8,0:0:0:0:
99,321,104712,2,0,L|213:306,1,83.9999974365235,4|0,0:0|0:0,0:0:0:0:
296,364,105126,1,8,0:0:0:0:
407,137,105540,6,0,P|391:73|377:45,1,83.9999974365235,8|0,0:0|0:0,0:0:0:0:
277,134,105953,2,0,P|293:198|307:226,1,83.9999974365235,8|0,0:0|0:0,0:0:0:0:
410,276,106367,2,0,P|415:325|393:354,1,83.9999974365235,8|0,0:0|0:0,0:0:0:0:
273,338,106781,2,0,P|224:328|177:325,1,83.9999974365235,8|0,0:0|0:0,0:0:0:0:
114,251,107195,6,0,P|106:189|96:159,1,70,4|0,0:0|0:0,0:0:0:0:
196,130,107609,2,0,P|204:68|214:38,1,70,8|0,0:0|0:0,0:0:0:0:
304,23,108022,2,0,P|315:71|338:113,1,70,8|0,0:0|0:0,0:0:0:0:
403,158,108436,1,8,0:0:0:0:
470,79,108643,2,0,P|417:78|382:86,1,70,0|8,0:0|0:0,0:0:0:0:
297,105,109057,5,0,0:0:0:0:
297,105,109160,1,0,0:0:0:0:
297,105,109264,2,0,P|267:151|263:188,1,70,8|0,0:0|0:0,0:0:0:0:
233,265,109677,2,0,P|199:223|167:199,1,70,8|8,0:0|0:0,0:0:0:0:
83,235,110091,2,0,P|111:189|116:166,1,70,8|0,0:0|0:0,0:0:0:0:
63,81,110505,1,4,0:0:0:0:
163,48,110712,5,0,0:0:0:0:
163,48,110815,1,0,0:0:0:0:
163,48,110919,2,0,P|209:59|250:72,1,70,8|0,0:0|0:0,0:0:0:0:
281,158,111333,2,0,P|337:172|365:206,1,70,8|0,0:0|0:0,0:0:0:0:
372,215,111643,1,0,0:0:0:0:
381,259,111746,2,0,P|372:300|349:327,1,70,8|0,0:0|0:0,0:0:0:0:
260,254,112160,6,0,P|208:239|171:233,1,70,8|0,0:0|0:0,0:0:0:0:
106,149,112574,2,0,P|158:134|195:128,1,70,8|0,0:0|0:0,0:0:0:0:
306,68,112988,2,0,L|322:152,1,70,8|0,0:0|0:0,0:0:0:0:
357,269,113402,2,0,L|370:200,1,70,8|0,0:0|0:0,0:0:0:0:
458,144,113815,1,8,0:0:0:0:
482,246,114022,5,0,0:0:0:0:
482,246,114126,1,0,0:0:0:0:
482,246,114229,2,0,P|476:299|462:327,1,70,8|0,0:0|0:0,0:0:0:0:
370,349,114643,2,0,P|324:336|289:312,1,70,8|0,0:0|0:0,0:0:0:0:
235,241,115057,1,8,0:0:0:0:
298,157,115264,2,0,P|329:198|342:226,1,70,0|8,0:0|0:0,0:0:0:0:
235,241,115677,5,0,0:0:0:0:
235,241,115781,1,0,0:0:0:0:
235,241,115884,2,0,P|194:229|139:224,1,70,8|0,0:0|0:0,0:0:0:0:
22,184,116298,2,0,P|34:135|45:107,1,70,8|8,0:0|0:0,0:0:0:0:
124,52,116712,2,0,P|187:37|213:57,1,70,8|0,0:0|0:0,0:0:0:0:
290,62,117126,1,4,0:0:0:0:
320,162,117333,5,0,0:0:0:0:
320,162,117436,1,0,0:0:0:0:
320,162,117540,2,0,L|301:255,1,70,8|0,0:0|0:0,0:0:0:0:
374,310,117953,2,0,P|423:283|439:264,1,70,8|0,0:0|0:0,0:0:0:0:
454,232,118264,1,0,0:0:0:0:
467,188,118367,2,0,P|449:140|424:116,1,70,8|0,0:0|0:0,0:0:0:0:
320,162,118781,6,0,P|253:169|221:165,1,70,8|0,0:0|0:0,0:0:0:0:
186,85,119195,2,0,P|253:78|285:82,1,70,8|0,0:0|0:0,0:0:0:0:
365,56,119609,2,0,P|395:87|415:113,1,70,8|0,0:0|0:0,0:0:0:0:
308,230,120022,2,0,P|313:187|320:155,1,70,8|0,0:0|0:0,0:0:0:0:
434,264,120436,6,0,P|390:293|325:324,1,105,4|4,0:0|0:0,0:0:0:0:
217,177,121057,6,0,P|264:200|323:241,1,105,4|4,0:0|0:0,0:0:0:0:
135,336,121677,6,0,P|131:283|137:211,1,105,4|4,0:0|0:0,0:0:0:0:
173,64,122298,5,4,0:0:0:0:
256,192,122402,12,0,123746,0:0:0:0:
