osu file format v14

[General]
AudioFilename: audio.mp3
AudioLeadIn: 0
PreviewTime: 85078
Countdown: 0
SampleSet: Soft
StackLeniency: 0.5
Mode: 0
LetterboxInBreaks: 0
WidescreenStoryboard: 1

[Editor]
DistanceSpacing: 0.7
BeatDivisor: 4
GridSize: 4
TimelineZoom: 1.8

[Metadata]
Title:O-Ku-Ri-Mo-No Sunday! (GAME VERSION)
TitleUnicode:O-Ku-Ri-Mo-No Sunday! (GAME VERSION)
Artist:miroir
ArtistUnicode:miroir
Creator:kusano
Version:PRO
Source:アイドルマスター シンデレラガールズ スターライトステージ
Tags:久川颯 久川凪 Hisakawa Hayate Hisakawa Nagi 長江里加 立花日菜 Nagae Rika Tachibana Hina imas im@s idol master cinderella girls
BeatmapID:2053102
BeatmapSetID:976278

[Difficulty]
HPDrainRate:6
CircleSize:4
OverallDifficulty:6
ApproachRate:7.5
SliderMultiplier:1.7
SliderTickRate:1

[Events]
//Background and Video events
Video,0,"D.avi"
0,0,"ti.jpg",0,0
//Break Periods
//Storyboard Layer 0 (Background)
//Storyboard Layer 1 (Fail)
//Storyboard Layer 2 (Pass)
//Storyboard Layer 3 (Foreground)
//Storyboard Layer 4 (Overlay)
//Storyboard Sound Samples

[TimingPoints]
768,413.793103448276,4,2,0,70,1,0
18147,-100,4,2,0,70,0,0
57664,-100,4,2,0,70,0,0
60354,-200,4,2,0,70,0,0
62216,-100,4,2,0,70,0,0
63664,-200,4,2,0,70,0,0
65733,-100,4,2,0,70,0,0
66974,-200,4,2,0,70,0,0
68630,-100,4,2,0,70,0,0
82388,-100,4,2,0,40,0,0
82699,-100,4,2,0,55,0,0
83112,-100,4,2,0,70,0,0
85181,-86.9565217391304,4,2,0,80,0,1
124905,-86.9565217391304,4,2,0,80,0,0
126768,-86.9565217391304,4,2,0,40,0,0

[HitObjects]
112,128,5112,5,4,0:3:0:0:
196,88,5319,2,0,L|218:40,2,42.5,0|0|0,1:0|1:0|1:0,0:0:0:0:
120,36,5733,6,0,P|76:40|40:68,1,85,4|0,0:3|0:0,0:0:0:0:
100,220,6147,2,0,P|144:216|180:188,1,85,4|0,0:3|0:0,0:0:0:0:
112,128,6561,1,4,0:3:0:0:
176,304,6974,1,4,0:3:0:0:
264,268,7181,6,0,L|364:276,1,85,0|4,0:0|0:3,0:0:0:0:
440,256,7595,2,0,P|460:220|464:168,1,85,0|4,0:0|0:3,0:0:0:0:
400,108,8009,2,0,P|380:144|376:196,1,85,0|4,0:0|0:3,0:0:0:0:
440,256,8423,1,0,0:0:0:0:
400,108,8630,2,0,P|364:80|320:68,1,85,4|0,0:3|0:0,0:0:0:0:
236,80,9043,6,0,L|212:184,1,85,4|0,0:3|0:0,0:0:0:0:
124,168,9457,2,0,L|100:272,1,85,4|0,0:3|0:0,0:0:0:0:
168,320,9871,1,4,0:3:0:0:
368,240,10285,1,4,0:3:0:0:
428,168,10492,6,0,L|408:85,1,85,0|4,0:0|0:3,0:0:0:0:
368,240,10905,2,0,L|348:322,1,85,0|4,0:0|0:3,0:0:0:0:
308,168,11319,2,0,L|288:85,1,85,0|4,0:0|0:3,0:0:0:0:
248,240,11733,1,0,0:0:0:0:
132,160,11940,2,0,P|171:149|228:152,1,85,4|0,0:3|0:0,0:0:0:0:
340,256,12354,6,0,P|379:267|436:264,1,85,4|0,0:3|0:0,0:0:0:0:
444,108,12768,2,0,P|405:97|348:100,1,85,4|0,0:3|0:0,0:0:0:0:
392,184,13181,1,4,3:0:0:0:
284,36,13595,1,4,0:3:0:0:
208,88,13802,6,0,L|96:116,1,85,0|4,0:0|0:3,0:0:0:0:
56,196,14216,2,0,L|168:224,1,85,0|4,0:0|0:3,0:0:0:0:
208,304,14630,2,0,L|96:332,1,85,0|4,0:0|0:3,0:0:0:0:
36,352,15043,1,0,0:0:0:0:
208,304,15250,2,0,P|252:300|308:320,1,85,4|0,0:3|0:0,0:0:0:0:
356,244,15664,6,0,P|400:248|456:228,1,85,4|0,0:3|0:0,0:0:0:0:
156,140,16078,2,0,P|112:136|56:156,1,85,4|0,0:3|0:0,0:0:0:0:
256,296,16492,2,0,B|236:264|256:240|256:240|276:216|256:192|256:192|236:168|256:140|256:140,1,170,4|4,0:3|0:3,0:0:0:0:
256,48,17112,1,0,0:0:0:0:
256,48,18147,5,0,1:0:0:0:
180,100,18354,1,4,0:3:0:0:
180,100,18457,1,4,0:3:0:0:
180,100,18561,2,0,P|116:88|56:120,1,127.5,0|0,1:0|0:0,0:0:0:0:
36,152,18974,5,4,1:2:0:0:
128,180,19181,2,0,L|156:220,2,42.5,0|0|0,0:0|0:0|1:0,0:0:0:0:
180,100,19595,1,0,0:0:0:0:
60,236,19802,2,0,P|76:272|124:304,1,85,0|0,1:0|0:0,0:0:0:0:
156,308,20112,2,0,P|180:304|212:292,1,42.5,0|0,0:0|1:0,0:0:0:0:
312,240,20423,2,0,L|436:252,1,85,0|0,0:0|1:0,0:0:0:0:
476,160,20836,6,0,L|428:164,2,42.5,0|0|0,0:0|0:0|1:0,0:0:0:0:
348,148,21250,1,0,0:0:0:0:
444,76,21457,1,0,1:0:0:0:
380,236,21664,1,8,0:0:0:0:
260,192,21871,2,0,P|256:112|320:56,1,170,8|0,1:2|1:0,0:0:0:0:
389,157,22492,6,0,P|365:153|333:141,2,42.5,0|0|0,0:0|0:0|1:0,0:0:0:0:
468,112,22905,1,0,0:0:0:0:
296,80,23112,2,0,P|276:100|264:124,1,42.5,0|0,1:0|0:0,0:0:0:0:
152,140,23423,2,0,P|163:122|179:107,1,42.5,0|0,0:0|1:0,0:0:0:0:
296,80,23733,1,0,0:0:0:0:
152,140,23940,5,0,1:0:0:0:
256,184,24147,1,0,0:0:0:0:
296,80,24354,1,0,1:0:0:0:
192,36,24561,1,0,0:0:0:0:
152,140,24768,2,0,P|128:196|136:280,1,127.5,0|0,1:0|0:0,0:0:0:0:
129,261,25181,2,0,B|164:236|164:236|204:248|196:320,1,127.5,0|0,1:0|0:0,0:0:0:0:
197,306,25595,5,0,1:0:0:0:
288,280,25802,2,0,L|348:292,2,42.5,0|0|0,0:0|0:0|1:0,0:0:0:0:
328,196,26216,1,0,0:0:0:0:
412,300,26423,2,0,P|432:264|432:208,1,85,0|0,1:0|0:0,0:0:0:0:
424,176,26733,2,0,P|416:152|404:128,1,42.5,0|0,0:0|1:0,0:0:0:0:
304,72,27043,2,0,L|196:80,1,85,0|0,0:0|1:0,0:0:0:0:
132,112,27457,6,0,L|100:156,2,42.5,0|0|0,0:0|0:0|1:0,0:0:0:0:
48,76,27871,1,0,0:0:0:0:
196,176,28078,1,0,1:0:0:0:
108,148,28285,1,8,0:0:0:0:
176,84,28492,2,0,P|260:96|300:172,1,170,8|0,1:2|1:0,0:0:0:0:
288,256,29112,6,0,L|280:308,2,42.5,0|0|0,0:0|0:0|1:0,0:0:0:0:
216,196,29526,1,0,0:0:0:0:
148,264,29733,2,0,P|152:288|160:308,1,42.5,0|0,1:0|0:0,0:0:0:0:
292,338,30043,2,0,P|288:314|280:294,1,42.5,0|0,0:0|1:0,0:0:0:0:
148,264,30354,1,0,0:0:0:0:
292,338,30561,5,0,1:0:0:0:
256,232,30768,1,0,0:0:0:0:
148,264,30974,1,0,1:0:0:0:
184,372,31181,1,0,0:0:0:0:
292,338,31388,2,0,L|344:348,4,42.5,0|0|0|0|0,1:0|1:0|1:0|1:0|1:0,0:0:0:0:
432,272,32009,1,0,1:0:0:0:
432,272,32112,1,0,1:0:0:0:
432,272,32216,5,4,1:2:0:0:
352,224,32423,2,0,L|300:234,2,42.5,0|0|0,0:0|0:0|1:0,0:0:0:0:
432,176,32836,1,0,0:0:0:0:
308,140,33043,2,0,P|348:128|384:96,1,85,0|0,1:0|0:0,0:0:0:0:
404,60,33354,2,0,P|408:40|408:16,1,42.5,0|0,0:0|1:0,0:0:0:0:
232,48,33664,2,0,L|220:156,1,85,0|0,0:0|1:0,0:0:0:0:
136,172,34078,6,0,L|144:228,2,42.5,0|0|0,0:0|0:0|1:0,0:0:0:0:
124,80,34492,1,0,0:0:0:0:
48,136,34699,1,0,1:0:0:0:
216,116,34905,1,8,0:0:0:0:
240,284,35112,2,0,L|228:199,1,85,8|0,1:2|0:0,0:0:0:0:
59,224,35526,5,0,1:0:0:0:
92,312,35733,2,0,P|112:324|140:332,2,42.5,0|0|0,0:0|0:0|1:0,0:0:0:0:
152,240,36147,1,0,0:0:0:0:
216,336,36354,2,0,P|240:336|268:328,1,42.5,0|0,1:0|0:0,0:0:0:0:
300,216,36664,2,0,P|300:240|308:268,1,42.5,0|0,0:0|1:0,0:0:0:0:
216,336,36974,1,0,0:0:0:0:
300,216,37181,5,0,1:0:0:0:
436,264,37388,1,0,0:0:0:0:
352,384,37595,1,0,1:0:0:0:
216,336,37802,1,0,0:0:0:0:
300,216,38009,2,0,B|325:254|332:304|332:304|360:256,1,127.5,0|0,1:0|0:0,0:0:0:0:
348,275,38423,2,0,P|288:262|228:304,1,127.5,0|0,1:0|0:0,0:0:0:0:
216,336,38836,5,0,1:0:0:0:
124,312,39043,2,0,L|80:320,2,42.5,0|0|0,0:0|0:0|1:0,0:0:0:0:
176,232,39457,1,0,0:0:0:0:
80,228,39664,2,0,P|52:200|36:136,1,85,0|0,1:0|0:0,0:0:0:0:
32,112,39974,2,0,P|36:88|48:64,1,42.5,0|0,0:0|1:0,0:0:0:0:
152,20,40285,2,0,L|240:32,1,85,0|0,0:0|1:0,0:0:0:0:
320,76,40699,6,0,L|388:68,2,42.5,0|0|0,0:0|0:0|1:0,0:0:0:0:
240,124,41112,1,0,0:0:0:0:
236,31,41319,1,0,1:0:0:0:
324,168,41526,1,8,0:0:0:0:
492,144,41733,2,0,L|404:156,1,85,8|0,1:2|0:0,0:0:0:0:
324,168,42147,5,0,1:0:0:0:
240,124,42354,2,0,L|180:140,2,42.5,0|0|0,0:0|0:0|1:0,0:0:0:0:
244,216,42768,1,0,0:0:0:0:
316,76,42974,2,0,P|288:48|240:36,1,85,0|0,1:0|0:0,0:0:0:0:
196,36,43285,2,0,P|168:48|144:68,1,42.5,0|0,0:0|1:0,0:0:0:0:
72,148,43595,2,0,L|88:244,1,85,0|0,0:0|1:0,0:0:0:0:
100,324,44009,5,0,0:0:0:0:
192,308,44216,2,0,P|220:276|232:220,1,85,0|0,1:0|0:0,0:0:0:0:
228,140,44630,2,0,L|216:72,4,42.5,0|0|0|0|0,1:0|1:0|1:0|1:0|1:0,0:0:0:0:
304,52,45250,1,0,1:0:0:0:
304,52,45354,1,0,1:0:0:0:
304,52,45457,6,0,P|344:44|404:40,1,85,4|0,1:2|0:0,0:0:0:0:
476,72,45871,1,4,0:3:0:0:
404,132,46078,1,0,0:0:0:0:
448,216,46285,2,0,P|452:260|432:312,1,85,4|0,0:3|0:0,0:0:0:0:
404,328,46595,1,0,0:0:0:0:
404,328,46699,2,0,L|320:344,1,85,4|0,0:3|0:0,0:0:0:0:
240,296,47112,6,0,P|196:288|144:304,2,85,4|0|4,0:3|0:0|0:3,0:0:0:0:
104,200,47733,1,0,0:0:0:0:
104,200,47940,2,0,P|148:208|200:192,1,85,4|0,0:3|0:0,0:0:0:0:
228,176,48250,1,0,0:0:0:0:
228,176,48354,2,0,L|264:92,1,85,4|0,0:3|0:0,0:0:0:0:
296,12,48768,1,4,0:3:0:0:
204,24,48974,5,0,0:0:0:0:
132,84,49181,2,0,L|36:76,1,85,4|0,0:3|0:0,0:0:0:0:
100,184,49595,2,0,L|184:176,1,85,4|0,0:3|0:0,0:0:0:0:
280,168,50009,1,4,0:3:0:0:
348,104,50216,1,0,0:0:0:0:
436,136,50423,6,0,P|460:172|472:224,1,85,4|0,0:3|0:0,0:0:0:0:
460,304,50836,1,4,0:3:0:0:
372,272,51043,2,0,P|332:272|284:300,1,85,0|4,0:0|0:3,0:0:0:0:
208,264,51457,1,0,0:0:0:0:
208,264,51664,2,0,P|168:264|120:236,1,85,4|0,0:3|0:0,0:0:0:0:
