osu file format v14

[General]
AudioFilename: audio.mp3
AudioLeadIn: 0
PreviewTime: 84542
Countdown: 0
SampleSet: Normal
StackLeniency: 0.7
Mode: 1
LetterboxInBreaks: 0
WidescreenStoryboard: 0

[Editor]
DistanceSpacing: 1.1
BeatDivisor: 4
GridSize: 32
TimelineZoom: 3.199999

[Metadata]
Title:O-Ku-Ri-Mo-No Sunday! (Ange;art edit)
TitleUnicode:O-Ku-Ri-Mo-No Sunday! (Ange;art edit)
Artist:miroir
ArtistUnicode:miroir
Creator:Eriha
Version:MASTER+
Source:アイドルマスター シンデレラガールズ スターライトステージ
Tags:久川颯 久川凪 Hisakawa Hayate Nagi 長江里加 Nagae Rika 立花日菜 Tachibana Hina im@s the idolm@ster cinderella girls starlight stage japanese video game electronic anime remix j-core bootleg jcore okurimono hardcore donk
BeatmapID:3385766
BeatmapSetID:1658696

[Difficulty]
HPDrainRate:5
CircleSize:5
OverallDifficulty:6.3
ApproachRate:5
SliderMultiplier:1.4
SliderTickRate:1

[Events]
//Background and Video events
0,0,"bg.jpg",0,60
//Break Periods
2,208680,217780
//Storyboard Layer 0 (Background)
//Storyboard Layer 1 (Fail)
//Storyboard Layer 2 (Pass)
//Storyboard Layer 3 (Foreground)
//Storyboard Layer 4 (Overlay)
//Storyboard Sound Samples

[TimingPoints]
730,375,4,1,0,80,1,8
1480,375,4,1,0,80,1,0
25386,-100,4,1,0,90,0,0
25480,-100,4,1,0,90,0,1
48331,-100,4,1,0,90,0,1
48519,-101.690319081623,4,1,0,90,0,1
48581,-102.272727272727,4,1,0,90,0,1
48644,-102.852441031267,4,1,0,90,0,1
48706,-103.448275862069,4,1,0,90,0,1
48894,-105.258233532934,4,1,0,90,0,1
48987,-106.192184255239,4,1,0,90,0,1
49081,-107.142857142857,4,1,0,90,0,1
49269,-109.085620091147,4,1,0,90,0,1
49362,-110.089049809179,4,1,0,90,0,1
49456,-111.111111111111,4,1,0,80,0,1
49480,-111.111111111111,4,1,0,80,0,0
60144,-111.111111111111,4,1,0,80,0,0
60206,-110.815715069418,4,1,0,80,0,0
60269,-110.526537312176,4,1,0,80,0,0
60331,-110.234237259676,4,1,0,80,0,0
60519,-109.375650797618,4,1,0,80,0,0
60612,-108.949093473841,4,1,0,80,0,0
60706,-108.525850312022,4,1,0,80,0,0
60800,-108.110333470564,4,1,0,80,0,0
60987,-107.280006536482,4,1,0,80,0,0
61081,-106.869607683542,4,1,0,80,0,0
61269,-106.062441940305,4,1,0,80,0,0
61456,-105.263157894737,4,1,0,80,0,0
72706,-105.263157894737,4,1,0,80,0,0
72894,-103.899702154187,4,1,0,80,0,0
72987,-103.22758241002,4,1,0,80,0,0
73081,-102.564102564103,4,1,0,80,0,0
73269,-101.26924115582,4,1,0,80,0,0
73362,-100.630618542869,4,1,0,80,0,0
73456,-100,4,1,0,80,0,0
84800,-99.383820314053,4,1,0,80,0,0
84894,-98.768683742675,4,1,0,80,0,0
84987,-98.161115110268,4,1,0,80,0,0
85081,-97.560975609756,4,1,0,80,0,0
85269,-96.388638992417,4,1,0,80,0,0
85362,-95.809913132345,4,1,0,80,0,0
85456,-95.238095238095,4,1,0,90,0,0
85480,-95.238095238095,4,1,0,90,0,1
108331,-95.238095238095,4,1,0,90,0,1
108519,-95.99795204369,4,1,0,90,0,1
108581,-96.256684491979,4,1,0,90,0,1
108644,-96.51267533136,4,1,0,90,0,1
108706,-96.774193548387,4,1,0,90,0,1
108894,-97.162844928099,4,1,0,90,0,1
108987,-97.958117462667,4,1,0,90,0,1
109081,-98.360655737705,4,1,0,90,0,1
109175,-98.762180668949,4,1,0,90,0,1
109269,-99.171368124118,4,1,0,90,0,1
109456,-100,4,1,0,90,0,1
121456,-100,4,1,0,80,0,1
121480,-100,4,1,0,80,0,0
121737,-104.345136848616,4,1,0,80,0,0
122019,-109.085030714517,4,1,0,80,0,0
122300,-114.276037256562,4,1,0,80,0,0
122581,-120.007113640405,4,1,0,80,0,0
122862,-126.319730438038,4,1,0,80,0,0
123144,-133.333333333333,4,1,0,80,0,0
123706,-111.111111111111,4,1,0,80,0,0
124480,375,4,1,0,80,1,0
124480,-111.111111111111,4,1,0,80,0,0
135519,-111.111111111111,4,1,0,80,0,0
135612,-110.495935917069,4,1,0,80,0,0
135706,-109.887535145267,4,1,0,80,0,0
135800,-109.292164287795,4,1,0,80,0,0
135894,-108.696911756185,4,1,0,80,0,0
135956,-108.301581803487,4,1,0,80,0,0
136019,-107.915324436263,4,1,0,80,0,0
136081,-107.525649108729,4,1,0,80,0,0
136175,-106.955530216648,4,1,0,80,0,0
136269,-106.385391856641,4,1,0,80,0,0
136331,-106.006667796802,4,1,0,80,0,0
136394,-105.636578636184,4,1,0,80,0,0
136456,-105.263157894737,4,1,0,80,0,0
147706,-105.263157894737,4,1,0,80,0,0
147769,-104.807154835103,4,1,0,80,0,0
147831,-104.347826086957,4,1,0,80,0,0
147894,-103.899702154187,4,1,0,80,0,0
147987,-103.22758241002,4,1,0,80,0,0
148081,-102.564102564103,4,1,0,80,0,0
148269,-101.26924115582,4,1,0,80,0,0
148362,-100.630618542869,4,1,0,80,0,0
148456,-100,4,1,0,80,0,0
159706,-100,4,1,0,80,0,0
159800,-99.383820314053,4,1,0,80,0,0
159894,-98.768683742675,4,1,0,80,0,0
159987,-98.161115110268,4,1,0,80,0,0
160081,-97.560975609756,4,1,0,80,0,0
160269,-96.388638992417,4,1,0,80,0,0
160362,-95.809913132345,4,1,0,80,0,0
160456,-95.238095238095,4,1,0,90,0,0
160480,-95.238095238095,4,1,0,90,0,1
183331,-95.238095238095,4,1,0,90,0,1
183519,-96.770031396499,4,1,0,90,0,1
183581,-97.297297297297,4,1,0,90,0,1
183644,-97.821833833312,4,1,0,90,0,1
183706,-98.360655737705,4,1,0,90,0,1
183800,-99.166997223324,4,1,0,90,0,1
183987,-100.83807645767,4,1,0,90,0,1
184081,-101.694915254237,4,1,0,90,0,1
184175,-102.557090113497,4,1,0,90,0,1
184269,-103.443519838168,4,1,0,90,0,1
184456,-105.263157894737,4,1,0,80,0,1
184480,-105.263157894737,4,1,0,80,0,0
195706,-105.263157894737,4,1,0,80,0,0
195800,-104.580631667015,4,1,0,80,0,0
195894,-103.899702154187,4,1,0,80,0,0
195987,-103.22758241002,4,1,0,80,0,0
196081,-102.564102564103,4,1,0,80,0,0
196269,-101.26924115582,4,1,0,80,0,0
196362,-100.630618542869,4,1,0,80,0,0
196456,-100,4,1,0,80,0,0
219706,-100,4,1,0,80,0,0
219800,-99.383820314053,4,1,0,80,0,0
219894,-98.768683742675,4,1,0,80,0,0
219987,-98.161115110268,4,1,0,80,0,0
220081,-97.560975609756,4,1,0,80,0,0
220175,-96.974398758728,4,1,0,80,0,0
220269,-96.388638992417,4,1,0,80,0,0
220362,-95.809913132345,4,1,0,80,0,0
220456,-95.238095238095,4,1,0,90,0,0
220480,-95.2380952380952,4,1,0,90,0,1
243331,-95.238095238095,4,1,0,90,0,1
243519,-95.99795204369,4,1,0,90,0,1
243581,-96.256684491979,4,1,0,90,0,1
243644,-96.51267533136,4,1,0,90,0,1
243706,-96.774193548387,4,1,0,90,0,1
243894,-97.162844928099,4,1,0,90,0,1
243987,-97.958117462667,4,1,0,90,0,1
244081,-98.360655737705,4,1,0,90,0,1
244175,-98.762180668949,4,1,0,90,0,1
244269,-99.171368124118,4,1,0,90,0,1
244456,-100,4,1,0,90,0,1
256456,-100,4,1,0,80,0,1
256480,-100,4,1,0,80,0,0

[HitObjects]
256,191,730,5,0,0:0:0:0:
256,191,918,1,0,0:0:0:0:
256,191,1011,1,2,0:0:0:0:
256,191,1105,1,2,0:0:0:0:
256,191,1293,1,2,0:0:0:0:
256,191,1480,1,4,0:0:0:0:
256,191,1855,1,0,0:0:0:0:
256,191,2043,1,2,0:0:0:0:
256,191,2230,1,0,0:0:0:0:
256,191,2418,1,2,0:0:0:0:
256,191,2511,1,2,0:0:0:0:
256,191,2605,1,0,0:0:0:0:
256,191,2792,1,0,0:0:0:0:
256,191,2886,1,0,0:0:0:0:
256,191,2980,1,2,0:0:0:0:
256,191,3167,1,0,0:0:0:0:
256,191,3355,1,2,0:0:0:0:
256,191,3542,1,0,0:0:0:0:
256,191,3730,1,2,0:0:0:0:
256,191,3823,1,0,0:0:0:0:
256,191,3917,1,0,0:0:0:0:
256,191,4105,1,0,0:0:0:0:
256,191,4292,1,2,0:0:0:0:
256,191,4386,1,0,0:0:0:0:
256,191,4480,1,2,0:0:0:0:
256,191,4855,1,0,0:0:0:0:
256,191,5042,1,2,0:0:0:0:
256,191,5230,1,0,0:0:0:0:
256,191,5417,1,2,0:0:0:0:
256,191,5511,1,2,0:0:0:0:
256,191,5605,1,0,0:0:0:0:
256,191,5792,1,2,0:0:0:0:
256,191,5980,1,0,0:0:0:0:
256,191,6167,1,0,0:0:0:0:
256,191,6261,1,0,0:0:0:0:
256,191,6355,1,0,0:0:0:0:
256,191,6542,1,2,0:0:0:0:
256,191,6636,1,2,0:0:0:0:
256,191,6730,1,2,0:0:0:0:
256,191,6917,1,2,0:0:0:0:
256,191,7105,1,0,0:0:0:0:
256,191,7292,1,2,0:0:0:0:
256,191,7480,1,4,0:0:0:0:
256,191,7855,1,0,0:0:0:0:
256,191,8043,1,2,0:0:0:0:
256,191,8230,1,0,0:0:0:0:
256,191,8418,1,2,0:0:0:0:
256,191,8511,1,2,0:0:0:0:
256,191,8605,1,0,0:0:0:0:
256,191,8792,1,0,0:0:0:0:
256,191,8886,1,0,0:0:0:0:
256,191,8980,1,2,0:0:0:0:
256,191,9167,1,0,0:0:0:0:
256,191,9355,1,2,0:0:0:0:
256,191,9542,1,0,0:0:0:0:
256,191,9730,1,2,0:0:0:0:
256,191,9823,1,0,0:0:0:0:
256,191,9917,1,0,0:0:0:0:
256,191,10105,1,0,0:0:0:0:
256,191,10292,1,2,0:0:0:0:
256,191,10386,1,0,0:0:0:0:
256,191,10480,1,2,0:0:0:0:
256,191,10855,1,0,0:0:0:0:
256,191,11042,1,2,0:0:0:0:
256,191,11230,1,0,0:0:0:0:
256,191,11417,1,2,0:0:0:0:
256,191,11511,1,2,0:0:0:0:
256,191,11605,1,0,0:0:0:0:
256,191,11792,1,2,0:0:0:0:
256,191,11980,1,0,0:0:0:0:
256,191,12167,1,0,0:0:0:0:
256,191,12542,1,2,0:0:0:0:
256,191,12605,1,2,0:0:0:0:
256,191,12667,1,2,0:0:0:0:
256,191,12730,1,2,0:0:0:0:
256,191,12917,1,2,0:0:0:0:
256,191,13011,1,2,0:0:0:0:
256,191,13198,1,2,0:0:0:0:
256,191,13292,1,0,0:0:0:0:
256,191,13480,1,4,0:0:0:0:
256,191,13667,1,2,0:0:0:0:
256,191,13855,1,0,0:0:0:0:
256,191,14042,1,2,0:0:0:0:
256,191,14136,1,2,0:0:0:0:
256,191,14230,1,0,0:0:0:0:
256,191,14417,1,2,0:0:0:0:
256,191,14605,1,0,0:0:0:0:
256,191,14792,1,0,0:0:0:0:
256,191,14886,1,0,0:0:0:0:
256,191,14980,1,2,0:0:0:0:
256,191,15073,1,2,0:0:0:0:
256,191,15167,1,0,0:0:0:0:
256,191,15355,1,2,0:0:0:0:
256,191,15542,1,0,0:0:0:0:
256,191,15730,1,2,0:0:0:0:
256,191,15823,1,0,0:0:0:0:
256,191,15917,1,0,0:0:0:0:
256,191,16011,1,0,0:0:0:0:
256,191,16105,1,2,0:0:0:0:
256,191,16292,1,0,0:0:0:0:
256,191,16386,1,0,0:0:0:0:
256,191,16480,1,2,0:0:0:0:
256,191,16667,1,0,0:0:0:0:
256,191,16761,1,2,0:0:0:0:
256,191,16855,1,2,0:0:0:0:
256,191,17042,1,0,0:0:0:0:
256,191,17230,1,2,0:0:0:0:
256,191,17417,1,0,0:0:0:0:
256,191,17511,1,2,0:0:0:0:
256,191,17605,1,0,0:0:0:0:
256,191,17792,1,2,0:0:0:0:
256,191,17980,1,0,0:0:0:0:
256,191,18167,1,2,0:0:0:0:
256,191,18261,1,2,0:0:0:0:
256,191,18355,1,2,0:0:0:0:
256,191,18542,1,0,0:0:0:0:
256,191,18730,1,2,0:0:0:0:
256,191,18823,1,0,0:0:0:0:
256,191,18917,1,0,0:0:0:0:
256,191,19011,1,0,0:0:0:0:
256,191,19105,1,2,0:0:0:0:
256,191,19292,1,2,0:0:0:0:
256,191,19480,1,4,0:0:0:0:
256,191,19667,1,2,0:0:0:0:
256,191,19761,1,2,0:0:0:0:
256,191,19855,1,0,0:0:0:0:
256,191,20042,1,2,0:0:0:0:
256,191,20136,1,2,0:0:0:0:
256,191,20230,1,0,0:0:0:0:
256,191,20323,1,2,0:0:0:0:
256,191,20511,1,2,0:0:0:0:
256,191,20605,1,0,0:0:0:0:
256,191,20792,1,2,0:0:0:0:
256,191,20980,1,0,0:0:0:0:
256,191,21167,1,2,0:0:0:0:
256,191,21355,1,0,0:0:0:0:
256,191,21542,1,2,0:0:0:0:
256,191,21636,1,0,0:0:0:0:
256,191,21730,1,0,0:0:0:0:
256,191,21823,1,2,0:0:0:0:
256,191,22011,1,2,0:0:0:0:
256,191,22105,1,0,0:0:0:0:
256,191,22292,1,0,0:0:0:0:
256,191,22480,1,0,0:0:0:0:
256,191,22667,1,2,0:0:0:0:
256,191,22855,1,2,0:0:0:0:
256,191,23042,1,2,0:0:0:0:
256,191,23230,1,0,0:0:0:0:
256,191,23323,1,2,0:0:0:0:
256,191,23417,1,2,0:0:0:0:
256,191,23511,1,2,0:0:0:0:
256,191,23605,1,0,0:0:0:0:
256,191,23698,1,2,0:0:0:0:
256,191,23792,1,2,0:0:0:0:
256,191,23980,1,4,0:0:0:0:
256,191,24730,1,2,0:0:0:0:
256,191,24823,1,2,0:0:0:0:
256,191,24917,1,0,0:0:0:0:
256,191,25011,1,0,0:0:0:0:
256,191,25105,1,2,0:0:0:0:
256,191,25480,1,4,0:0:0:0:
256,191,25667,1,2,0:0:0:0:
256,191,25761,1,2,0:0:0:0:
256,191,25855,1,2,0:0:0:0:
256,191,26042,1,0,0:0:0:0:
256,191,26230,1,2,0:0:0:0:
256,191,26417,1,0,0:0:0:0:
256,191,26511,1,2,0:0:0:0:
256,191,26605,1,2,0:0:0:0:
256,191,26792,1,0,0:0:0:0:
256,191,26980,1,2,0:0:0:0:
256,191,27167,1,0,0:0:0:0:
256,191,27261,1,0,0:0:0:0:
256,191,27355,1,0,0:0:0:0:
256,191,27542,1,0,0:0:0:0:
256,191,27730,1,2,0:0:0:0:
256,191,28105,1,6,0:0:0:0:
256,191,28480,1,2,0:0:0:0:
256,191,28667,1,0,0:0:0:0:
256,191,28761,1,0,0:0:0:0:
256,191,28855,1,2,0:0:0:0:
256,191,29042,1,0,0:0:0:0:
256,191,29230,1,2,0:0:0:0:
256,191,29417,1,0,0:0:0:0:
256,191,29511,1,2,0:0:0:0:
256,191,29698,1,0,0:0:0:0:
256,191,29792,1,2,0:0:0:0:
256,191,29980,1,0,0:0:0:0:
256,191,30073,1,0,0:0:0:0:
256,191,30167,1,2,0:0:0:0:
256,191,30261,1,2,0:0:0:0:
256,191,30355,1,0,0:0:0:0:
256,191,30542,1,2,0:0:0:0:
256,191,30636,1,2,0:0:0:0:
256,191,30730,1,0,0:0:0:0:
256,191,30823,1,2,0:0:0:0:
256,191,31011,1,2,0:0:0:0:
256,191,31105,1,0,0:0:0:0:
256,191,31292,1,2,0:0:0:0:
256,191,31480,1,4,0:0:0:0:
256,191,31667,1,2,0:0:0:0:
256,191,31761,1,2,0:0:0:0:
256,191,31855,1,2,0:0:0:0:
256,191,32042,1,2,0:0:0:0:
256,191,32230,1,0,0:0:0:0:
256,191,32417,1,2,0:0:0:0:
256,191,32511,1,2,0:0:0:0:
256,191,32698,1,0,0:0:0:0:
256,191,32792,1,2,0:0:0:0:
256,191,32980,1,2,0:0:0:0:
256,191,33167,1,2,0:0:0:0:
256,191,33261,1,0,0:0:0:0:
256,191,33355,1,2,0:0:0:0:
256,191,33542,1,0,0:0:0:0:
256,191,33730,1,2,0:0:0:0:
256,191,34105,1,6,0:0:0:0:
256,191,34480,1,0,0:0:0:0:
256,191,34667,1,0,0:0:0:0:
256,191,34761,1,2,0:0:0:0:
256,191,34855,1,2,0:0:0:0:
256,191,35042,1,2,0:0:0:0:
256,191,35230,1,2,0:0:0:0:
256,191,35417,1,2,0:0:0:0:
256,191,35511,1,2,0:0:0:0:
256,191,35698,1,2,0:0:0:0:
256,191,35792,1,0,0:0:0:0:
256,191,35980,1,0,0:0:0:0:
256,191,36042,1,0,0:0:0:0:
256,191,36105,1,0,0:0:0:0:
256,191,36167,1,0,0:0:0:0:
256,191,36355,1,2,0:0:0:0:
256,191,36448,1,0,0:0:0:0:
256,191,36542,1,0,0:0:0:0:
256,191,36636,1,2,0:0:0:0:
256,191,36730,1,0,0:0:0:0:
256,191,36823,1,0,0:0:0:0:
256,191,36917,1,0,0:0:0:0:
256,191,37011,1,0,0:0:0:0:
256,191,37105,1,2,0:0:0:0:
256,191,37292,1,2,0:0:0:0:
256,191,37480,1,4,0:0:0:0:
256,191,37667,1,2,0:0:0:0:
256,191,37761,1,2,0:0:0:0:
256,191,37855,1,2,0:0:0:0:
256,191,38042,1,0,0:0:0:0:
256,191,38230,1,2,0:0:0:0:
256,191,38417,1,0,0:0:0:0:
256,191,38511,1,2,0:0:0:0:
256,191,38605,1,2,0:0:0:0:
256,191,38792,1,0,0:0:0:0:
256,191,38980,1,2,0:0:0:0:
256,191,39167,1,0,0:0:0:0:
256,191,39261,1,0,0:0:0:0:
256,191,39355,1,0,0:0:0:0:
256,191,39542,1,0,0:0:0:0:
256,191,39730,1,2,0:0:0:0:
256,191,40105,1,6,0:0:0:0:
256,191,40480,1,2,0:0:0:0:
256,191,40667,1,0,0:0:0:0:
256,191,40761,1,0,0:0:0:0:
256,191,40855,1,2,0:0:0:0:
256,191,41042,1,0,0:0:0:0:
256,191,41230,1,2,0:0:0:0:
256,191,41417,1,0,0:0:0:0:
256,191,41511,1,2,0:0:0:0:
256,191,41698,1,0,0:0:0:0:
256,191,41792,1,2,0:0:0:0:
256,191,41980,1,0,0:0:0:0:
256,191,42073,1,0,0:0:0:0:
256,191,42167,1,2,0:0:0:0:
256,191,42261,1,2,0:0:0:0:
256,191,42355,1,0,0:0:0:0:
256,191,42542,1,2,0:0:0:0:
256,191,42636,1,2,0:0:0:0:
256,191,42730,1,0,0:0:0:0:
256,191,42823,1,2,0:0:0:0:
256,191,43011,1,2,0:0:0:0:
256,191,43105,1,0,0:0:0:0:
256,191,43292,1,2,0:0:0:0:
256,191,43480,1,4,0:0:0:0:
256,191,43667,1,2,0:0:0:0:
256,191,43761,1,2,0:0:0:0:
256,191,43855,1,0,0:0:0:0:
256,191,44042,1,2,0:0:0:0:
256,191,44136,1,2,0:0:0:0:
256,191,44230,1,0,0:0:0:0:
256,191,44323,1,2,0:0:0:0:
256,191,44417,1,0,0:0:0:0:
256,191,44605,1,2,0:0:0:0:
256,191,44792,1,0,0:0:0:0:
256,191,44980,1,0,0:0:0:0:
256,191,45167,1,2,0:0:0:0:
256,191,45261,1,2,0:0:0:0:
256,191,45355,1,0,0:0:0:0:
256,191,45542,1,2,0:0:0:0:
256,191,45636,1,2,0:0:0:0:
256,191,45730,1,0,0:0:0:0:
256,191,45823,1,0,0:0:0:0:
256,191,45917,1,2,0:0:0:0:
256,191,46105,1,6,0:0:0:0:
256,191,46292,1,2,0:0:0:0:
256,191,46480,1,0,0:0:0:0:
256,191,46667,1,0,0:0:0:0:
256,191,46855,1,2,0:0:0:0:
256,191,47042,1,2,0:0:0:0:
256,191,47230,1,0,0:0:0:0:
256,191,47323,1,2,0:0:0:0:
256,191,47417,1,2,0:0:0:0:
256,191,47511,1,2,0:0:0:0:
256,191,47605,1,0,0:0:0:0:
256,191,47698,1,2,0:0:0:0:
256,191,47792,1,2,0:0:0:0:
256,191,47886,1,2,0:0:0:0:
256,191,47980,1,0,0:0:0:0:
256,191,48355,1,2,0:0:0:0:
256,191,48542,1,0,0:0:0:0:
256,191,48605,1,0,0:0:0:0:
256,191,48667,1,0,0:0:0:0:
256,191,48730,1,2,0:0:0:0:
256,191,48917,1,0,0:0:0:0:
256,191,49011,1,2,0:0:0:0:
256,191,49105,1,2,0:0:0:0:
256,191,49292,1,2,0:0:0:0:
256,191,49480,1,4,0:0:0:0:
256,191,49667,1,2,0:0:0:0:
256,191,49855,1,2,0:0:0:0:
256,191,50042,1,0,0:0:0:0:
256,191,50230,1,2,0:0:0:0:
256,191,50417,1,2,0:0:0:0:
256,191,50511,1,2,0:0:0:0:
256,191,50605,1,2,0:0:0:0:
256,191,50792,1,2,0:0:0:0:
256,191,50886,1,2,0:0:0:0:
256,191,50980,1,0,0:0:0:0:
256,191,51167,1,0,0:0:0:0:
256,191,51355,1,2,0:0:0:0:
256,191,51730,1,2,0:0:0:0:
256,191,51917,1,0,0:0:0:0:
256,191,52011,1,2,0:0:0:0:
256,191,52105,1,0,0:0:0:0:
256,191,52292,1,2,0:0:0:0:
256,191,52667,1,8,0:0:0:0:
256,191,52855,1,2,0:0:0:0:
256,191,53042,1,0,0:0:0:0:
256,191,53230,1,2,0:0:0:0:
256,191,53417,1,0,0:0:0:0:
256,191,53605,1,2,0:0:0:0:
256,191,53792,1,0,0:0:0:0:
256,191,53886,1,0,0:0:0:0:
256,191,53980,1,2,0:0:0:0:
256,191,54167,1,2,0:0:0:0:
256,191,54355,1,0,0:0:0:0:
256,191,54542,1,2,0:0:0:0:
256,191,54730,1,0,0:0:0:0:
256,191,54917,1,2,0:0:0:0:
256,191,55011,1,0,0:0:0:0:
256,191,55105,1,0,0:0:0:0:
256,191,55292,1,2,0:0:0:0:
256,191,55386,1,2,0:0:0:0:
256,191,55480,1,0,0:0:0:0:
256,191,55573,1,0,0:0:0:0:
256,191,55667,1,2,0:0:0:0:
256,191,55761,1,0,0:0:0:0:
256,191,55855,1,2,0:0:0:0:
256,191,55948,1,2,0:0:0:0:
256,191,56042,1,0,0:0:0:0:
256,191,56230,1,0,0:0:0:0:
256,191,56323,1,0,0:0:0:0:
256,191,56417,1,2,0:0:0:0:
256,191,56511,1,0,0:0:0:0:
256,191,56605,1,2,0:0:0:0:
256,191,56698,1,0,0:0:0:0:
256,191,56792,1,0,0:0:0:0:
256,191,56980,1,0,0:0:0:0:
256,191,57073,1,0,0:0:0:0:
256,191,57167,1,2,0:0:0:0:
256,191,57261,1,0,0:0:0:0:
256,191,57355,1,0,0:0:0:0:
256,191,57448,1,2,0:0:0:0:
256,191,57542,1,2,0:0:0:0:
256,191,57636,1,0,0:0:0:0:
256,191,57730,1,2,0:0:0:0:
256,191,57823,1,2,0:0:0:0:
256,191,57917,1,0,0:0:0:0:
256,191,58011,1,0,0:0:0:0:
256,191,58105,1,2,0:0:0:0:
256,191,58292,1,0,0:0:0:0:
256,191,58480,1,6,0:0:0:0:
256,191,58855,1,6,0:0:0:0:
256,191,59230,1,4,0:0:0:0:
256,191,59511,1,4,0:0:0:0:
256,191,59792,1,4,0:0:0:0:
256,191,60167,1,2,0:0:0:0:
256,191,60230,1,2,0:0:0:0:
256,191,60292,1,2,0:0:0:0:
256,191,60355,1,2,0:0:0:0:
256,191,60542,1,2,0:0:0:0:
256,191,60636,1,2,0:0:0:0:
256,191,60730,1,0,0:0:0:0:
256,191,60823,1,0,0:0:0:0:
256,191,61011,1,0,0:0:0:0:
256,191,61105,1,2,0:0:0:0:
256,191,61292,1,2,0:0:0:0:
256,191,61480,1,4,0:0:0:0:
256,191,61667,1,8,0:0:0:0:
256,191,61855,1,0,0:0:0:0:
256,191,61948,1,0,0:0:0:0:
256,191,62042,1,0,0:0:0:0:
256,191,62105,1,0,0:0:0:0:
256,191,62167,1,0,0:0:0:0:
256,191,62230,1,2,0:0:0:0:
256,191,62417,1,0,0:0:0:0:
256,191,62511,1,2,0:0:0:0:
256,191,62698,1,0,0:0:0:0:
256,191,62792,1,2,0:0:0:0:
256,191,62980,1,0,0:0:0:0:
256,191,63073,1,0,0:0:0:0:
256,191,63167,1,2,0:0:0:0:
256,191,63355,1,2,0:0:0:0:
256,191,63448,1,2,0:0:0:0:
256,191,63542,1,0,0:0:0:0:
256,191,63605,1,0,0:0:0:0:
256,191,63667,1,0,0:0:0:0:
256,191,63730,1,2,0:0:0:0:
256,191,63917,1,0,0:0:0:0:
256,191,64011,1,2,0:0:0:0:
256,191,64198,1,0,0:0:0:0:
256,191,64292,1,2,0:0:0:0:
256,191,64386,1,0,0:0:0:0:
256,191,64480,1,0,0:0:0:0:
256,191,64667,1,2,0:0:0:0:
256,191,64855,1,0,0:0:0:0:
256,191,64917,1,0,0:0:0:0:
256,191,64980,1,0,0:0:0:0:
256,191,65042,1,2,0:0:0:0:
256,191,65136,1,2,0:0:0:0:
256,191,65230,1,2,0:0:0:0:
256,191,65417,1,0,0:0:0:0:
256,191,65511,1,2,0:0:0:0:
256,191,65698,1,0,0:0:0:0:
256,191,65792,1,2,0:0:0:0:
256,191,65980,1,2,0:0:0:0:
256,191,66073,1,0,0:0:0:0:
256,191,66167,1,2,0:0:0:0:
256,191,66355,1,0,0:0:0:0:
256,191,66542,1,0,0:0:0:0:
256,191,66605,1,0,0:0:0:0:
256,191,66667,1,0,0:0:0:0:
256,191,66730,1,2,0:0:0:0:
256,191,66823,1,0,0:0:0:0:
256,191,66917,1,0,0:0:0:0:
256,191,67011,1,2,0:0:0:0:
256,191,67105,1,0,0:0:0:0:
256,191,67198,1,0,0:0:0:0:
256,191,67292,1,2,0:0:0:0:
256,191,67386,1,2,0:0:0:0:
256,191,67480,1,0,0:0:0:0:
256,191,67855,1,2,0:0:0:0:
256,191,67917,1,2,0:0:0:0:
256,191,67980,1,2,0:0:0:0:
256,191,68042,1,0,0:0:0:0:
256,191,68105,1,0,0:0:0:0:
256,191,68167,1,0,0:0:0:0:
256,191,68230,1,2,0:0:0:0:
256,191,68417,1,0,0:0:0:0:
256,191,68511,1,2,0:0:0:0:
256,191,68698,1,0,0:0:0:0:
256,191,68792,1,2,0:0:0:0:
256,191,68980,1,2,0:0:0:0:
256,191,69073,1,0,0:0:0:0:
256,191,69167,1,2,0:0:0:0:
256,191,69355,1,0,0:0:0:0:
256,191,69448,1,0,0:0:0:0:
256,191,69542,1,0,0:0:0:0:
256,191,69605,1,0,0:0:0:0:
256,191,69667,1,0,0:0:0:0:
256,191,69730,1,2,0:0:0:0:
256,191,69823,1,0,0:0:0:0:
256,191,70011,1,0,0:0:0:0:
256,191,70105,1,2,0:0:0:0:
256,191,70292,1,0,0:0:0:0:
256,191,70480,1,0,0:0:0:0:
256,191,70542,1,0,0:0:0:0:
256,191,70605,1,0,0:0:0:0:
256,191,70667,1,2,0:0:0:0:
256,191,70761,1,0,0:0:0:0:
256,191,70855,1,0,0:0:0:0:
256,191,70948,1,0,0:0:0:0:
256,191,71042,1,2,0:0:0:0:
256,191,71105,1,0,0:0:0:0:
256,191,71167,1,0,0:0:0:0:
256,191,71230,1,2,0:0:0:0:
256,191,71417,1,0,0:0:0:0:
256,191,71511,1,2,0:0:0:0:
256,191,71605,1,0,0:0:0:0:
256,191,71792,1,0,0:0:0:0:
256,191,71980,1,2,0:0:0:0:
256,191,72073,1,2,0:0:0:0:
256,191,72167,1,0,0:0:0:0:
256,191,72261,1,0,0:0:0:0:
256,191,72355,1,2,0:0:0:0:
256,191,72448,1,0,0:0:0:0:
256,191,72542,1,0,0:0:0:0:
256,191,72636,1,0,0:0:0:0:
256,191,72730,1,2,0:0:0:0:
256,191,72917,1,0,0:0:0:0:
256,191,73011,1,2,0:0:0:0:
256,191,73105,1,0,0:0:0:0:
256,191,73292,1,2,0:0:0:0:
256,191,73480,1,4,0:0:0:0:
256,191,73667,1,2,0:0:0:0:
256,191,73855,1,0,0:0:0:0:
256,191,74042,1,2,0:0:0:0:
256,191,74136,1,2,0:0:0:0:
256,191,74230,1,2,0:0:0:0:
256,191,74417,1,0,0:0:0:0:
256,191,74605,1,0,0:0:0:0:
256,191,74792,1,2,0:0:0:0:
256,191,74980,1,0,0:0:0:0:
256,191,75167,1,2,0:0:0:0:
256,191,75261,1,2,0:0:0:0:
256,191,75355,1,0,0:0:0:0:
256,191,75448,1,2,0:0:0:0:
256,191,75636,1,2,0:0:0:0:
256,191,75730,1,0,0:0:0:0:
256,191,75823,1,0,0:0:0:0:
256,191,75917,1,0,0:0:0:0:
256,191,76011,1,2,0:0:0:0:
256,191,76198,1,0,0:0:0:0:
256,191,76292,1,0,0:0:0:0:
256,191,76480,1,6,0:0:0:0:
256,191,76855,1,2,0:0:0:0:
256,191,77042,1,2,0:0:0:0:
256,191,77136,1,0,0:0:0:0:
256,191,77230,1,2,0:0:0:0:
256,191,77417,1,0,0:0:0:0:
256,191,77605,1,2,0:0:0:0:
256,191,77792,1,0,0:0:0:0:
256,191,77980,1,2,0:0:0:0:
256,191,78073,1,2,0:0:0:0:
256,191,78167,1,0,0:0:0:0:
256,191,78355,1,2,0:0:0:0:
256,191,78542,1,0,0:0:0:0:
256,191,78730,1,0,0:0:0:0:
256,191,78823,1,2,0:0:0:0:
256,191,78917,1,0,0:0:0:0:
256,191,79011,1,0,0:0:0:0:
256,191,79105,1,2,0:0:0:0:
256,191,79292,1,2,0:0:0:0:
256,191,79480,1,0,0:0:0:0:
256,191,79667,1,2,0:0:0:0:
256,191,79855,1,0,0:0:0:0:
256,191,80042,1,2,0:0:0:0:
256,191,80136,1,0,0:0:0:0:
256,191,80323,1,0,0:0:0:0:
256,191,80417,1,2,0:0:0:0:
256,191,80605,1,2,0:0:0:0:
256,191,80792,1,0,0:0:0:0:
256,191,80886,1,0,0:0:0:0:
256,191,80980,1,2,0:0:0:0:
256,191,81167,1,0,0:0:0:0:
256,191,81355,1,2,0:0:0:0:
256,191,81542,1,0,0:0:0:0:
256,191,81636,1,2,0:0:0:0:
256,191,81730,1,2,0:0:0:0:
256,191,81823,1,2,0:0:0:0:
256,191,81917,1,0,0:0:0:0:
256,191,82105,1,2,0:0:0:0:
256,191,82292,1,0,0:0:0:0:
256,191,82480,1,0,0:0:0:0:
256,191,82667,1,2,0:0:0:0:
256,191,82855,1,0,0:0:0:0:
256,191,83042,1,2,0:0:0:0:
256,191,83136,1,2,0:0:0:0:
256,191,83230,1,0,0:0:0:0:
256,191,83323,1,2,0:0:0:0:
256,191,83417,1,2,0:0:0:0:
256,191,83511,1,2,0:0:0:0:
256,191,83605,1,0,0:0:0:0:
256,191,83698,1,0,0:0:0:0:
256,191,83792,1,2,0:0:0:0:
256,191,83980,1,4,0:0:0:0:
256,191,84730,1,0,0:0:0:0:
256,191,84823,1,0,0:0:0:0:
256,191,84917,1,0,0:0:0:0:
256,191,85011,1,0,0:0:0:0:
256,191,85105,1,2,0:0:0:0:
256,191,85292,1,2,0:0:0:0:
256,191,85480,1,4,0:0:0:0:
256,191,85667,1,2,0:0:0:0:
256,191,85761,1,0,0:0:0:0:
256,191,85948,1,2,0:0:0:0:
256,191,86042,1,0,0:0:0:0:
256,191,86230,1,2,0:0:0:0:
256,191,86417,1,0,0:0:0:0:
256,191,86511,1,0,0:0:0:0:
256,191,86605,1,2,0:0:0:0:
256,191,86792,1,0,0:0:0:0:
256,191,86980,1,2,0:0:0:0:
256,191,87073,1,2,0:0:0:0:
256,191,87167,1,0,0:0:0:0:
256,191,87261,1,0,0:0:0:0:
256,191,87355,1,2,0:0:0:0:
256,191,87542,1,0,0:0:0:0:
256,191,87730,1,2,0:0:0:0:
256,191,88105,1,6,0:0:0:0:
256,191,88480,1,2,0:0:0:0:
256,191,88667,1,0,0:0:0:0:
256,191,88761,1,2,0:0:0:0:
256,191,88948,1,0,0:0:0:0:
256,191,89042,1,2,0:0:0:0:
256,191,89230,1,2,0:0:0:0:
256,191,89417,1,2,0:0:0:0:
256,191,89511,1,0,0:0:0:0:
256,191,89605,1,2,0:0:0:0:
256,191,89792,1,0,0:0:0:0:
256,191,89980,1,0,0:0:0:0:
256,191,90073,1,0,0:0:0:0:
256,191,90167,1,2,0:0:0:0:
256,191,90261,1,2,0:0:0:0:
256,191,90355,1,0,0:0:0:0:
256,191,90542,1,0,0:0:0:0:
256,191,90730,1,0,0:0:0:0:
256,191,90823,1,0,0:0:0:0:
256,191,90917,1,2,0:0:0:0:
256,191,91105,1,2,0:0:0:0:
256,191,91198,1,2,0:0:0:0:
256,191,91292,1,2,0:0:0:0:
256,191,91386,1,2,0:0:0:0:
256,191,91480,1,0,0:0:0:0:
256,191,91667,1,2,0:0:0:0:
256,191,91761,1,2,0:0:0:0:
256,191,91855,1,2,0:0:0:0:
256,191,92042,1,2,0:0:0:0:
256,191,92230,1,0,0:0:0:0:
256,191,92323,1,0,0:0:0:0:
256,191,92417,1,2,0:0:0:0:
256,191,92511,1,0,0:0:0:0:
256,191,92698,1,0,0:0:0:0:
256,191,92792,1,2,0:0:0:0:
256,191,92886,1,2,0:0:0:0:
256,191,92980,1,0,0:0:0:0:
256,191,93167,1,0,0:0:0:0:
256,191,93261,1,2,0:0:0:0:
256,191,93448,1,2,0:0:0:0:
256,191,93542,1,2,0:0:0:0:
256,191,93730,1,0,0:0:0:0:
256,191,93823,1,0,0:0:0:0:
256,191,93917,1,2,0:0:0:0:
256,191,94011,1,0,0:0:0:0:
256,191,94105,1,0,0:0:0:0:
256,191,94292,1,2,0:0:0:0:
256,191,94386,1,2,0:0:0:0:
256,191,94480,1,0,0:0:0:0:
256,191,94667,1,2,0:0:0:0:
256,191,94761,1,2,0:0:0:0:
256,191,94855,1,2,0:0:0:0:
256,191,95042,1,2,0:0:0:0:
256,191,95136,1,0,0:0:0:0:
256,191,95230,1,0,0:0:0:0:
256,191,95323,1,2,0:0:0:0:
256,191,95511,1,2,0:0:0:0:
256,191,95698,1,2,0:0:0:0:
256,191,95792,1,0,0:0:0:0:
256,191,95980,1,0,0:0:0:0:
256,191,96042,1,0,0:0:0:0:
256,191,96105,1,0,0:0:0:0:
256,191,96167,1,0,0:0:0:0:
256,191,96355,1,2,0:0:0:0:
256,191,96448,1,0,0:0:0:0:
256,191,96542,1,0,0:0:0:0:
256,191,96636,1,2,0:0:0:0:
256,191,96730,1,0,0:0:0:0:
256,191,96823,1,0,0:0:0:0:
256,191,96917,1,0,0:0:0:0:
256,191,97011,1,0,0:0:0:0:
256,191,97105,1,2,0:0:0:0:
256,191,97292,1,2,0:0:0:0:
256,191,97480,1,4,0:0:0:0:
256,191,97667,1,2,0:0:0:0:
256,191,97761,1,0,0:0:0:0:
256,191,97948,1,2,0:0:0:0:
256,191,98042,1,0,0:0:0:0:
256,191,98230,1,2,0:0:0:0:
256,191,98417,1,0,0:0:0:0:
256,191,98511,1,2,0:0:0:0:
256,191,98605,1,2,0:0:0:0:
256,191,98792,1,0,0:0:0:0:
256,191,98980,1,2,0:0:0:0:
256,191,99073,1,2,0:0:0:0:
256,191,99167,1,0,0:0:0:0:
256,191,99261,1,0,0:0:0:0:
256,191,99355,1,2,0:0:0:0:
256,191,99542,1,0,0:0:0:0:
256,191,99730,1,2,0:0:0:0:
256,191,100105,1,6,0:0:0:0:
256,191,100480,1,2,0:0:0:0:
256,191,100667,1,0,0:0:0:0:
256,191,100761,1,2,0:0:0:0:
256,191,100948,1,0,0:0:0:0:
256,191,101042,1,2,0:0:0:0:
256,191,101230,1,2,0:0:0:0:
256,191,101417,1,0,0:0:0:0:
256,191,101511,1,0,0:0:0:0:
256,191,101605,1,2,0:0:0:0:
256,191,101792,1,0,0:0:0:0:
256,191,101980,1,2,0:0:0:0:
256,191,102074,1,2,0:0:0:0:
256,191,102168,1,0,0:0:0:0:
256,191,102261,1,0,0:0:0:0:
256,191,102355,1,2,0:0:0:0:
256,191,102542,1,0,0:0:0:0:
256,191,102730,1,0,0:0:0:0:
256,191,102823,1,0,0:0:0:0:
256,191,102917,1,2,0:0:0:0:
256,191,103105,1,2,0:0:0:0:
256,191,103198,1,2,0:0:0:0:
256,191,103292,1,2,0:0:0:0:
256,191,103386,1,2,0:0:0:0:
256,191,103480,1,0,0:0:0:0:
256,191,103667,1,2,0:0:0:0:
256,191,103761,1,2,0:0:0:0:
256,191,103855,1,2,0:0:0:0:
256,191,104042,1,2,0:0:0:0:
256,191,104230,1,0,0:0:0:0:
256,191,104323,1,0,0:0:0:0:
256,191,104417,1,2,0:0:0:0:
256,191,104511,1,2,0:0:0:0:
256,191,104605,1,0,0:0:0:0:
256,191,104792,1,0,0:0:0:0:
256,191,104886,1,0,0:0:0:0:
256,191,104980,1,2,0:0:0:0:
256,191,105167,1,0,0:0:0:0:
256,191,105261,1,2,0:0:0:0:
256,191,105355,1,2,0:0:0:0:
256,191,105542,1,0,0:0:0:0:
256,191,105730,1,2,0:0:0:0:
256,191,105823,1,2,0:0:0:0:
256,191,105917,1,0,0:0:0:0:
256,191,106011,1,0,0:0:0:0:
256,191,106105,1,2,0:0:0:0:
256,191,106292,1,2,0:0:0:0:
256,191,106386,1,2,0:0:0:0:
256,191,106480,1,0,0:0:0:0:
256,191,106667,1,2,0:0:0:0:
256,191,106855,1,2,0:0:0:0:
256,191,107042,1,2,0:0:0:0:
256,191,107230,1,0,0:0:0:0:
256,191,107323,1,2,0:0:0:0:
256,191,107417,1,2,0:0:0:0:
256,191,107511,1,2,0:0:0:0:
256,191,107605,1,0,0:0:0:0:
256,191,107698,1,2,0:0:0:0:
256,191,107792,1,2,0:0:0:0:
256,191,107980,1,4,0:0:0:0:
256,191,108355,1,2,0:0:0:0:
256,191,108542,1,0,0:0:0:0:
256,191,108605,1,0,0:0:0:0:
256,191,108667,1,0,0:0:0:0:
256,191,108730,1,0,0:0:0:0:
256,191,108917,1,0,0:0:0:0:
256,191,109011,1,2,0:0:0:0:
256,191,109105,1,0,0:0:0:0:
256,191,109198,1,0,0:0:0:0:
256,191,109292,1,2,0:0:0:0:
256,191,109480,1,4,0:0:0:0:
256,191,109667,1,2,0:0:0:0:
256,191,109761,1,2,0:0:0:0:
256,191,109855,1,2,0:0:0:0:
256,191,110042,1,0,0:0:0:0:
256,191,110230,1,2,0:0:0:0:
256,191,110417,1,0,0:0:0:0:
256,191,110511,1,2,0:0:0:0:
256,191,110605,1,2,0:0:0:0:
256,191,110792,1,0,0:0:0:0:
256,191,110980,1,2,0:0:0:0:
256,191,111167,1,0,0:0:0:0:
256,191,111261,1,0,0:0:0:0:
256,191,111355,1,0,0:0:0:0:
256,191,111542,1,0,0:0:0:0:
256,191,111730,1,2,0:0:0:0:
256,191,112105,1,6,0:0:0:0:
256,191,112480,1,2,0:0:0:0:
256,191,112667,1,0,0:0:0:0:
256,191,112761,1,0,0:0:0:0:
256,191,112855,1,2,0:0:0:0:
256,191,113042,1,0,0:0:0:0:
256,191,113230,1,2,0:0:0:0:
256,191,113417,1,0,0:0:0:0:
256,191,113511,1,2,0:0:0:0:
256,191,113698,1,0,0:0:0:0:
256,191,113792,1,2,0:0:0:0:
256,191,113980,1,0,0:0:0:0:
256,191,114073,1,0,0:0:0:0:
256,191,114167,1,2,0:0:0:0:
256,191,114261,1,2,0:0:0:0:
256,191,114355,1,0,0:0:0:0:
256,191,114542,1,2,0:0:0:0:
256,191,114636,1,2,0:0:0:0:
256,191,114730,1,0,0:0:0:0:
256,191,114823,1,2,0:0:0:0:
256,191,115011,1,2,0:0:0:0:
256,191,115105,1,0,0:0:0:0:
256,191,115292,1,2,0:0:0:0:
256,191,115480,1,4,0:0:0:0:
256,191,115667,1,2,0:0:0:0:
256,191,115761,1,2,0:0:0:0:
256,191,115855,1,2,0:0:0:0:
256,191,116042,1,2,0:0:0:0:
256,191,116230,1,0,0:0:0:0:
256,191,116417,1,2,0:0:0:0:
256,191,116511,1,2,0:0:0:0:
256,191,116698,1,0,0:0:0:0:
256,191,116792,1,2,0:0:0:0:
256,191,116980,1,2,0:0:0:0:
256,191,117167,1,2,0:0:0:0:
256,191,117261,1,0,0:0:0:0:
256,191,117355,1,2,0:0:0:0:
256,191,117542,1,0,0:0:0:0:
256,191,117730,1,2,0:0:0:0:
256,191,118105,1,6,0:0:0:0:
256,191,118480,1,0,0:0:0:0:
256,191,118667,1,0,0:0:0:0:
256,191,118761,1,2,0:0:0:0:
256,191,118855,1,2,0:0:0:0:
256,191,119042,1,2,0:0:0:0:
256,191,119230,1,2,0:0:0:0:
256,191,119417,1,2,0:0:0:0:
256,191,119511,1,2,0:0:0:0:
256,191,119698,1,2,0:0:0:0:
256,191,119792,1,0,0:0:0:0:
256,191,119980,1,0,0:0:0:0:
256,191,120073,1,0,0:0:0:0:
256,191,120167,1,0,0:0:0:0:
256,191,120355,1,2,0:0:0:0:
256,191,120448,1,0,0:0:0:0:
256,191,120542,1,0,0:0:0:0:
256,191,120636,1,2,0:0:0:0:
256,191,120730,1,0,0:0:0:0:
256,191,120823,1,0,0:0:0:0:
256,191,120917,1,0,0:0:0:0:
256,191,121011,1,0,0:0:0:0:
256,191,121105,1,2,0:0:0:0:
256,191,121292,1,2,0:0:0:0:
256,191,121480,1,4,0:0:0:0:
256,191,121761,1,6,0:0:0:0:
256,191,122042,1,4,0:0:0:0:
256,191,122323,1,6,0:0:0:0:
256,191,122605,1,4,0:0:0:0:
256,191,122886,1,6,0:0:0:0:
256,191,123167,1,4,0:0:0:0:
256,191,123730,1,2,0:0:0:0:
256,191,123823,1,2,0:0:0:0:
256,191,124011,1,2,0:0:0:0:
256,191,124105,1,0,0:0:0:0:
256,191,124198,1,0,0:0:0:0:
256,191,124292,1,0,0:0:0:0:
256,191,124480,1,4,0:0:0:0:
256,191,124667,1,2,0:0:0:0:
256,191,124855,1,0,0:0:0:0:
256,191,125042,1,2,0:0:0:0:
256,191,125136,1,2,0:0:0:0:
256,191,125230,1,0,0:0:0:0:
256,191,125323,1,0,0:0:0:0:
256,191,125417,1,2,0:0:0:0:
256,191,125511,1,0,0:0:0:0:
256,191,125792,1,2,0:0:0:0:
256,191,125886,1,0,0:0:0:0:
256,191,125980,1,0,0:0:0:0:
256,191,126073,1,2,0:0:0:0:
256,191,126167,1,2,0:0:0:0:
256,191,126261,1,0,0:0:0:0:
256,191,126355,1,0,0:0:0:0:
256,191,126448,1,2,0:0:0:0:
256,191,126542,1,0,0:0:0:0:
256,191,126636,1,2,0:0:0:0:
256,191,126730,1,0,0:0:0:0:
256,191,126917,1,0,0:0:0:0:
256,191,127011,1,2,0:0:0:0:
256,191,127386,1,0,0:0:0:0:
256,191,127480,1,8,0:0:0:0:
256,191,127573,1,2,0:0:0:0:
256,191,127667,1,2,0:0:0:0:
256,191,127761,1,0,0:0:0:0:
256,191,127855,1,2,0:0:0:0:
256,191,128136,1,0,0:0:0:0:
256,191,128230,1,0,0:0:0:0:
256,191,128323,1,2,0:0:0:0:
256,191,128417,1,2,0:0:0:0:
256,191,128511,1,0,0:0:0:0:
256,191,128605,1,2,0:0:0:0:
256,191,128980,1,0,0:0:0:0:
256,191,129167,1,2,0:0:0:0:
256,191,129261,1,2,0:0:0:0:
256,191,129355,1,0,0:0:0:0:
256,191,129542,1,2,0:0:0:0:
256,191,129730,1,0,0:0:0:0:
256,191,129823,1,2,0:0:0:0:
256,191,129917,1,2,0:0:0:0:
256,191,130011,1,2,0:0:0:0:
256,191,130105,1,0,0:0:0:0:
256,191,130292,1,2,0:0:0:0:
256,191,130386,1,2,0:0:0:0:
256,191,130480,1,0,0:0:0:0:
256,191,130573,1,0,0:0:0:0:
256,191,130667,1,2,0:0:0:0:
256,191,130761,1,0,0:0:0:0:
256,191,130855,1,2,0:0:0:0:
256,191,130948,1,2,0:0:0:0:
256,191,131042,1,0,0:0:0:0:
256,191,131136,1,2,0:0:0:0:
256,191,131230,1,0,0:0:0:0:
256,191,131417,1,2,0:0:0:0:
256,191,131605,1,0,0:0:0:0:
256,191,131886,1,2,0:0:0:0:
256,191,131980,1,0,0:0:0:0:
256,191,132073,1,0,0:0:0:0:
256,191,132167,1,2,0:0:0:0:
256,191,132261,1,0,0:0:0:0:
256,191,132355,1,2,0:0:0:0:
256,191,132448,1,2,0:0:0:0:
256,191,132542,1,0,0:0:0:0:
256,191,132636,1,2,0:0:0:0:
256,191,132730,1,0,0:0:0:0:
256,191,132917,1,2,0:0:0:0:
256,191,133105,1,0,0:0:0:0:
256,191,133386,1,2,0:0:0:0:
256,191,133480,1,0,0:0:0:0:
256,191,133667,1,0,0:0:0:0:
256,191,133855,1,2,0:0:0:0:
256,191,134136,1,0,0:0:0:0:
256,191,134230,1,2,0:0:0:0:
256,191,134323,1,2,0:0:0:0:
256,191,134417,1,0,0:0:0:0:
256,191,134605,1,2,0:0:0:0:
256,191,134980,1,0,0:0:0:0:
256,191,135167,1,2,0:0:0:0:
256,191,135230,1,2,0:0:0:0:
256,191,135292,1,2,0:0:0:0:
256,191,135355,1,2,0:0:0:0:
256,191,135542,1,2,0:0:0:0:
256,191,135636,1,0,0:0:0:0:
256,191,135730,1,0,0:0:0:0:
256,191,135823,1,2,0:0:0:0:
256,191,135917,1,0,0:0:0:0:
256,191,135980,1,0,0:0:0:0:
256,191,136042,1,0,0:0:0:0:
256,191,136105,1,2,0:0:0:0:
256,191,136198,1,2,0:0:0:0:
256,191,136292,1,0,0:0:0:0:
256,191,136355,1,2,0:0:0:0:
256,191,136417,1,2,0:0:0:0:
256,191,136480,1,0,0:0:0:0:
256,191,136667,1,2,0:0:0:0:
256,191,136855,1,0,0:0:0:0:
256,191,136948,1,0,0:0:0:0:
256,191,137042,1,0,0:0:0:0:
256,191,137105,1,0,0:0:0:0:
256,191,137167,1,0,0:0:0:0:
256,191,137230,1,2,0:0:0:0:
256,191,137417,1,0,0:0:0:0:
256,191,137511,1,2,0:0:0:0:
256,191,137698,1,0,0:0:0:0:
256,191,137792,1,2,0:0:0:0:
256,191,137980,1,0,0:0:0:0:
256,191,138073,1,0,0:0:0:0:
256,191,138167,1,2,0:0:0:0:
256,191,138355,1,2,0:0:0:0:
256,191,138448,1,2,0:0:0:0:
256,191,138542,1,0,0:0:0:0:
256,191,138605,1,0,0:0:0:0:
256,191,138667,1,0,0:0:0:0:
256,191,138730,1,2,0:0:0:0:
256,191,138917,1,0,0:0:0:0:
256,191,139011,1,2,0:0:0:0:
256,191,139198,1,0,0:0:0:0:
256,191,139292,1,2,0:0:0:0:
256,191,139386,1,0,0:0:0:0:
256,191,139480,1,0,0:0:0:0:
256,191,139667,1,2,0:0:0:0:
256,191,139855,1,0,0:0:0:0:
256,191,139917,1,0,0:0:0:0:
256,191,139980,1,0,0:0:0:0:
256,191,140042,1,2,0:0:0:0:
256,191,140136,1,2,0:0:0:0:
256,191,140230,1,2,0:0:0:0:
256,191,140417,1,0,0:0:0:0:
256,191,140511,1,2,0:0:0:0:
256,191,140698,1,0,0:0:0:0:
256,191,140792,1,2,0:0:0:0:
256,191,140980,1,2,0:0:0:0:
256,191,141073,1,0,0:0:0:0:
256,191,141167,1,2,0:0:0:0:
256,191,141355,1,0,0:0:0:0:
256,191,141542,1,0,0:0:0:0:
256,191,141605,1,0,0:0:0:0:
256,191,141667,1,0,0:0:0:0:
256,191,141730,1,2,0:0:0:0:
256,191,141823,1,0,0:0:0:0:
256,191,141917,1,0,0:0:0:0:
256,191,142011,1,2,0:0:0:0:
256,191,142105,1,0,0:0:0:0:
256,191,142198,1,0,0:0:0:0:
256,191,142292,1,2,0:0:0:0:
256,191,142386,1,2,0:0:0:0:
256,191,142480,1,0,0:0:0:0:
256,191,142855,1,2,0:0:0:0:
256,191,142917,1,2,0:0:0:0:
256,191,142980,1,2,0:0:0:0:
256,191,143042,1,0,0:0:0:0:
256,191,143105,1,0,0:0:0:0:
256,191,143167,1,0,0:0:0:0:
256,191,143230,1,2,0:0:0:0:
256,191,143417,1,0,0:0:0:0:
256,191,143511,1,2,0:0:0:0:
256,191,143698,1,0,0:0:0:0:
256,191,143792,1,2,0:0:0:0:
256,191,143980,1,2,0:0:0:0:
256,191,144073,1,0,0:0:0:0:
256,191,144167,1,2,0:0:0:0:
256,191,144355,1,0,0:0:0:0:
256,191,144448,1,0,0:0:0:0:
256,191,144542,1,0,0:0:0:0:
256,191,144605,1,0,0:0:0:0:
256,191,144667,1,0,0:0:0:0:
256,191,144730,1,2,0:0:0:0:
256,191,144823,1,0,0:0:0:0:
256,191,145011,1,0,0:0:0:0:
256,191,145105,1,2,0:0:0:0:
256,191,145292,1,0,0:0:0:0:
256,191,145480,1,0,0:0:0:0:
256,191,145542,1,0,0:0:0:0:
256,191,145605,1,0,0:0:0:0:
256,191,145667,1,2,0:0:0:0:
256,191,145761,1,0,0:0:0:0:
256,191,145855,1,0,0:0:0:0:
256,191,145948,1,0,0:0:0:0:
256,191,146042,1,2,0:0:0:0:
256,191,146105,1,0,0:0:0:0:
256,191,146167,1,0,0:0:0:0:
256,191,146230,1,2,0:0:0:0:
256,191,146417,1,0,0:0:0:0:
256,191,146511,1,2,0:0:0:0:
256,191,146605,1,0,0:0:0:0:
256,191,146792,1,0,0:0:0:0:
256,191,146980,1,0,0:0:0:0:
256,191,147073,1,0,0:0:0:0:
256,191,147167,1,2,0:0:0:0:
256,191,147261,1,2,0:0:0:0:
256,191,147355,1,0,0:0:0:0:
256,191,147448,1,2,0:0:0:0:
256,191,147542,1,2,0:0:0:0:
256,191,147636,1,2,0:0:0:0:
256,191,147730,1,0,0:0:0:0:
256,191,147792,1,0,0:0:0:0:
256,191,147855,1,0,0:0:0:0:
256,191,147917,1,0,0:0:0:0:
256,191,148011,1,2,0:0:0:0:
256,191,148105,1,0,0:0:0:0:
256,191,148292,1,2,0:0:0:0:
256,191,148480,1,4,0:0:0:0:
256,191,148667,1,2,0:0:0:0:
256,191,148855,1,0,0:0:0:0:
256,191,149042,1,2,0:0:0:0:
256,191,149136,1,2,0:0:0:0:
256,191,149230,1,2,0:0:0:0:
256,191,149417,1,0,0:0:0:0:
256,191,149605,1,0,0:0:0:0:
256,191,149792,1,2,0:0:0:0:
256,191,149980,1,0,0:0:0:0:
256,191,150167,1,2,0:0:0:0:
256,191,150261,1,2,0:0:0:0:
256,191,150355,1,0,0:0:0:0:
256,191,150448,1,2,0:0:0:0:
256,191,150636,1,2,0:0:0:0:
256,191,150730,1,0,0:0:0:0:
256,191,150823,1,0,0:0:0:0:
256,191,150917,1,0,0:0:0:0:
256,191,151011,1,2,0:0:0:0:
256,191,151198,1,0,0:0:0:0:
256,191,151292,1,0,0:0:0:0:
256,191,151480,1,6,0:0:0:0:
256,191,151855,1,2,0:0:0:0:
256,191,152042,1,2,0:0:0:0:
256,191,152136,1,0,0:0:0:0:
256,191,152230,1,2,0:0:0:0:
256,191,152417,1,0,0:0:0:0:
256,191,152605,1,2,0:0:0:0:
256,191,152792,1,0,0:0:0:0:
256,191,152980,1,2,0:0:0:0:
256,191,153073,1,2,0:0:0:0:
256,191,153167,1,0,0:0:0:0:
256,191,153355,1,2,0:0:0:0:
256,191,153542,1,0,0:0:0:0:
256,191,153730,1,0,0:0:0:0:
256,191,153823,1,2,0:0:0:0:
256,191,153917,1,0,0:0:0:0:
256,191,154011,1,0,0:0:0:0:
256,191,154105,1,2,0:0:0:0:
256,191,154292,1,2,0:0:0:0:
256,191,154480,1,0,0:0:0:0:
256,191,154667,1,2,0:0:0:0:
256,191,154855,1,0,0:0:0:0:
256,191,155042,1,2,0:0:0:0:
256,191,155136,1,0,0:0:0:0:
256,191,155323,1,0,0:0:0:0:
256,191,155417,1,2,0:0:0:0:
256,191,155605,1,2,0:0:0:0:
256,191,155792,1,0,0:0:0:0:
256,191,155886,1,0,0:0:0:0:
256,191,155980,1,2,0:0:0:0:
256,191,156167,1,0,0:0:0:0:
256,191,156355,1,2,0:0:0:0:
256,191,156542,1,0,0:0:0:0:
256,191,156636,1,2,0:0:0:0:
256,191,156730,1,2,0:0:0:0:
256,191,156823,1,2,0:0:0:0:
256,191,156917,1,0,0:0:0:0:
256,191,157105,1,2,0:0:0:0:
256,191,157292,1,0,0:0:0:0:
256,191,157480,1,0,0:0:0:0:
256,191,157667,1,2,0:0:0:0:
256,191,157855,1,0,0:0:0:0:
256,191,158042,1,2,0:0:0:0:
256,191,158136,1,2,0:0:0:0:
256,191,158230,1,0,0:0:0:0:
256,191,158323,1,2,0:0:0:0:
256,191,158417,1,2,0:0:0:0:
256,191,158511,1,2,0:0:0:0:
256,191,158605,1,0,0:0:0:0:
256,191,158698,1,0,0:0:0:0:
256,191,158792,1,2,0:0:0:0:
256,191,158980,1,4,0:0:0:0:
256,191,159730,1,0,0:0:0:0:
256,191,159823,1,0,0:0:0:0:
256,191,159917,1,0,0:0:0:0:
256,191,160011,1,0,0:0:0:0:
256,191,160105,1,2,0:0:0:0:
256,191,160292,1,2,0:0:0:0:
256,191,160480,1,4,0:0:0:0:
256,191,160667,1,2,0:0:0:0:
256,191,160761,1,0,0:0:0:0:
256,191,160948,1,2,0:0:0:0:
256,191,161042,1,0,0:0:0:0:
256,191,161230,1,2,0:0:0:0:
256,191,161417,1,0,0:0:0:0:
256,191,161511,1,0,0:0:0:0:
256,191,161605,1,2,0:0:0:0:
256,191,161792,1,0,0:0:0:0:
256,191,161980,1,2,0:0:0:0:
256,191,162073,1,2,0:0:0:0:
256,191,162167,1,0,0:0:0:0:
256,191,162261,1,0,0:0:0:0:
256,191,162355,1,2,0:0:0:0:
256,191,162542,1,0,0:0:0:0:
256,191,162730,1,2,0:0:0:0:
256,191,163105,1,6,0:0:0:0:
256,191,163480,1,2,0:0:0:0:
256,191,163667,1,0,0:0:0:0:
256,191,163761,1,2,0:0:0:0:
256,191,163948,1,0,0:0:0:0:
256,191,164042,1,2,0:0:0:0:
256,191,164230,1,2,0:0:0:0:
256,191,164417,1,2,0:0:0:0:
256,191,164511,1,0,0:0:0:0:
256,191,164605,1,2,0:0:0:0:
256,191,164792,1,0,0:0:0:0:
256,191,164980,1,0,0:0:0:0:
256,191,165073,1,0,0:0:0:0:
256,191,165167,1,2,0:0:0:0:
256,191,165261,1,2,0:0:0:0:
256,191,165355,1,0,0:0:0:0:
256,191,165542,1,0,0:0:0:0:
256,191,165730,1,0,0:0:0:0:
256,191,165823,1,0,0:0:0:0:
256,191,165917,1,2,0:0:0:0:
256,191,166105,1,2,0:0:0:0:
256,191,166198,1,2,0:0:0:0:
256,191,166292,1,0,0:0:0:0:
256,191,166386,1,2,0:0:0:0:
256,191,166480,1,0,0:0:0:0:
256,191,166667,1,2,0:0:0:0:
256,191,166761,1,2,0:0:0:0:
256,191,166855,1,2,0:0:0:0:
256,191,167042,1,2,0:0:0:0:
256,191,167230,1,0,0:0:0:0:
256,191,167323,1,0,0:0:0:0:
256,191,167417,1,2,0:0:0:0:
256,191,167511,1,0,0:0:0:0:
256,191,167698,1,0,0:0:0:0:
256,191,167792,1,2,0:0:0:0:
256,191,167886,1,0,0:0:0:0:
256,191,167980,1,2,0:0:0:0:
256,191,168167,1,2,0:0:0:0:
256,191,168261,1,2,0:0:0:0:
256,191,168448,1,0,0:0:0:0:
256,191,168542,1,2,0:0:0:0:
256,191,168730,1,0,0:0:0:0:
256,191,168823,1,0,0:0:0:0:
256,191,168917,1,2,0:0:0:0:
256,191,169011,1,0,0:0:0:0:
256,191,169105,1,0,0:0:0:0:
256,191,169292,1,2,0:0:0:0:
256,191,169386,1,2,0:0:0:0:
256,191,169480,1,0,0:0:0:0:
256,191,169667,1,2,0:0:0:0:
256,191,169761,1,2,0:0:0:0:
256,191,169855,1,2,0:0:0:0:
256,191,170042,1,2,0:0:0:0:
256,191,170136,1,0,0:0:0:0:
256,191,170230,1,0,0:0:0:0:
256,191,170323,1,2,0:0:0:0:
256,191,170511,1,2,0:0:0:0:
256,191,170698,1,2,0:0:0:0:
256,191,170792,1,0,0:0:0:0:
256,191,170980,1,0,0:0:0:0:
256,191,171042,1,0,0:0:0:0:
256,191,171105,1,0,0:0:0:0:
256,191,171167,1,0,0:0:0:0:
256,191,171355,1,2,0:0:0:0:
256,191,171448,1,0,0:0:0:0:
256,191,171542,1,0,0:0:0:0:
256,191,171636,1,2,0:0:0:0:
256,191,171730,1,0,0:0:0:0:
256,191,171823,1,0,0:0:0:0:
256,191,171917,1,0,0:0:0:0:
256,191,172011,1,0,0:0:0:0:
256,191,172105,1,2,0:0:0:0:
256,191,172292,1,2,0:0:0:0:
256,191,172480,1,4,0:0:0:0:
256,191,172667,1,2,0:0:0:0:
256,191,172761,1,0,0:0:0:0:
256,191,172948,1,2,0:0:0:0:
256,191,173042,1,0,0:0:0:0:
256,191,173230,1,2,0:0:0:0:
256,191,173417,1,0,0:0:0:0:
256,191,173511,1,0,0:0:0:0:
256,191,173605,1,2,0:0:0:0:
256,191,173792,1,0,0:0:0:0:
256,191,173980,1,2,0:0:0:0:
256,191,174073,1,2,0:0:0:0:
256,191,174167,1,0,0:0:0:0:
256,191,174261,1,0,0:0:0:0:
256,191,174355,1,2,0:0:0:0:
256,191,174542,1,0,0:0:0:0:
256,191,174730,1,2,0:0:0:0:
256,191,175105,1,6,0:0:0:0:
256,191,175480,1,2,0:0:0:0:
256,191,175667,1,0,0:0:0:0:
256,191,175761,1,2,0:0:0:0:
256,191,175948,1,0,0:0:0:0:
256,191,176042,1,2,0:0:0:0:
256,191,176230,1,2,0:0:0:0:
256,191,176417,1,0,0:0:0:0:
256,191,176511,1,0,0:0:0:0:
256,191,176605,1,2,0:0:0:0:
256,191,176792,1,0,0:0:0:0:
256,191,176980,1,2,0:0:0:0:
256,191,177074,1,2,0:0:0:0:
256,191,177168,1,0,0:0:0:0:
256,191,177261,1,0,0:0:0:0:
256,191,177355,1,2,0:0:0:0:
256,191,177542,1,0,0:0:0:0:
256,191,177730,1,0,0:0:0:0:
256,191,177823,1,0,0:0:0:0:
256,191,177917,1,2,0:0:0:0:
256,191,178105,1,2,0:0:0:0:
256,191,178198,1,2,0:0:0:0:
256,191,178292,1,2,0:0:0:0:
256,191,178386,1,2,0:0:0:0:
256,191,178480,1,0,0:0:0:0:
256,191,178667,1,2,0:0:0:0:
256,191,178761,1,2,0:0:0:0:
256,191,178855,1,2,0:0:0:0:
256,191,179042,1,2,0:0:0:0:
256,191,179230,1,0,0:0:0:0:
256,191,179323,1,0,0:0:0:0:
256,191,179417,1,2,0:0:0:0:
256,191,179511,1,2,0:0:0:0:
256,191,179605,1,0,0:0:0:0:
256,191,179792,1,0,0:0:0:0:
256,191,179886,1,0,0:0:0:0:
256,191,179980,1,2,0:0:0:0:
256,191,180167,1,0,0:0:0:0:
256,191,180261,1,2,0:0:0:0:
256,191,180355,1,2,0:0:0:0:
256,191,180542,1,0,0:0:0:0:
256,191,180730,1,2,0:0:0:0:
256,191,180823,1,2,0:0:0:0:
256,191,180917,1,0,0:0:0:0:
256,191,181011,1,0,0:0:0:0:
256,191,181105,1,2,0:0:0:0:
256,191,181292,1,2,0:0:0:0:
256,191,181386,1,2,0:0:0:0:
256,191,181480,1,0,0:0:0:0:
256,191,181667,1,2,0:0:0:0:
256,191,181855,1,2,0:0:0:0:
256,191,182042,1,2,0:0:0:0:
256,191,182230,1,0,0:0:0:0:
256,191,182323,1,2,0:0:0:0:
256,191,182417,1,2,0:0:0:0:
256,191,182511,1,2,0:0:0:0:
256,191,182605,1,0,0:0:0:0:
256,191,182698,1,2,0:0:0:0:
256,191,182792,1,2,0:0:0:0:
256,191,182980,1,4,0:0:0:0:
256,191,183355,1,2,0:0:0:0:
256,191,183542,1,0,0:0:0:0:
256,191,183605,1,0,0:0:0:0:
256,191,183667,1,0,0:0:0:0:
256,191,183730,1,0,0:0:0:0:
256,191,183823,1,0,0:0:0:0:
256,191,184011,1,2,0:0:0:0:
256,191,184105,1,0,0:0:0:0:
256,191,184198,1,0,0:0:0:0:
256,191,184292,1,2,0:0:0:0:
256,191,184480,1,4,0:0:0:0:
256,191,184667,1,0,0:0:0:0:
256,191,184761,1,2,0:0:0:0:
256,191,184855,1,0,0:0:0:0:
256,191,185042,1,2,0:0:0:0:
256,191,185230,1,0,0:0:0:0:
256,191,185323,1,0,0:0:0:0:
256,191,185417,1,2,0:0:0:0:
256,191,185511,1,2,0:0:0:0:
256,191,185605,1,0,0:0:0:0:
256,191,185792,1,2,0:0:0:0:
256,191,185980,1,0,0:0:0:0:
256,191,186073,1,2,0:0:0:0:
256,191,186167,1,0,0:0:0:0:
256,191,186261,1,2,0:0:0:0:
256,191,186355,1,0,0:0:0:0:
256,191,186448,1,2,0:0:0:0:
256,191,186542,1,2,0:0:0:0:
256,191,186636,1,2,0:0:0:0:
256,191,186730,1,0,0:0:0:0:
256,191,186823,1,0,0:0:0:0:
256,191,186917,1,0,0:0:0:0:
256,191,187105,1,6,0:0:0:0:
256,191,187480,1,0,0:0:0:0:
256,191,187573,1,2,0:0:0:0:
256,191,187761,1,2,0:0:0:0:
256,191,187855,1,0,0:0:0:0:
256,191,188042,1,2,0:0:0:0:
256,191,188136,1,0,0:0:0:0:
256,191,188230,1,0,0:0:0:0:
256,191,188323,1,2,0:0:0:0:
256,191,188417,1,2,0:0:0:0:
256,191,188511,1,0,0:0:0:0:
256,191,188605,1,2,0:0:0:0:
256,191,188792,1,0,0:0:0:0:
256,191,188980,1,0,0:0:0:0:
256,191,189073,1,0,0:0:0:0:
256,191,189167,1,2,0:0:0:0:
256,191,189261,1,2,0:0:0:0:
256,191,189355,1,0,0:0:0:0:
256,191,189448,1,2,0:0:0:0:
256,191,189542,1,2,0:0:0:0:
256,191,189636,1,0,0:0:0:0:
256,191,189730,1,0,0:0:0:0:
256,191,189823,1,2,0:0:0:0:
256,191,189917,1,0,0:0:0:0:
256,191,190105,1,6,0:0:0:0:
256,191,190480,1,0,0:0:0:0:
256,191,190573,1,0,0:0:0:0:
256,191,190667,1,2,0:0:0:0:
256,191,190761,1,2,0:0:0:0:
256,191,190855,1,0,0:0:0:0:
256,191,190948,1,2,0:0:0:0:
256,191,191042,1,2,0:0:0:0:
256,191,191136,1,0,0:0:0:0:
256,191,191230,1,2,0:0:0:0:
256,191,191323,1,0,0:0:0:0:
256,191,191417,1,0,0:0:0:0:
256,191,191605,1,2,0:0:0:0:
256,191,191792,1,6,0:0:0:0:
256,191,191980,1,0,0:0:0:0:
256,191,192073,1,0,0:0:0:0:
256,191,192167,1,2,0:0:0:0:
256,191,192261,1,2,0:0:0:0:
256,191,192355,1,0,0:0:0:0:
256,191,192542,1,2,0:0:0:0:
256,191,192636,1,2,0:0:0:0:
256,191,192730,1,0,0:0:0:0:
256,191,192917,1,0,0:0:0:0:
256,191,193105,1,2,0:0:0:0:
256,191,193292,1,4,0:0:0:0:
256,191,193480,1,0,0:0:0:0:
256,191,193667,1,2,0:0:0:0:
256,191,193761,1,2,0:0:0:0:
256,191,193855,1,2,0:0:0:0:
256,191,194042,1,0,0:0:0:0:
256,191,194230,1,2,0:0:0:0:
256,191,194323,1,2,0:0:0:0:
256,191,194417,1,0,0:0:0:0:
256,191,194511,1,0,0:0:0:0:
256,191,194605,1,2,0:0:0:0:
256,191,194980,1,0,0:0:0:0:
256,191,195073,1,0,0:0:0:0:
256,191,195167,1,2,0:0:0:0:
256,191,195261,1,2,0:0:0:0:
256,191,195355,1,0,0:0:0:0:
256,191,195448,1,0,0:0:0:0:
256,191,195542,1,2,0:0:0:0:
256,191,195636,1,0,0:0:0:0:
256,191,195730,1,2,0:0:0:0:
256,191,195823,1,2,0:0:0:0:
256,191,195917,1,0,0:0:0:0:
256,191,196011,1,0,0:0:0:0:
256,191,196105,1,2,0:0:0:0:
256,191,196292,1,2,0:0:0:0:
256,191,196480,1,4,0:0:0:0:
256,191,196667,1,2,0:0:0:0:
256,191,196855,1,0,0:0:0:0:
256,191,197042,1,2,0:0:0:0:
256,191,197136,1,2,0:0:0:0:
256,191,197230,1,2,0:0:0:0:
256,191,197417,1,0,0:0:0:0:
256,191,197605,1,0,0:0:0:0:
256,191,197792,1,2,0:0:0:0:
256,191,197980,1,0,0:0:0:0:
256,191,198167,1,2,0:0:0:0:
256,191,198261,1,2,0:0:0:0:
256,191,198355,1,0,0:0:0:0:
256,191,198448,1,2,0:0:0:0:
256,191,198636,1,2,0:0:0:0:
256,191,198730,1,0,0:0:0:0:
256,191,198823,1,0,0:0:0:0:
256,191,198917,1,0,0:0:0:0:
256,191,199011,1,2,0:0:0:0:
256,191,199198,1,0,0:0:0:0:
256,191,199292,1,2,0:0:0:0:
256,191,199480,1,0,0:0:0:0:
256,191,199855,1,2,0:0:0:0:
256,191,200042,1,2,0:0:0:0:
256,191,200136,1,0,0:0:0:0:
256,191,200230,1,2,0:0:0:0:
256,191,200417,5,0,0:0:0:0:
256,191,200605,1,2,0:0:0:0:
256,191,200792,1,0,0:0:0:0:
256,191,200980,1,2,0:0:0:0:
256,191,201073,1,2,0:0:0:0:
256,191,201167,1,0,0:0:0:0:
256,191,201355,1,2,0:0:0:0:
256,191,201542,5,0,0:0:0:0:
256,191,201730,1,0,0:0:0:0:
256,191,201823,1,2,0:0:0:0:
256,191,201917,1,0,0:0:0:0:
256,191,202011,1,0,0:0:0:0:
256,191,202105,1,2,0:0:0:0:
256,191,202292,1,2,0:0:0:0:
256,191,202480,1,0,0:0:0:0:
256,191,202667,1,2,0:0:0:0:
256,191,202855,1,0,0:0:0:0:
256,191,203042,1,2,0:0:0:0:
256,191,203136,1,0,0:0:0:0:
256,191,203323,1,0,0:0:0:0:
256,191,203417,1,2,0:0:0:0:
256,191,203605,1,2,0:0:0:0:
256,191,203792,1,0,0:0:0:0:
256,191,203886,1,0,0:0:0:0:
256,191,203980,1,2,0:0:0:0:
256,191,204167,1,0,0:0:0:0:
256,191,204355,1,2,0:0:0:0:
256,191,204542,1,0,0:0:0:0:
256,191,204636,1,2,0:0:0:0:
256,191,204730,1,2,0:0:0:0:
256,191,204823,1,2,0:0:0:0:
256,191,204917,1,0,0:0:0:0:
256,191,205105,1,2,0:0:0:0:
256,191,205292,1,0,0:0:0:0:
256,191,205480,1,0,0:0:0:0:
256,191,205667,1,2,0:0:0:0:
256,191,205855,1,0,0:0:0:0:
256,191,206042,1,2,0:0:0:0:
256,191,206136,1,2,0:0:0:0:
256,191,206230,1,0,0:0:0:0:
256,191,206323,1,2,0:0:0:0:
256,191,206417,1,2,0:0:0:0:
256,191,206511,1,2,0:0:0:0:
256,191,206605,1,0,0:0:0:0:
256,191,206698,1,0,0:0:0:0:
256,191,206792,1,2,0:0:0:0:
256,191,206980,1,4,0:0:0:0:
256,191,207167,1,2,0:0:0:0:
256,191,207230,1,2,0:0:0:0:
256,191,207292,1,2,0:0:0:0:
256,191,207355,1,2,0:0:0:0:
256,191,207542,1,2,0:0:0:0:
256,191,207636,1,2,0:0:0:0:
256,191,207730,1,0,0:0:0:0:
256,191,207823,1,2,0:0:0:0:
256,191,207917,1,0,0:0:0:0:
256,191,207980,1,0,0:0:0:0:
256,191,208042,1,0,0:0:0:0:
256,191,208105,1,2,0:0:0:0:
256,191,208292,1,2,0:0:0:0:
256,191,208480,1,0,0:0:0:0:
256,191,218980,5,0,0:0:0:0:
256,191,219167,1,2,0:0:0:0:
256,191,219261,1,2,0:0:0:0:
256,191,219355,1,0,0:0:0:0:
256,191,219542,1,2,0:0:0:0:
256,191,219636,1,2,0:0:0:0:
256,191,219730,1,0,0:0:0:0:
256,191,219823,1,0,0:0:0:0:
256,191,219917,1,0,0:0:0:0:
256,191,220011,1,0,0:0:0:0:
256,191,220105,1,2,0:0:0:0:
256,191,220198,1,2,0:0:0:0:
256,191,220292,1,0,0:0:0:0:
256,191,220480,1,4,0:0:0:0:
256,191,220667,1,2,0:0:0:0:
256,191,220761,1,0,0:0:0:0:
256,191,220948,1,2,0:0:0:0:
256,191,221042,1,0,0:0:0:0:
256,191,221230,1,2,0:0:0:0:
256,191,221417,1,0,0:0:0:0:
256,191,221511,1,2,0:0:0:0:
256,191,221605,1,2,0:0:0:0:
256,191,221792,1,0,0:0:0:0:
256,191,221980,1,2,0:0:0:0:
256,191,222073,1,2,0:0:0:0:
256,191,222167,1,0,0:0:0:0:
256,191,222261,1,0,0:0:0:0:
256,191,222355,1,2,0:0:0:0:
256,191,222542,1,0,0:0:0:0:
256,191,222730,1,2,0:0:0:0:
256,191,223105,1,6,0:0:0:0:
256,191,223480,1,2,0:0:0:0:
256,191,223667,1,0,0:0:0:0:
256,191,223761,1,2,0:0:0:0:
256,191,223948,1,0,0:0:0:0:
256,191,224042,1,2,0:0:0:0:
256,191,224230,1,2,0:0:0:0:
256,191,224417,1,0,0:0:0:0:
256,191,224511,1,0,0:0:0:0:
256,191,224605,1,2,0:0:0:0:
256,191,224792,1,0,0:0:0:0:
256,191,224980,1,2,0:0:0:0:
256,191,225074,1,2,0:0:0:0:
256,191,225168,1,0,0:0:0:0:
256,191,225261,1,0,0:0:0:0:
256,191,225355,1,2,0:0:0:0:
256,191,225542,1,0,0:0:0:0:
256,191,225730,1,0,0:0:0:0:
256,191,225823,1,0,0:0:0:0:
256,191,225917,1,2,0:0:0:0:
256,191,226105,1,2,0:0:0:0:
256,191,226198,1,2,0:0:0:0:
256,191,226292,1,2,0:0:0:0:
256,191,226386,1,2,0:0:0:0:
256,191,226480,1,0,0:0:0:0:
256,191,226667,1,2,0:0:0:0:
256,191,226761,1,2,0:0:0:0:
256,191,226855,1,2,0:0:0:0:
256,191,227042,1,2,0:0:0:0:
256,191,227230,1,0,0:0:0:0:
256,191,227323,1,0,0:0:0:0:
256,191,227417,1,2,0:0:0:0:
256,191,227511,1,2,0:0:0:0:
256,191,227605,1,0,0:0:0:0:
256,191,227792,1,0,0:0:0:0:
256,191,227886,1,0,0:0:0:0:
256,191,227980,1,2,0:0:0:0:
256,191,228167,1,0,0:0:0:0:
256,191,228261,1,2,0:0:0:0:
256,191,228355,1,2,0:0:0:0:
256,191,228542,1,0,0:0:0:0:
256,191,228730,1,2,0:0:0:0:
256,191,228823,1,2,0:0:0:0:
256,191,228917,1,0,0:0:0:0:
256,191,229011,1,0,0:0:0:0:
256,191,229105,1,2,0:0:0:0:
256,191,229292,1,2,0:0:0:0:
256,191,229386,1,2,0:0:0:0:
256,191,229480,1,0,0:0:0:0:
256,191,229667,1,2,0:0:0:0:
256,191,229761,1,2,0:0:0:0:
256,191,229855,1,2,0:0:0:0:
256,191,230042,1,2,0:0:0:0:
256,191,230136,1,0,0:0:0:0:
256,191,230230,1,0,0:0:0:0:
256,191,230323,1,2,0:0:0:0:
256,191,230511,1,2,0:0:0:0:
256,191,230698,1,2,0:0:0:0:
256,191,230792,1,0,0:0:0:0:
256,191,230980,1,0,0:0:0:0:
256,191,231042,1,0,0:0:0:0:
256,191,231105,1,0,0:0:0:0:
256,191,231167,1,0,0:0:0:0:
256,191,231355,1,2,0:0:0:0:
256,191,231448,1,0,0:0:0:0:
256,191,231542,1,0,0:0:0:0:
256,191,231636,1,2,0:0:0:0:
256,191,231730,1,0,0:0:0:0:
256,191,231823,1,0,0:0:0:0:
256,191,231917,1,0,0:0:0:0:
256,191,232011,1,0,0:0:0:0:
256,191,232105,1,2,0:0:0:0:
256,191,232292,1,2,0:0:0:0:
256,191,232480,1,4,0:0:0:0:
256,191,232667,1,2,0:0:0:0:
256,191,232761,1,0,0:0:0:0:
256,191,232948,1,2,0:0:0:0:
256,191,233042,1,0,0:0:0:0:
256,191,233230,1,2,0:0:0:0:
256,191,233417,1,0,0:0:0:0:
256,191,233511,1,0,0:0:0:0:
256,191,233605,1,2,0:0:0:0:
256,191,233792,1,0,0:0:0:0:
256,191,233980,1,2,0:0:0:0:
256,191,234167,1,0,0:0:0:0:
256,191,234261,1,2,0:0:0:0:
256,191,234355,1,2,0:0:0:0:
256,191,234542,1,0,0:0:0:0:
256,191,234730,1,2,0:0:0:0:
256,191,235105,1,6,0:0:0:0:
256,191,235480,1,2,0:0:0:0:
256,191,235667,1,0,0:0:0:0:
256,191,235761,1,2,0:0:0:0:
256,191,235948,1,0,0:0:0:0:
256,191,236042,1,2,0:0:0:0:
256,191,236230,1,0,0:0:0:0:
256,191,236323,1,0,0:0:0:0:
256,191,236417,1,2,0:0:0:0:
256,191,236511,1,2,0:0:0:0:
256,191,236698,1,2,0:0:0:0:
256,191,236792,1,0,0:0:0:0:
256,191,236980,1,0,0:0:0:0:
256,191,237167,1,0,0:0:0:0:
256,191,237261,1,0,0:0:0:0:
256,191,237355,1,2,0:0:0:0:
256,191,237542,1,0,0:0:0:0:
256,191,237730,1,2,0:0:0:0:
256,191,237823,1,0,0:0:0:0:
256,191,237917,1,0,0:0:0:0:
256,191,238105,1,2,0:0:0:0:
256,191,238292,1,0,0:0:0:0:
256,191,238480,1,4,0:0:0:0:
256,191,238667,1,2,0:0:0:0:
256,191,238761,1,0,0:0:0:0:
256,191,238948,1,2,0:0:0:0:
256,191,239042,1,0,0:0:0:0:
256,191,239230,1,0,0:0:0:0:
256,191,239323,1,0,0:0:0:0:
256,191,239417,1,2,0:0:0:0:
256,191,239511,1,2,0:0:0:0:
256,191,239698,1,2,0:0:0:0:
256,191,239792,1,0,0:0:0:0:
256,191,239980,1,2,0:0:0:0:
256,191,240167,1,0,0:0:0:0:
256,191,240261,1,0,0:0:0:0:
256,191,240355,1,2,0:0:0:0:
256,191,240542,1,0,0:0:0:0:
256,191,240730,1,2,0:0:0:0:
256,191,240823,1,0,0:0:0:0:
256,191,240917,1,0,0:0:0:0:
256,191,241011,1,0,0:0:0:0:
256,191,241105,1,2,0:0:0:0:
256,191,241292,1,2,0:0:0:0:
256,191,241480,1,0,0:0:0:0:
256,191,241667,1,2,0:0:0:0:
256,191,241855,1,2,0:0:0:0:
256,191,242042,1,2,0:0:0:0:
256,191,242230,1,0,0:0:0:0:
256,191,242323,1,2,0:0:0:0:
256,191,242417,1,2,0:0:0:0:
256,191,242511,1,2,0:0:0:0:
256,191,242605,1,0,0:0:0:0:
256,191,242698,1,2,0:0:0:0:
256,191,242792,1,2,0:0:0:0:
256,191,242980,1,4,0:0:0:0:
256,191,243355,1,2,0:0:0:0:
256,191,243542,1,0,0:0:0:0:
256,191,243605,1,0,0:0:0:0:
256,191,243667,1,0,0:0:0:0:
256,191,243730,1,0,0:0:0:0:
256,191,243917,1,0,0:0:0:0:
256,191,244011,1,2,0:0:0:0:
256,191,244105,1,0,0:0:0:0:
256,191,244198,1,0,0:0:0:0:
256,191,244292,1,2,0:0:0:0:
256,191,244480,1,4,0:0:0:0:
256,191,244667,1,2,0:0:0:0:
256,191,244761,1,2,0:0:0:0:
256,191,244855,1,0,0:0:0:0:
256,191,245042,1,2,0:0:0:0:
256,191,245230,1,0,0:0:0:0:
256,191,245323,1,0,0:0:0:0:
256,191,245417,1,2,0:0:0:0:
256,191,245511,1,2,0:0:0:0:
256,191,245698,1,0,0:0:0:0:
256,191,245792,1,2,0:0:0:0:
256,191,245980,1,0,0:0:0:0:
256,191,246167,1,2,0:0:0:0:
256,191,246261,1,0,0:0:0:0:
256,191,246355,1,0,0:0:0:0:
256,191,246448,1,2,0:0:0:0:
256,191,246636,1,2,0:0:0:0:
256,191,246730,1,0,0:0:0:0:
256,191,246823,1,0,0:0:0:0:
256,191,246917,1,0,0:0:0:0:
256,191,247011,1,2,0:0:0:0:
256,191,247198,1,0,0:0:0:0:
256,191,247292,1,2,0:0:0:0:
256,191,247480,1,0,0:0:0:0:
256,191,247667,1,2,0:0:0:0:
256,191,247761,1,2,0:0:0:0:
256,191,247855,1,2,0:0:0:0:
256,191,248042,1,2,0:0:0:0:
256,191,248230,1,0,0:0:0:0:
256,191,248323,1,0,0:0:0:0:
256,191,248417,1,2,0:0:0:0:
256,191,248511,1,2,0:0:0:0:
256,191,248605,1,0,0:0:0:0:
256,191,248792,1,0,0:0:0:0:
256,191,248980,1,0,0:0:0:0:
256,191,249073,1,0,0:0:0:0:
256,191,249167,1,0,0:0:0:0:
256,191,249261,1,0,0:0:0:0:
256,191,249355,1,2,0:0:0:0:
256,191,249542,1,2,0:0:0:0:
256,191,249636,1,0,0:0:0:0:
256,191,249730,1,0,0:0:0:0:
256,191,249823,1,2,0:0:0:0:
256,191,250011,1,2,0:0:0:0:
256,191,250105,1,0,0:0:0:0:
256,191,250292,1,2,0:0:0:0:
256,191,250386,1,2,0:0:0:0:
256,191,250480,1,0,0:0:0:0:
256,191,250667,1,2,0:0:0:0:
256,191,250761,1,2,0:0:0:0:
256,191,250855,1,0,0:0:0:0:
256,191,250948,1,2,0:0:0:0:
256,191,251136,1,2,0:0:0:0:
256,191,251230,1,2,0:0:0:0:
256,191,251323,1,0,0:0:0:0:
256,191,251417,1,2,0:0:0:0:
256,191,251511,1,2,0:0:0:0:
256,191,251698,1,2,0:0:0:0:
256,191,251792,1,0,0:0:0:0:
256,191,251980,1,0,0:0:0:0:
256,191,252167,1,2,0:0:0:0:
256,191,252261,1,2,0:0:0:0:
256,191,252355,1,2,0:0:0:0:
256,191,252542,1,0,0:0:0:0:
256,191,252730,1,2,0:0:0:0:
256,191,252823,1,2,0:0:0:0:
256,191,252917,1,0,0:0:0:0:
256,191,253011,1,0,0:0:0:0:
256,191,253105,1,2,0:0:0:0:
256,191,253292,1,0,0:0:0:0:
256,191,253480,1,0,0:0:0:0:
256,191,253667,1,2,0:0:0:0:
256,191,253761,1,0,0:0:0:0:
256,191,253855,1,2,0:0:0:0:
256,191,253948,1,2,0:0:0:0:
256,191,254136,1,2,0:0:0:0:
256,191,254230,1,0,0:0:0:0:
256,191,254323,1,2,0:0:0:0:
256,191,254417,1,2,0:0:0:0:
256,191,254511,1,2,0:0:0:0:
256,191,254698,1,2,0:0:0:0:
256,191,254792,1,0,0:0:0:0:
256,191,254980,1,0,0:0:0:0:
256,191,255073,1,0,0:0:0:0:
256,191,255167,1,0,0:0:0:0:
256,191,255261,1,0,0:0:0:0:
256,191,255355,1,2,0:0:0:0:
256,191,255448,1,2,0:0:0:0:
256,191,255542,1,0,0:0:0:0:
256,191,255636,1,0,0:0:0:0:
256,191,255730,1,0,0:0:0:0:
256,191,255823,1,2,0:0:0:0:
256,191,255917,1,0,0:0:0:0:
256,191,256011,1,0,0:0:0:0:
256,191,256105,1,2,0:0:0:0:
256,191,256292,1,2,0:0:0:0:
256,191,256480,1,4,0:0:0:0:
256,191,256855,1,0,0:0:0:0:
256,191,257043,1,2,0:0:0:0:
256,191,257230,1,0,0:0:0:0:
256,191,257418,1,2,0:0:0:0:
256,191,257511,1,2,0:0:0:0:
256,191,257605,1,0,0:0:0:0:
256,191,257792,1,0,0:0:0:0:
256,191,257886,1,0,0:0:0:0:
256,191,257980,1,2,0:0:0:0:
256,191,258167,1,0,0:0:0:0:
256,191,258355,1,2,0:0:0:0:
256,191,258542,1,0,0:0:0:0:
256,191,258730,1,2,0:0:0:0:
256,191,258823,1,0,0:0:0:0:
256,191,258917,1,0,0:0:0:0:
256,191,259105,1,0,0:0:0:0:
256,191,259292,1,2,0:0:0:0:
256,191,259386,1,0,0:0:0:0:
256,191,259480,1,2,0:0:0:0:
256,191,259855,1,0,0:0:0:0:
256,191,260042,1,2,0:0:0:0:
256,191,260230,1,0,0:0:0:0:
256,191,260417,1,2,0:0:0:0:
256,191,260511,1,2,0:0:0:0:
256,191,260605,1,0,0:0:0:0:
256,191,260792,1,2,0:0:0:0:
256,191,260980,1,0,0:0:0:0:
256,191,261167,1,0,0:0:0:0:
256,191,261261,1,0,0:0:0:0:
256,191,261355,1,0,0:0:0:0:
256,191,261542,1,2,0:0:0:0:
256,191,261636,1,2,0:0:0:0:
256,191,261730,1,2,0:0:0:0:
256,191,261917,1,2,0:0:0:0:
256,191,262105,1,0,0:0:0:0:
256,191,262292,1,2,0:0:0:0:
256,191,262480,1,4,0:0:0:0:
256,191,262855,1,0,0:0:0:0:
256,191,263043,1,2,0:0:0:0:
256,191,263230,1,0,0:0:0:0:
256,191,263418,1,2,0:0:0:0:
256,191,263511,1,2,0:0:0:0:
256,191,263605,1,0,0:0:0:0:
256,191,263792,1,0,0:0:0:0:
256,191,263886,1,0,0:0:0:0:
256,191,263980,1,2,0:0:0:0:
256,191,264167,1,0,0:0:0:0:
256,191,264355,1,2,0:0:0:0:
256,191,264542,1,0,0:0:0:0:
256,191,264730,1,2,0:0:0:0:
256,191,264823,1,0,0:0:0:0:
256,191,264917,1,0,0:0:0:0:
256,191,265105,1,0,0:0:0:0:
256,191,265292,1,2,0:0:0:0:
256,191,265386,1,0,0:0:0:0:
256,191,265480,1,2,0:0:0:0:
256,191,265855,1,0,0:0:0:0:
256,191,266042,1,2,0:0:0:0:
256,191,266230,1,0,0:0:0:0:
256,191,266417,1,2,0:0:0:0:
256,191,266511,1,2,0:0:0:0:
256,191,266605,1,0,0:0:0:0:
256,191,266792,1,2,0:0:0:0:
256,191,266980,1,0,0:0:0:0:
256,191,267167,1,0,0:0:0:0:
256,191,267542,1,2,0:0:0:0:
256,191,267605,1,2,0:0:0:0:
256,191,267667,1,2,0:0:0:0:
256,191,267730,1,2,0:0:0:0:
256,191,267917,1,2,0:0:0:0:
256,191,268011,1,2,0:0:0:0:
256,191,268198,1,2,0:0:0:0:
256,191,268292,1,0,0:0:0:0:
256,191,268480,1,4,0:0:0:0:
256,191,268667,1,2,0:0:0:0:
256,191,268855,1,0,0:0:0:0:
256,191,269042,1,2,0:0:0:0:
256,191,269136,1,2,0:0:0:0:
256,191,269230,1,0,0:0:0:0:
256,191,269417,1,2,0:0:0:0:
256,191,269605,1,0,0:0:0:0:
256,191,269792,1,0,0:0:0:0:
256,191,269886,1,0,0:0:0:0:
256,191,269980,1,2,0:0:0:0:
256,191,270073,1,2,0:0:0:0:
256,191,270167,1,0,0:0:0:0:
256,191,270355,1,2,0:0:0:0:
256,191,270542,1,0,0:0:0:0:
256,191,270730,1,2,0:0:0:0:
256,191,270823,1,0,0:0:0:0:
256,191,270917,1,0,0:0:0:0:
256,191,271011,1,0,0:0:0:0:
256,191,271105,1,2,0:0:0:0:
256,191,271292,1,0,0:0:0:0:
256,191,271386,1,0,0:0:0:0:
256,191,271480,1,2,0:0:0:0:
256,191,271667,1,0,0:0:0:0:
256,191,271761,1,2,0:0:0:0:
256,191,271855,1,2,0:0:0:0:
256,191,272042,1,0,0:0:0:0:
256,191,272230,1,2,0:0:0:0:
256,191,272417,1,0,0:0:0:0:
256,191,272511,1,2,0:0:0:0:
256,191,272605,1,0,0:0:0:0:
256,191,272792,1,2,0:0:0:0:
256,191,272980,1,0,0:0:0:0:
256,191,273167,1,2,0:0:0:0:
256,191,273261,1,2,0:0:0:0:
256,191,273355,1,2,0:0:0:0:
256,191,273542,1,0,0:0:0:0:
256,191,273730,1,2,0:0:0:0:
256,191,273823,1,0,0:0:0:0:
256,191,273917,1,0,0:0:0:0:
256,191,274011,1,0,0:0:0:0:
256,191,274105,1,2,0:0:0:0:
256,191,274292,1,2,0:0:0:0:
256,191,274480,1,4,0:0:0:0:
256,191,274667,1,2,0:0:0:0:
256,191,274761,1,2,0:0:0:0:
256,191,274855,1,0,0:0:0:0:
256,191,275042,1,2,0:0:0:0:
256,191,275136,1,2,0:0:0:0:
256,191,275230,1,0,0:0:0:0:
256,191,275323,1,2,0:0:0:0:
256,191,275511,1,2,0:0:0:0:
256,191,275605,1,0,0:0:0:0:
256,191,275792,1,2,0:0:0:0:
256,191,275980,1,0,0:0:0:0:
256,191,276167,1,2,0:0:0:0:
256,191,276355,1,0,0:0:0:0:
256,191,276542,1,2,0:0:0:0:
256,191,276636,1,0,0:0:0:0:
256,191,276730,1,0,0:0:0:0:
256,191,276823,1,2,0:0:0:0:
256,191,277011,1,2,0:0:0:0:
256,191,277105,1,0,0:0:0:0:
256,191,277292,1,0,0:0:0:0:
256,191,277480,1,0,0:0:0:0:
256,191,277667,1,2,0:0:0:0:
256,191,277855,1,2,0:0:0:0:
256,191,278042,1,2,0:0:0:0:
256,191,278230,1,0,0:0:0:0:
256,191,278323,1,2,0:0:0:0:
256,191,278417,1,2,0:0:0:0:
256,191,278511,1,2,0:0:0:0:
256,191,278605,1,0,0:0:0:0:
256,191,278698,1,2,0:0:0:0:
256,191,278792,1,2,0:0:0:0:
256,191,278980,1,4,0:0:0:0:
