osu file format v14

[General]
AudioFilename: audio2.mp3
AudioLeadIn: 0
PreviewTime: 255225
Countdown: 0
SampleSet: Soft
StackLeniency: 0.5
Mode: 0
LetterboxInBreaks: 0
WidescreenStoryboard: 0

[Editor]
Bookmarks: 22804,32910,43015,53120,83346,85796,85874,85953,88322,88401,88480,91796,91874,91953,103556,123848,133872,152820,154083,174374,194504,214804,235015,255225,275436,295646,313322,325962,336059,343638,356120
DistanceSpacing: 0.9
BeatDivisor: 4
GridSize: 8
TimelineZoom: 1

[Metadata]
Title:Tsuioku no Kakera
TitleUnicode:追憶の欠片
Artist:mirin
ArtistUnicode:mirin
Creator:Kite
Version:Nokori
Source:
Tags:kappsurex2 kwapp
BeatmapID:1143180
BeatmapSetID:539329

[Difficulty]
HPDrainRate:6
CircleSize:4.4
OverallDifficulty:9
ApproachRate:9.2
SliderMultiplier:2
SliderTickRate:1

[Events]
//Background and Video events
0,0,"Konachan.com - 224011 dress long_hair night original ruru_(tsuitta) stars.jpg",0,0
//Break Periods
2,255417,263882
//Storyboard Layer 0 (Background)
//Storyboard Layer 1 (Fail)
//Storyboard Layer 2 (Pass)
//Storyboard Layer 3 (Foreground)
//Storyboard Sound Samples

[TimingPoints]
60,315.789473684211,4,3,1,70,1,0
691,-166.666666666667,4,2,1,50,0,0
2586,-153.846153846154,4,2,1,60,0,0
12691,-133.333333333333,4,2,1,70,0,0
17744,-133.333333333333,4,2,1,80,0,0
18849,-125,4,2,1,80,0,0
20270,-117.647058823529,4,2,1,80,0,0
21533,-111.111111111111,4,2,1,90,0,0
21770,-111.111111111111,4,2,1,60,0,0
21928,-111.111111111111,4,2,1,90,0,0
22796,-100,4,3,1,80,0,1
42217,-100,4,3,1,70,0,0
43006,-153.846153846154,4,2,1,70,0,0
50585,-125,4,3,1,70,0,0
51059,-117.647058823529,4,3,1,70,0,0
51374,-111.111111111111,4,3,1,70,0,0
51690,-100,4,3,1,70,0,0
63217,-200,4,3,1,70,0,0
64481,-200,4,2,1,70,0,0
71507,-200,4,2,1,20,0,0
71665,-200,4,2,1,70,0,0
72296,-200,4,2,1,20,0,0
72454,-200,4,2,1,70,0,0
73322,-117.647058823529,4,3,1,70,0,0
78374,-111.111111111111,4,3,1,70,0,0
80901,-200,4,3,1,70,0,0
82402,-200,4,3,1,30,0,0
82560,-200,4,3,1,70,0,0
83427,-117.647058823529,4,3,1,70,0,0
103638,-100,4,3,1,70,0,0
123848,-142.857142857143,4,3,1,70,0,0
133953,-200,4,3,1,50,0,0
154164,-100,4,3,1,70,0,0
161743,-90.9090909090909,4,3,1,70,0,0
164269,-100,4,3,1,70,0,0
166638,-90.9090909090909,4,3,1,70,0,0
167111,-100,4,3,1,70,0,0
168848,-90.9090909090909,4,3,1,70,0,0
169322,-100,4,3,1,70,0,0
180690,-95.2380952380952,4,3,1,70,0,0
181953,-90.9090909090909,4,3,1,70,0,0
183217,-100,4,3,1,70,0,0
192059,-200,4,3,1,70,0,0
193560,-200,4,3,1,30,0,0
193717,-200,4,3,1,70,0,0
194585,-117.647058823529,4,3,1,70,0,0
214796,-100,4,3,1,70,0,0
235006,-90.9090909090909,4,3,1,70,0,1
250401,-76.9230769230769,4,3,1,70,0,1
250953,-90.9090909090909,4,3,1,70,0,1
255217,-166.666666666667,4,3,1,70,0,0
265322,-153.846153846154,4,2,1,50,0,0
268560,-153.846153846154,4,2,1,20,0,0
268717,-153.846153846154,4,2,1,50,0,0
270769,-142.857142857143,4,2,1,55,0,0
271243,-133.333333333333,4,2,1,60,0,0
272901,-133.333333333333,4,2,1,70,0,0
273138,-133.333333333333,4,2,1,15,0,0
273374,-133.333333333333,4,3,99,10,0,0
273848,-133.333333333333,4,3,1,30,0,0
275427,-111.111111111111,4,3,1,75,0,1
295638,-95.2380952380952,4,3,1,75,0,1
325953,-90.9090909090909,4,3,1,80,0,1
336059,-86.9565217391304,4,3,1,80,0,1
346164,-111.111111111111,4,3,1,50,0,0
346244,-111.111111111111,4,2,1,60,0,0
348690,-117.647058823529,4,2,1,50,0,0
351217,-125,4,2,1,40,0,0
353743,-133.333333333333,4,2,1,30,0,0

[Colours]
Combo1 : 92,196,49
Combo2 : 196,4,163
Combo3 : 44,111,211
Combo4 : 228,84,35

[HitObjects]
46,346,1007,5,0,0:0:0:0:
58,355,1323,2,0,P|111:369|174:350,1,119.999996337891
231,292,1796,1,0,0:0:0:0:
161,195,2112,1,0,0:0:0:0:
280,182,2428,1,0,0:0:0:0:
296,166,2586,6,0,P|303:130|294:99,1,64.9999970245363
242,36,2902,1,0,0:0:0:0:
242,36,3060,2,0,P|299:62|368:53,1,129.999994049073
443,16,3533,5,0,0:0:0:0:
469,171,3849,1,0,0:0:0:0:
321,116,4165,1,0,0:0:0:0:
346,126,4323,2,0,P|368:175|336:246,1,129.999994049073
232,213,4796,2,0,P|258:189|287:179,1,64.9999970245363
442,216,5112,5,0,0:0:0:0:
469,297,5270,1,0,0:0:0:0:
413,368,5428,1,0,0:0:0:0:
469,297,5586,1,0,0:0:0:0:
476,318,6060,1,0,0:0:0:0:
483,340,6691,5,0,0:0:0:0:
309,308,7007,1,0,0:0:0:0:
430,175,7323,1,0,0:0:0:0:
309,308,7638,6,0,P|271:320|243:317,1,64.9999970245363
162,288,7954,1,0,0:0:0:0:
162,288,8112,1,0,0:0:0:0:
162,288,8586,5,0,0:0:0:0:
44,220,8902,1,0,0:0:0:0:
184,268,9217,1,0,0:0:0:0:
310,224,9533,1,0,0:0:0:0:
168,242,9849,1,0,0:0:0:0:
35,186,10165,6,0,P|14:122|39:60,1,129.999994049073
115,18,10638,1,0,0:0:0:0:
115,18,10796,2,0,L|251:31,1,129.999994049073
413,108,11428,5,0,0:0:0:0:
351,157,11586,1,0,0:0:0:0:
270,157,11744,1,0,0:0:0:0:
216,99,11902,1,0,0:0:0:0:
296,100,12060,2,0,P|341:151|331:211,1,129.999994049073
55,171,12691,6,0,P|54:97|72:20,1,150.000005722046
74,142,13165,2,0,P|74:216|91:293,1,150.000005722046
143,370,13638,1,0,0:0:0:0:
181,285,13796,1,0,0:0:0:0:
242,215,13954,1,0,0:0:0:0:
242,215,14586,5,0,0:0:0:0:
181,285,14744,1,0,0:0:0:0:
143,370,14902,1,0,0:0:0:0:
86,301,15060,1,0,0:0:0:0:
73,217,15217,6,0,P|81:146|110:71,1,150.000005722046
172,9,15691,2,0,P|101:55|26:72,1,150.000005722046
21,72,16165,1,0,0:0:0:0:
5,68,16796,5,0,0:0:0:0:
121,227,17112,1,0,0:0:0:0:
201,48,17428,1,0,0:0:0:0:
121,227,17744,6,0,P|111:273|119:309,1,75.0000028610231
163,381,18060,1,0,0:0:0:0:
245,317,18217,2,0,P|321:304|376:345,1,150.000005722046
255,215,18691,5,0,0:0:0:0:
357,162,18849,2,0,P|376:109|306:29,1,160
294,109,19323,1,0,0:0:0:0:
496,68,19638,1,0,0:0:0:0:
424,253,19954,1,0,0:0:0:0:
199,149,20270,6,0,P|177:91|246:18,1,170.000003242493
215,158,20744,1,0,0:0:0:0:
161,233,20902,2,0,P|122:246|79:236,1,85.0000016212464
215,158,21217,2,0,L|305:171,1,85.0000016212464
135,342,21533,6,0,P|41:336|58:127,1,359.999989013672
465,250,22796,6,0,P|480:302|465:351,1,100
375,163,23112,1,0,0:0:0:0:
268,238,23270,2,0,P|253:290|268:339,1,100
372,133,23586,1,0,0:0:0:0:
479,208,23744,6,0,P|494:260|479:309,1,100
369,103,24060,1,0,0:0:0:0:
266,209,24217,2,0,P|251:261|266:310,1,100
366,73,24533,1,0,0:0:0:0:
491,189,24691,6,0,B|506:248|506:248|497:295,1,100
363,43,25007,1,0,0:0:0:0:
318,320,25165,1,0,0:0:0:0:
198,74,25323,6,0,P|152:52|100:63,1,100
281,201,25638,1,0,0:0:0:0:
408,118,25796,2,0,P|430:72|419:20,1,100
281,201,26112,1,0,0:0:0:0:
364,328,26270,6,0,P|410:350|462:339,1,100
281,201,26586,1,0,0:0:0:0:
154,284,26744,2,0,P|132:330|143:382,1,100
281,201,27060,1,0,0:0:0:0:
181,69,27217,6,0,B|119:57|119:57|83:64,1,100
281,201,27533,1,0,0:0:0:0:
450,45,27691,1,0,0:0:0:0:
214,103,27849,6,0,P|196:53|215:6,1,100
450,45,28165,1,0,0:0:0:0:
301,131,28323,2,0,P|247:130|210:96,1,100
450,45,28638,1,0,0:0:0:0:
197,118,28796,6,0,P|179:68|198:21,1,100
450,45,29112,1,0,0:0:0:0:
284,146,29270,2,0,P|230:145|193:111,1,100
450,45,29586,1,0,0:0:0:0:
437,261,29744,6,0,L|430:368,1,100
450,45,30060,1,0,0:0:0:0:
437,261,30217,1,0,0:0:0:0:
205,77,30375,5,0,0:0:0:0:
171,66,30454,1,0,0:0:0:0:
136,69,30533,1,0,0:0:0:0:
103,81,30612,1,0,0:0:0:0:
77,104,30691,1,0,0:0:0:0:
105,125,30770,1,0,0:0:0:0:
139,129,30849,1,0,0:0:0:0:
173,125,30928,1,0,0:0:0:0:
207,118,31007,1,0,0:0:0:0:
241,114,31086,1,0,0:0:0:0:
275,118,31165,1,0,0:0:0:0:
303,139,31244,1,0,0:0:0:0:
324,167,31323,1,0,0:0:0:0:
291,179,31402,1,0,0:0:0:0:
256,182,31481,1,0,0:0:0:0:
222,171,31560,1,0,0:0:0:0:
192,152,31638,1,0,0:0:0:0:
169,125,31717,1,0,0:0:0:0:
153,93,31796,5,0,0:0:0:0:
233,325,31954,1,0,0:0:0:0:
406,125,32112,1,0,0:0:0:0:
203,341,32270,5,0,0:0:0:0:
168,348,32349,1,0,0:0:0:0:
133,344,32428,1,0,0:0:0:0:
100,329,32507,1,0,0:0:0:0:
78,301,32586,1,0,0:0:0:0:
96,271,32665,1,0,0:0:0:0:
104,237,32744,1,0,0:0:0:0:
102,202,32823,1,0,0:0:0:0:
87,169,32902,6,0,P|41:159|-6:184,1,100
224,330,33217,2,0,P|180:352|132:343,1,100
315,181,33533,1,0,0:0:0:0:
367,310,33691,1,0,0:0:0:0:
367,310,33770,1,0,0:0:0:0:
367,310,33849,1,0,0:0:0:0:
289,162,34007,2,0,P|279:105|301:66,1,100
407,10,34323,5,0,0:0:0:0:
493,176,34481,1,0,0:0:0:0:
384,202,34638,1,0,0:0:0:0:
507,56,34796,1,0,0:0:0:0:
500,183,34954,1,0,0:0:0:0:
500,183,35033,1,0,0:0:0:0:
500,183,35112,1,0,0:0:0:0:
328,96,35270,1,0,0:0:0:0:
225,258,35428,6,0,P|161:271|131:256,1,100
328,96,35744,1,0,0:0:0:0:
370,263,35902,2,0,B|374:306|374:306|357:375,1,100
179,198,36217,1,0,0:0:0:0:
179,198,36296,1,0,0:0:0:0:
179,198,36375,1,0,0:0:0:0:
388,139,36533,2,0,P|393:58|289:33,1,200
337,202,37007,2,0,P|376:221|438:206,1,100
281,123,37323,5,0,0:0:0:0:
246,129,37402,1,0,0:0:0:0:
211,136,37481,1,0,0:0:0:0:
176,143,37560,1,0,0:0:0:0:
141,150,37638,1,0,0:0:0:0:
21,46,37796,1,0,0:0:0:0:
14,320,37954,5,0,0:0:0:0:
14,320,38033,1,0,0:0:0:0:
14,320,38112,2,0,P|63:352|70:256,1,200
76,261,38507,1,0,0:0:0:0:
76,261,38586,2,0,P|20:217|144:206,1,300
99,362,39217,5,0,0:0:0:0:
229,282,39375,1,0,0:0:0:0:
263,287,39454,1,0,0:0:0:0:
297,292,39533,1,0,0:0:0:0:
474,228,39691,1,0,0:0:0:0:
281,149,39849,1,0,0:0:0:0:
474,228,40007,2,0,P|503:286|402:280,1,200
397,107,40481,5,0,0:0:0:0:
407,73,40560,1,0,0:0:0:0:
418,39,40638,2,0,P|466:9|468:110,1,200
480,107,41033,1,0,0:0:0:0:
480,107,41112,1,0,0:0:0:0:
154,33,41428,1,0,0:0:0:0:
255,185,41586,1,0,0:0:0:0:
391,34,41744,5,0,0:0:0:0:
296,256,41902,2,0,B|266:277|214:271|187:235|187:235|141:241|116:280,1,200
121,272,43007,5,0,0:0:0:0:
182,34,43638,1,0,0:0:0:0:
66,137,43954,1,0,0:0:0:0:
66,137,44112,1,0,0:0:0:0:
148,204,44270,2,0,P|210:217|264:172,1,129.999994049073
134,321,44902,2,0,P|72:334|18:289,1,129.999994049073
150,307,45375,1,0,0:0:0:0:
194,140,45533,6,0,B|207:58|207:58|203:3,1,129.999994049073
120,18,46007,1,0,0:0:0:0:
274,149,46323,1,0,0:0:0:0:
86,222,46638,2,0,P|50:273|126:357,1,194.999991073609
122,285,47270,1,0,0:0:0:0:
174,64,47586,1,0,0:0:0:0:
74,111,47744,1,0,0:0:0:0:
84,1,47902,1,0,0:0:0:0:
164,174,48060,6,0,P|230:191|286:166,1,129.999994049073
342,104,48533,2,0,P|300:151|395:183,1,194.999991073609
483,22,49323,5,0,0:0:0:0:
495,340,49954,1,0,0:0:0:0:
487,187,50270,1,0,0:0:0:0:
434,275,50428,1,0,0:0:0:0:
380,189,50586,6,0,P|327:174|257:244,1,160,0|0,0:0|2:0,0:0:0:0:
343,336,51060,2,0,B|348:298|348:298|335:254,1,85.0000016212464,0|0,2:0|2:0,0:0:0:0:
334,359,51375,2,0,P|407:382|451:334,1,134.999995880127,0|0,2:0|2:0,0:0:0:0:
467,267,51691,6,0,L|474:165,1,100
385,26,52007,1,0,0:0:0:0:
293,159,52165,1,0,0:0:0:0:
206,41,52323,2,0,P|163:21|110:36,1,100
21,235,52638,1,0,0:0:0:0:
52,258,52717,1,0,0:0:0:0:
91,254,52796,1,0,0:0:0:0:
117,225,52875,1,0,0:0:0:0:
116,186,52954,1,0,0:0:0:0:
89,158,53033,1,0,0:0:0:0:
50,155,53112,6,0,P|13:192|20:237,1,100
234,121,53428,2,0,B|241:56|241:56|232:18,1,100
351,291,53744,2,0,B|344:226|344:226|353:188,1,100
218,348,54060,1,0,0:0:0:0:
160,213,54217,2,0,P|83:184|35:277,1,200
218,348,54691,1,0,0:0:0:0:
294,169,54849,1,0,0:0:0:0:
379,302,55007,2,0,P|432:323|476:311,1,100
294,169,55323,1,0,0:0:0:0:
437,114,55481,2,0,P|452:58|435:13,1,100
425,127,55796,5,0,0:0:0:0:
259,37,55954,2,0,P|207:25|159:48,1,100
108,106,56191,1,0,0:0:0:0:
108,106,56270,2,0,B|88:183|88:183|90:220|90:220|68:302,1,200
16,139,56744,2,0,L|45:34,1,100
173,205,57060,1,0,0:0:0:0:
312,146,57217,1,0,0:0:0:0:
297,295,57375,1,0,0:0:0:0:
214,115,57533,1,0,0:0:0:0:
378,228,57691,1,0,0:0:0:0:
188,300,57849,1,0,0:0:0:0:
221,122,58007,1,0,0:0:0:0:
221,122,58086,1,0,0:0:0:0:
221,122,58165,5,0,0:0:0:0:
285,210,58323,1,0,0:0:0:0:
379,99,58481,2,0,P|423:85|477:102,1,100
333,278,58796,2,0,P|285:292|239:276,1,100
121,175,59112,1,0,0:0:0:0:
356,207,59270,6,0,P|405:257|338:351,1,200
143,314,59744,1,0,0:0:0:0:
334,204,59902,1,0,0:0:0:0:
255,372,60060,1,0,0:0:0:0:
181,180,60217,1,0,0:0:0:0:
143,314,60375,1,0,0:0:0:0:
320,209,60533,1,0,0:0:0:0:
76,138,60691,6,0,B|62:80|62:80|68:39,1,100
77,13,60928,1,0,0:0:0:0:
77,13,61007,1,0,0:0:0:0:
27,228,61165,1,0,0:0:0:0:
205,75,61323,1,0,0:0:0:0:
173,285,61481,1,0,0:0:0:0:
351,132,61638,2,0,P|401:125|448:161,1,100
202,372,61954,6,0,P|170:332|178:273,1,100
208,216,62191,1,0,0:0:0:0:
208,216,62270,1,0,0:0:0:0:
449,132,62428,1,0,0:0:0:0:
449,132,62507,1,0,0:0:0:0:
449,132,62586,1,0,0:0:0:0:
380,331,62744,1,0,0:0:0:0:
271,293,62902,1,0,0:0:0:0:
493,269,63060,1,0,0:0:0:0:
283,149,63217,6,0,P|259:79|416:78,1,300,0|0,0:0|2:0,0:0:0:0:
415,102,64796,1,0,0:0:0:0:
409,131,65112,1,0,0:0:0:0:
401,165,65270,1,0,0:0:0:0:
393,199,65428,1,0,0:0:0:0:
385,233,65586,1,0,0:0:0:0:
377,267,65744,2,0,P|421:302|498:261,2,150
369,233,67007,6,0,P|339:222|317:225,1,50
243,248,67323,1,0,0:0:0:0:
102,112,67638,1,0,0:0:0:0:
55,303,67954,1,0,0:0:0:0:
243,248,68270,6,0,P|276:246|301:253,2,50
353,301,68744,2,0,P|369:254|360:206,1,100
264,322,69217,2,0,L|258:375,1,50
172,223,69533,6,0,P|143:217|120:220,2,50
60,269,70007,2,0,P|43:222|56:173,1,100
147,296,70481,2,0,L|152:351,1,50
242,171,70796,6,0,P|297:157|337:173,1,100
402,224,71270,2,0,P|348:178|358:98,1,150
314,28,72060,2,0,P|384:93|473:60,1,200
466,191,73007,1,0,0:0:0:0:
466,191,73165,1,0,0:0:0:0:
466,191,73323,6,0,B|472:240|472:240|463:279,1,85.0000016212464
349,148,73638,2,0,B|343:99|343:99|352:60,1,85.0000016212464
386,228,73954,2,0,B|337:234|337:234|298:225,1,85.0000016212464
429,111,74270,2,0,B|478:105|478:105|517:114,1,85.0000016212464
381,322,74586,5,0,0:0:0:0:
381,322,74744,1,0,0:0:0:0:
270,224,74902,1,0,0:0:0:0:
270,224,75060,1,0,0:0:0:0:
262,346,75217,1,0,0:0:0:0:
262,346,75375,1,0,0:0:0:0:
389,200,75533,1,0,0:0:0:0:
389,200,75691,1,0,0:0:0:0:
270,224,75849,6,0,P|221:229|187:212,1,85.0000016212464
209,85,76165,2,0,P|258:80|292:97,1,85.0000016212464
389,200,76481,1,0,0:0:0:0:
468,108,76638,1,0,0:0:0:0:
468,108,76717,1,0,0:0:0:0:
468,108,76796,2,0,B|481:53|481:53|476:23,1,85.0000016212464
389,200,77112,6,0,L|394:288,1,85.0000016212464
276,138,77428,2,0,L|281:53,1,85.0000016212464
172,212,77744,2,0,L|177:300,1,85.0000016212464
182,378,77981,1,0,0:0:0:0:
182,378,78060,1,0,0:0:0:0:
170,189,78217,1,0,0:0:0:0:
317,295,78375,5,0,0:0:0:0:
317,295,78533,1,0,0:0:0:0:
88,269,78691,1,0,0:0:0:0:
88,269,78849,1,0,0:0:0:0:
223,41,79007,1,0,0:0:0:0:
223,41,79165,1,0,0:0:0:0:
434,256,79323,1,0,0:0:0:0:
434,256,79481,1,0,0:0:0:0:
166,177,79638,5,0,0:0:0:0:
388,112,79796,1,0,0:0:0:0:
334,329,79954,1,0,0:0:0:0:
383,127,80112,1,0,0:0:0:0:
182,180,80270,1,0,0:0:0:0:
397,260,80428,1,0,0:0:0:0:
380,29,80586,1,0,0:0:0:0:
395,245,80744,1,0,0:0:0:0:
203,184,80902,5,0,0:0:0:0:
203,184,81849,5,0,2:0:0:0:
203,184,82165,2,0,P|181:131|277:148,1,200,0|0,2:0|2:0,0:0:0:0:
213,195,83428,6,0,B|181:217|138:218|101:193|101:193|71:199|57:217,1,170.000003242493
165,125,83902,2,0,P|189:69|120:0,1,170.000003242493
261,126,84375,2,0,P|358:138|391:79,1,170.000003242493
316,73,84849,1,0,0:0:0:0:
306,53,85165,5,0,0:0:0:0:
433,208,85323,2,0,P|480:218|516:201,1,85.0000016212464
317,91,85638,2,0,L|233:108,1,85.0000016212464
365,152,85875,1,0,0:0:0:0:
365,153,85954,6,0,P|394:77|339:19,1,170.000003242493
286,164,86428,2,0,P|336:227|414:208,1,170.000003242493
315,90,86902,2,0,P|235:101|211:179,1,170.000003242493
365,153,87375,1,0,0:0:0:0:
388,149,87691,5,0,0:0:0:0:
318,345,87849,1,0,0:0:0:0:
451,282,88007,1,0,0:0:0:0:
255,212,88165,2,0,P|213:207|175:226,1,85.0000016212464
284,282,88402,1,0,0:0:0:0:
284,282,88481,6,0,B|366:267|366:267|403:232,1,127.50000243187
210,360,88954,2,0,B|128:345|128:345|91:310,1,127.50000243187
432,301,89428,2,0,P|472:232|415:164,1,170.000003242493
345,159,89902,1,0,0:0:0:0:
434,73,90060,1,0,0:0:0:0:
398,236,90217,1,0,0:0:0:0:
267,113,90375,2,0,L|262:20,1,85.0000016212464
175,190,90691,2,0,L|170:283,1,85.0000016212464
75,344,90928,1,0,0:0:0:0:
75,344,91007,6,0,L|63:174,1,170.000003242493
168,54,91481,1,0,0:0:0:0:
270,157,91638,2,0,P|317:171|356:158,1,85.0000016212464
410,111,91875,1,0,0:0:0:0:
410,111,91954,1,0,0:0:0:0:
443,247,92112,1,0,0:0:0:0:
313,97,92270,6,0,L|333:14,1,85.0000016212464
423,263,92586,2,0,P|379:277|339:265,1,85.0000016212464
192,106,92902,1,0,0:0:0:0:
167,88,92981,1,0,0:0:0:0:
139,80,93060,1,0,0:0:0:0:
109,83,93138,1,0,0:0:0:0:
82,95,93217,1,0,0:0:0:0:
61,116,93296,1,0,0:0:0:0:
49,142,93375,1,0,0:0:0:0:
46,172,93454,1,0,0:0:0:0:
54,200,93533,6,0,P|122:245|200:201,1,170.000003242493
133,84,94007,2,0,P|59:120|58:209,1,170.000003242493
194,209,94481,2,0,P|198:127|122:81,1,170.000003242493
127,162,94954,1,0,0:0:0:0:
122,185,95270,5,0,0:0:0:0:
240,325,95428,2,0,P|283:340|320:331,1,85.0000016212464
382,159,95744,2,0,P|336:153|302:169,1,85.0000016212464
420,224,95981,1,0,0:0:0:0:
420,224,96060,6,0,P|456:177|408:90,1,170.000003242493
262,207,96533,2,0,L|281:381,1,170.000003242493
192,181,97007,2,0,P|257:131|328:169,1,170.000003242493
354,250,97481,1,0,0:0:0:0:
350,275,97796,5,0,0:0:0:0:
447,79,97954,1,0,0:0:0:0:
496,225,98112,1,0,0:0:0:0:
301,129,98270,2,0,P|287:84|297:46,1,85.0000016212464
377,166,98507,1,0,0:0:0:0:
377,166,98586,6,0,L|366:301,1,127.50000243187
168,344,99060,2,0,L|157:209,1,127.50000243187
387,41,99533,2,0,L|372:216,1,170.000003242493
365,303,100007,1,0,0:0:0:0:
485,243,100165,1,0,0:0:0:0:
474,366,100323,1,0,0:0:0:0:
352,295,100481,2,0,P|303:286|266:305,1,85.0000016212464
486,228,100796,2,0,L|494:140,1,85.0000016212464
437,300,101112,5,0,0:0:0:0:
437,300,101270,1,0,0:0:0:0:
322,164,101428,1,0,0:0:0:0:
322,164,101586,1,0,0:0:0:0:
279,361,101744,1,0,0:0:0:0:
279,361,101902,1,0,0:0:0:0:
101,257,102060,1,0,0:0:0:0:
300,173,102217,1,0,0:0:0:0:
279,361,102375,5,0,0:0:0:0:
183,173,102533,1,0,0:0:0:0:
183,173,102612,1,0,0:0:0:0:
183,173,102691,1,0,0:0:0:0:
155,353,102849,1,0,0:0:0:0:
341,277,103007,2,0,P|381:272|423:293,1,85.0000016212464
139,356,103323,2,0,L|55:342,1,85.0000016212464
281,158,103638,6,0,P|309:95|219:24,1,200
24,141,104112,1,0,0:0:0:0:
72,237,104270,2,0,P|122:256|168:242,1,100
308,115,104586,1,0,0:0:0:0:
409,69,104744,1,0,0:0:0:0:
493,142,104902,2,0,P|506:197|488:240,1,100
310,342,105217,1,0,0:0:0:0:
192,309,105375,1,0,0:0:0:0:
281,220,105533,2,0,P|296:162|280:123,1,100
94,12,105849,1,0,0:0:0:0:
57,140,106007,1,0,0:0:0:0:
189,110,106165,6,0,P|243:105|283:127,1,100
341,314,106481,1,0,0:0:0:0:
225,276,106638,1,0,0:0:0:0:
441,250,106796,2,0,P|459:194|445:147,1,100
268,20,107112,1,0,0:0:0:0:
168,84,107270,1,0,0:0:0:0:
278,142,107428,2,0,P|295:188|286:236,1,100
193,353,107744,1,0,0:0:0:0:
286,236,107902,1,0,0:0:0:0:
136,211,108060,2,0,P|79:214|44:239,1,100
193,353,108375,2,0,P|235:379|285:380,1,100
481,216,108691,6,0,B|492:163|492:163|482:114,1,100
328,32,109007,1,0,0:0:0:0:
217,108,109165,1,0,0:0:0:0:
336,173,109323,2,0,P|348:229|326:271,1,100
122,349,109638,1,0,0:0:0:0:
246,344,109796,1,0,0:0:0:0:
42,281,109954,2,0,P|28:217|47:184,1,100
224,36,110270,1,0,0:0:0:0:
208,169,110428,1,0,0:0:0:0:
100,90,110586,2,0,P|47:78|6:95,1,100
208,169,110902,1,0,0:0:0:0:
322,130,111060,1,0,0:0:0:0:
450,169,111217,6,0,P|470:223|457:269,1,100
241,366,111533,1,0,0:0:0:0:
145,276,111691,1,0,0:0:0:0:
272,233,111849,2,0,P|290:170|279:135,1,100
115,11,112165,1,0,0:0:0:0:
59,131,112323,1,0,0:0:0:0:
192,111,112481,2,0,P|248:112|281:139,1,100
327,288,112796,5,0,0:0:0:0:
467,179,112954,1,0,0:0:0:0:
489,354,113112,1,0,0:0:0:0:
489,354,113191,1,0,0:0:0:0:
489,354,113270,1,0,0:0:0:0:
317,175,113428,1,0,0:0:0:0:
206,358,113586,1,0,0:0:0:0:
332,162,113744,6,0,P|380:151|425:173,1,100
341,341,114060,1,0,0:0:0:0:
230,230,114217,1,0,0:0:0:0:
352,354,114375,2,0,P|400:365|447:344,1,100
230,230,114691,1,0,0:0:0:0:
119,341,114849,1,0,0:0:0:0:
241,217,115007,2,0,P|289:206|336:227,1,100
119,341,115323,1,0,0:0:0:0:
8,230,115481,1,0,0:0:0:0:
130,354,115638,2,0,P|178:365|225:344,1,100
8,230,115954,1,0,0:0:0:0:
157,181,116112,1,0,0:0:0:0:
25,94,116270,6,0,P|13:46|34:-7,1,100
157,181,116586,1,0,0:0:0:0:
264,70,116744,1,0,0:0:0:0:
323,210,116902,2,0,P|369:232|421:224,1,100
264,70,117217,1,0,0:0:0:0:
323,210,117375,1,0,0:0:0:0:
157,181,117533,2,0,P|103:192|66:230,1,100
230,357,117849,1,0,0:0:0:0:
323,210,118007,1,0,0:0:0:0:
418,353,118165,1,0,0:0:0:0:
418,353,118244,1,0,0:0:0:0:
418,353,118323,1,0,0:0:0:0:
240,174,118481,1,0,0:0:0:0:
316,346,118638,1,0,0:0:0:0:
447,223,118796,6,0,P|460:175|444:128,1,100
282,32,119112,1,0,0:0:0:0:
224,183,119270,1,0,0:0:0:0:
108,62,119428,2,0,P|55:48|6:64,1,100
103,328,119744,1,0,0:0:0:0:
23,216,119902,1,0,0:0:0:0:
244,298,120060,2,0,P|295:297|335:264,1,100
419,69,120375,1,0,0:0:0:0:
506,233,120533,1,0,0:0:0:0:
396,50,120691,2,0,P|345:37|301:54,1,100
147,246,121007,1,0,0:0:0:0:
68,82,121165,1,0,0:0:0:0:
301,198,121323,6,0,P|312:249|291:293,1,100
63,350,121638,1,0,0:0:0:0:
151,144,121796,1,0,0:0:0:0:
151,144,121875,1,0,0:0:0:0:
151,144,121954,1,0,0:0:0:0:
188,302,122112,1,0,0:0:0:0:
17,202,122270,1,0,0:0:0:0:
197,66,122428,1,0,0:0:0:0:
39,192,122586,6,0,P|33:230|39:267,2,66.6666666666667
138,354,122902,2,0,P|144:316|138:279,2,66.6666666666667
208,160,123217,5,0,0:0:0:0:
469,350,123454,1,0,0:0:0:0:
504,29,123691,1,0,0:0:0:0:
421,185,123849,5,0,0:0:0:0:
343,132,124086,1,0,0:0:0:0:
335,227,124323,2,0,P|276:262|251:160,1,209.999993591309,0|0,0:0|2:0,0:0:0:0:
343,132,125112,5,0,2:0:0:0:
125,57,125428,1,0,0:0:0:0:
343,132,125744,1,0,0:0:0:0:
234,93,125902,1,0,0:0:0:0:
125,57,126375,5,0,0:0:0:0:
234,93,126612,1,0,0:0:0:0:
343,132,126849,2,0,P|383:90|286:25,1,209.999993591309,0|0,0:0|2:0,0:0:0:0:
57,229,127638,5,0,0:0:0:0:
54,242,127717,1,0,0:0:0:0:
53,255,127796,1,0,0:0:0:0:
53,268,127875,1,0,0:0:0:0:
55,281,127954,1,0,0:0:0:0:
59,294,128033,1,0,0:0:0:0:
66,306,128112,1,0,0:0:0:0:
75,316,128191,1,0,0:0:0:0:
85,324,128270,1,0,0:0:0:0:
98,319,128349,1,0,0:0:0:0:
111,315,128428,1,0,0:0:0:0:
124,314,128507,1,0,0:0:0:0:
137,315,128586,1,0,0:0:0:0:
150,318,128665,1,0,0:0:0:0:
163,323,128744,1,0,0:0:0:0:
175,329,128823,1,0,0:0:0:0:
186,337,128902,5,0,0:0:0:0:
305,288,129138,1,0,0:0:0:0:
428,324,129375,1,0,0:0:0:0:
256,192,129454,12,0,130796,0:0:0:0:
348,126,131428,5,0,0:0:0:0:
318,290,131665,1,0,0:0:0:0:
190,182,131902,1,0,0:0:0:0:
256,192,131981,12,0,133954,0:0:0:0:
196,311,134428,6,0,P|126:330|71:284,2,150
240,245,135533,1,0,0:0:0:0:
130,109,135849,2,0,L|126:54,1,50
219,151,136165,2,0,L|215:96,1,50
305,156,136481,6,0,P|376:169|421:115,2,150
194,37,137744,1,0,0:0:0:0:
79,240,138060,1,0,0:0:0:0:
19,82,138375,2,0,P|14:46|21:26,1,50
67,151,138691,2,0,P|89:163|114:165,1,50
214,256,139007,6,0,L|367:242,2,150
194,259,140586,1,0,0:0:0:0:
312,137,140902,2,0,P|321:99|317:77,1,50
261,14,141217,1,0,0:0:0:0:
194,82,141375,1,0,0:0:0:0:
361,20,141533,6,0,P|433:8|489:56,2,150
203,176,142796,1,0,0:0:0:0:
128,122,142954,1,0,0:0:0:0:
212,91,143112,1,0,0:0:0:0:
212,91,143270,1,0,0:0:0:0:
122,208,143428,2,0,L|117:262,1,50
31,176,143744,2,0,L|26:122,1,50
122,208,144060,6,0,L|108:357,2,150
124,193,145638,1,0,0:0:0:0:
296,56,145954,2,0,L|348:66,1,50
486,150,146270,2,0,L|434:160,1,50
288,234,146586,6,0,P|281:306|338:349,2,150
412,127,147849,1,0,0:0:0:0:
484,291,148165,1,0,0:0:0:0:
392,113,148481,2,0,P|363:105|337:108,1,50
333,229,148796,2,0,P|362:237|388:234,1,50
263,160,149112,6,0,L|106:187,2,150
438,64,150375,1,0,0:0:0:0:
475,234,150691,1,0,0:0:0:0:
283,235,151007,2,0,L|230:244,1,50
343,167,151323,2,0,L|396:176,1,50
255,122,151638,6,0,P|236:59|293:6,2,150
485,272,152902,5,0,0:0:0:0:
494,284,153533,6,0,B|497:298|497:313|479:316|459:311|455:288|475:257|493:244|497:205|479:167,1,175,0|0,2:0|0:0,0:0:0:0:
422,97,154165,6,0,P|375:80|329:98,1,100
188,251,154481,1,0,0:0:0:0:
140,112,154638,1,0,0:0:0:0:
337,200,154796,1,0,0:0:0:0:
184,35,154954,2,0,B|140:12|93:27|66:58|66:58|30:56|5:27,1,200
140,206,155428,2,0,P|154:159|140:112,1,100
28,338,155744,1,0,0:0:0:0:
141,351,155902,1,0,0:0:0:0:
337,316,156060,1,0,0:0:0:0:
139,205,156217,2,0,B|95:198|95:198|43:214,1,100
141,351,156533,2,0,B|219:333|219:333|255:337|255:337|337:316,1,200
481,189,157007,5,0,0:0:0:0:
377,93,157165,1,0,0:0:0:0:
345,220,157323,1,0,0:0:0:0:
456,79,157481,2,0,P|402:17|300:63,1,200
265,318,157954,1,0,0:0:0:0:
346,188,158112,1,0,0:0:0:0:
129,209,158270,1,0,0:0:0:0:
370,290,158428,1,0,0:0:0:0:
370,290,158507,1,0,0:0:0:0:
370,290,158586,1,0,0:0:0:0:
244,99,158744,1,0,0:0:0:0:
152,318,158902,1,0,0:0:0:0:
237,117,159060,1,0,0:0:0:0:
135,334,159217,6,0,P|42:342|12:254,1,200
83,62,159691,1,0,0:0:0:0:
184,205,159849,1,0,0:0:0:0:
9,97,160007,2,0,P|1:48|23:4,1,100
184,205,160323,1,0,0:0:0:0:
295,90,160481,1,0,0:0:0:0:
348,289,160638,1,0,0:0:0:0:
222,137,160796,2,0,P|173:127|128:147,1,100
348,289,161112,1,0,0:0:0:0:
450,145,161270,2,0,L|463:37,1,100
348,289,161586,1,0,0:0:0:0:
55,187,161744,6,0,B|34:143|49:97|88:73|88:73|75:28|19:20,1,220.000006713867
128,146,162217,2,0,P|178:153|226:122,1,110.000003356934
331,236,162533,2,0,P|375:266|428:261,1,110.000003356934
219,318,162849,1,0,0:0:0:0:
219,318,162928,1,0,0:0:0:0:
219,318,163007,5,0,0:0:0:0:
394,192,163165,1,0,0:0:0:0:
426,369,163323,1,0,0:0:0:0:
392,174,163481,1,0,0:0:0:0:
305,374,163638,5,0,0:0:0:0:
500,178,163796,1,0,0:0:0:0:
288,108,163954,2,0,P|274:53|299:6,1,110.000003356934
512,352,164270,6,0,B|472:355|472:355|445:350|445:350|412:352,1,100
293,284,164586,1,0,0:0:0:0:
377,142,164744,1,0,0:0:0:0:
177,107,164902,1,0,0:0:0:0:
408,211,165060,2,0,P|451:157|376:67,1,200
177,107,165533,1,0,0:0:0:0:
281,246,165691,1,0,0:0:0:0:
376,96,165849,2,0,P|389:46|360:-8,1,100
177,107,166165,1,0,0:0:0:0:
300,253,166323,2,0,B|351:267|351:267|400:256,1,100
241,48,166638,2,0,B|197:6|138:22|110:49|110:49|81:16|44:9,1,220.000006713867
177,107,167112,5,0,0:0:0:0:
59,273,167270,1,0,0:0:0:0:
35,131,167428,1,0,0:0:0:0:
201,249,167586,2,0,B|229:270|271:261|271:261|309:269|346:245|346:245|371:252|387:268,1,200
184,236,168060,1,0,0:0:0:0:
322,140,168217,1,0,0:0:0:0:
385,347,168375,2,0,P|437:358|481:336,1,100
344,146,168691,1,0,0:0:0:0:
175,253,168849,2,0,B|155:253|136:243|136:243|130:215|110:199|110:199|72:197|24:220|24:220|40:236|64:244,1,220.000006713867
253,175,169323,6,0,P|268:124|251:75,1,100
56,18,169638,1,0,0:0:0:0:
12,228,169796,1,0,0:0:0:0:
188,129,169954,1,0,0:0:0:0:
0,243,170112,2,0,P|-8:299|19:334,1,100
183,368,170428,1,0,0:0:0:0:
183,368,170507,1,0,0:0:0:0:
183,368,170586,1,0,0:0:0:0:
343,233,170744,1,0,0:0:0:0:
405,360,170902,1,0,0:0:0:0:
194,239,171060,1,0,0:0:0:0:
371,220,171217,5,0,0:0:0:0:
394,194,171296,1,0,0:0:0:0:
406,162,171375,1,0,0:0:0:0:
405,127,171454,1,0,0:0:0:0:
389,96,171533,1,0,0:0:0:0:
363,73,171612,1,0,0:0:0:0:
330,63,171691,1,0,0:0:0:0:
295,66,171770,1,0,0:0:0:0:
265,83,171849,5,0,0:0:0:0:
184,247,172007,1,0,0:0:0:0:
58,122,172165,1,0,0:0:0:0:
321,197,172323,2,0,P|339:248|317:294,1,100
90,361,172638,1,0,0:0:0:0:
150,70,172796,1,0,0:0:0:0:
184,247,172954,1,0,0:0:0:0:
19,189,173112,5,0,0:0:0:0:
254,109,173270,1,0,0:0:0:0:
30,186,173428,1,0,0:0:0:0:
209,347,173586,1,0,0:0:0:0:
243,354,173665,1,0,0:0:0:0:
277,350,173744,1,0,0:0:0:0:
303,326,173823,1,0,0:0:0:0:
337,317,173902,1,0,0:0:0:0:
371,320,173981,1,0,0:0:0:0:
403,333,174060,6,0,P|378:363|349:272,1,200
423,232,174533,1,0,0:0:0:0:
492,174,174691,1,0,0:0:0:0:
458,90,174849,1,0,0:0:0:0:
368,98,175007,1,0,0:0:0:0:
345,185,175165,1,0,0:0:0:0:
423,232,175323,1,0,0:0:0:0:
458,90,175481,1,0,0:0:0:0:
345,185,175638,5,0,0:0:0:0:
258,208,175796,1,0,0:0:0:0:
193,145,175954,1,0,0:0:0:0:
221,59,176112,1,0,0:0:0:0:
345,185,176270,1,0,0:0:0:0:
165,233,176428,1,0,0:0:0:0:
165,233,176507,1,0,0:0:0:0:
165,233,176586,1,0,0:0:0:0:
221,59,176744,1,0,0:0:0:0:
246,278,176902,5,0,0:0:0:0:
167,322,177060,1,0,0:0:0:0:
84,286,177217,1,0,0:0:0:0:
74,197,177375,1,0,0:0:0:0:
141,137,177533,1,0,0:0:0:0:
167,322,177691,5,0,0:0:0:0:
161,341,177770,1,0,0:0:0:0:
155,360,177849,1,0,0:0:0:0:
313,279,178007,5,0,0:0:0:0:
305,303,178086,1,0,0:0:0:0:
297,328,178165,1,0,0:0:0:0:
472,223,178323,5,0,0:0:0:0:
462,252,178402,1,0,0:0:0:0:
452,282,178481,1,0,0:0:0:0:
343,67,178638,5,0,0:0:0:0:
330,105,178717,1,0,0:0:0:0:
317,144,178796,1,0,0:0:0:0:
155,13,178954,5,0,0:0:0:0:
138,62,179033,1,0,0:0:0:0:
121,113,179112,1,0,0:0:0:0:
343,67,179270,1,0,0:0:0:0:
220,293,179428,6,0,B|176:318|121:309|121:309|143:266|187:240,1,200
350,229,179902,1,0,0:0:0:0:
468,110,180060,1,0,0:0:0:0:
485,254,180217,1,0,0:0:0:0:
323,79,180375,1,0,0:0:0:0:
474,243,180533,1,0,0:0:0:0:
310,68,180691,6,0,B|276:46|247:2|247:2|276:63|271:122,1,209.999993591309
246,242,181165,1,0,0:0:0:0:
95,355,181323,1,0,0:0:0:0:
233,366,181481,1,0,0:0:0:0:
0,257,181638,1,0,0:0:0:0:
220,360,181796,1,0,0:0:0:0:
31,174,181954,6,0,B|12:113|38:43|38:43|41:93|64:124,1,220.000006713867
193,231,182428,1,0,0:0:0:0:
327,128,182586,1,0,0:0:0:0:
411,306,182744,1,0,0:0:0:0:
489,60,182902,1,0,0:0:0:0:
420,291,183060,1,0,0:0:0:0:
391,88,183217,6,0,P|300:57|254:142,1,200
420,291,183691,1,0,0:0:0:0:
262,344,183849,1,0,0:0:0:0:
422,193,184007,1,0,0:0:0:0:
422,193,184086,1,0,0:0:0:0:
422,193,184165,1,0,0:0:0:0:
428,181,184481,6,0,P|438:124|419:88,1,100
195,46,184796,1,0,0:0:0:0:
321,29,184954,1,0,0:0:0:0:
321,29,185033,1,0,0:0:0:0:
321,29,185112,1,0,0:0:0:0:
224,171,185270,1,0,0:0:0:0:
224,171,185349,1,0,0:0:0:0:
224,171,185428,1,0,0:0:0:0:
64,92,185586,1,0,0:0:0:0:
64,92,185665,1,0,0:0:0:0:
64,92,185744,6,0,P|51:39|71:-6,1,100
221,186,186060,2,0,L|200:289,1,100
406,149,186375,2,0,L|385:46,1,100
379,23,186612,1,0,0:0:0:0:
379,23,186691,1,0,0:0:0:0:
354,226,186849,1,0,0:0:0:0:
354,226,186928,1,0,0:0:0:0:
354,226,187007,6,0,P|403:244|453:228,1,100
502,179,187244,1,0,0:0:0:0:
502,179,187323,1,0,0:0:0:0:
328,344,187481,1,0,0:0:0:0:
293,340,187560,1,0,0:0:0:0:
258,336,187638,1,0,0:0:0:0:
223,332,187717,1,0,0:0:0:0:
188,329,187796,1,0,0:0:0:0:
153,326,187875,1,0,0:0:0:0:
118,323,187954,2,0,B|63:328|63:328|18:313,1,100
109,244,188191,1,0,0:0:0:0:
109,244,188270,5,0,0:0:0:0:
135,220,188349,1,0,0:0:0:0:
150,188,188428,1,0,0:0:0:0:
151,152,188507,1,0,0:0:0:0:
136,119,188586,1,0,0:0:0:0:
107,98,188665,1,0,0:0:0:0:
72,89,188744,1,0,0:0:0:0:
38,97,188823,1,0,0:0:0:0:
15,123,188902,1,0,0:0:0:0:
10,157,188981,1,0,0:0:0:0:
23,189,189060,1,0,0:0:0:0:
53,205,189138,1,0,0:0:0:0:
87,207,189217,1,0,0:0:0:0:
121,198,189296,1,0,0:0:0:0:
153,187,189375,1,0,0:0:0:0:
187,185,189454,1,0,0:0:0:0:
220,195,189533,6,0,P|235:250|216:295,1,100
150,351,189770,1,0,0:0:0:0:
150,351,189849,1,0,0:0:0:0:
203,109,190007,2,0,P|243:68|291:62,1,100
373,91,190244,1,0,0:0:0:0:
373,91,190323,1,0,0:0:0:0:
137,166,190481,2,0,P|81:151|52:112,1,100
36,28,190717,1,0,0:0:0:0:
36,28,190796,1,0,0:0:0:0:
220,195,190954,5,0,0:0:0:0:
25,340,191112,1,0,0:0:0:0:
209,369,191270,1,0,0:0:0:0:
28,189,191428,1,0,0:0:0:0:
272,285,191586,1,0,0:0:0:0:
112,333,191744,1,0,0:0:0:0:
312,70,191902,1,0,0:0:0:0:
364,224,192060,5,0,0:0:0:0:
364,224,193007,5,0,2:0:0:0:
364,224,193323,2,0,P|360:178|438:228,1,200,0|0,2:0|2:0,0:0:0:0:
75,183,194586,6,0,B|51:106|51:106|64:16,1,170.000003242493
142,240,195060,2,0,B|87:299|87:299|2:333,1,170.000003242493
157,153,195533,2,0,B|235:170|235:170|307:226,1,170.000003242493
386,317,196007,1,0,0:0:0:0:
377,341,196323,5,0,0:0:0:0:
486,180,196481,1,0,0:0:0:0:
496,295,196638,1,0,0:0:0:0:
370,141,196796,2,0,P|361:94|381:51,1,85.0000016212464
486,180,197033,1,0,0:0:0:0:
486,180,197112,6,0,B|502:271|502:271|492:309|492:309|498:358,1,170.000003242493
299,201,197586,2,0,B|369:141|369:141|407:131|407:131|447:101,1,170.000003242493
411,353,198060,2,0,B|324:321|324:321|296:293|296:293|250:274,1,170.000003242493
154,233,198533,1,0,0:0:0:0:
129,244,198849,5,0,0:0:0:0:
197,95,199007,1,0,0:0:0:0:
33,114,199165,1,0,0:0:0:0:
129,244,199323,1,0,0:0:0:0:
197,95,199481,1,0,0:0:0:0:
115,259,199638,6,0,P|57:274|3:235,1,127.50000243187
261,56,200112,2,0,P|210:20|150:34,1,127.50000243187
271,302,200586,2,0,P|346:327|406:253,1,170.000003242493
415,179,201060,1,0,0:0:0:0:
458,46,201217,1,0,0:0:0:0:
503,134,201375,1,0,0:0:0:0:
370,91,201533,2,0,P|321:87|288:104,1,85.0000016212464
232,164,201770,1,0,0:0:0:0:
232,164,201849,1,0,0:0:0:0:
152,49,202007,1,0,0:0:0:0:
413,155,202165,6,0,P|446:99|394:18,1,170.000003242493
395,166,202638,1,0,0:0:0:0:
220,151,202796,2,0,P|204:104|213:66,1,85.0000016212464
245,2,203033,1,0,0:0:0:0:
245,2,203112,1,0,0:0:0:0:
305,175,203270,1,0,0:0:0:0:
159,275,203428,6,0,L|70:266,1,85.0000016212464
264,362,203744,2,0,L|353:353,1,85.0000016212464
139,155,204060,1,0,0:0:0:0:
123,129,204138,1,0,0:0:0:0:
119,100,204217,1,0,0:0:0:0:
126,71,204296,1,0,0:0:0:0:
144,48,204375,1,0,0:0:0:0:
169,33,204454,1,0,0:0:0:0:
198,29,204533,1,0,0:0:0:0:
227,37,204612,1,0,0:0:0:0:
250,55,204691,6,0,P|332:64|392:2,1,170.000003242493
194,148,205165,2,0,P|112:156|52:94,1,170.000003242493
283,235,205638,2,0,P|364:243|424:181,1,170.000003242493
443,93,206112,1,0,0:0:0:0:
430,66,206428,5,0,0:0:0:0:
508,235,206586,1,0,0:0:0:0:
510,133,206744,1,0,0:0:0:0:
423,297,206902,2,0,P|379:313|339:304,1,85.0000016212464
435,221,207138,1,0,0:0:0:0:
435,221,207217,6,0,P|493:260|475:357,1,170.000003242493
339,216,207691,2,0,P|330:101|347:47,1,170.000003242493
268,307,208165,2,0,P|195:341|126:296,1,170.000003242493
98,211,208638,1,0,0:0:0:0:
99,180,208954,5,0,0:0:0:0:
26,307,209112,1,0,0:0:0:0:
176,238,209270,1,0,0:0:0:0:
9,167,209428,2,0,P|1:122|10:85,1,85.0000016212464
103,183,209665,1,0,0:0:0:0:
103,183,209744,6,0,B|101:235|101:235|89:269|89:269|87:316,1,127.50000243187
276,169,210217,2,0,B|274:117|274:117|262:83|262:83|260:36,1,127.50000243187
470,194,210691,2,0,B|467:259|467:259|452:302|452:302|449:361,1,170.000003242493
471,177,211165,1,0,0:0:0:0:
398,85,211323,1,0,0:0:0:0:
363,188,211481,1,0,0:0:0:0:
489,82,211638,2,0,P|506:39|500:-2,1,85.0000016212464
349,202,211954,2,0,L|354:288,1,85.0000016212464
259,98,212270,5,0,0:0:0:0:
259,98,212428,1,0,0:0:0:0:
174,271,212586,1,0,0:0:0:0:
174,271,212744,1,0,0:0:0:0:
19,95,212902,1,0,0:0:0:0:
19,95,213060,1,0,0:0:0:0:
256,207,213217,1,0,0:0:0:0:
50,258,213375,1,0,0:0:0:0:
136,42,213533,5,0,0:0:0:0:
168,297,213691,1,0,0:0:0:0:
168,297,213770,1,0,0:0:0:0:
168,297,213849,1,0,0:0:0:0:
299,170,214007,1,0,0:0:0:0:
74,91,214165,2,0,P|57:52|64:10,1,85.0000016212464
296,193,214481,2,0,L|283:286,1,85.0000016212464
230,71,214796,5,0,0:0:0:0:
155,153,214954,1,0,0:0:0:0:
117,51,215112,1,0,0:0:0:0:
117,51,215270,1,0,0:0:0:0:
312,146,215428,5,0,0:0:0:0:
230,71,215586,1,0,0:0:0:0:
332,33,215744,1,0,0:0:0:0:
332,33,215902,1,0,0:0:0:0:
237,228,216060,5,0,0:0:0:0:
312,146,216217,1,0,0:0:0:0:
350,248,216375,1,0,0:0:0:0:
350,248,216533,1,0,0:0:0:0:
155,153,216691,5,0,0:0:0:0:
237,228,216849,1,0,0:0:0:0:
135,266,217007,1,0,0:0:0:0:
135,266,217165,1,0,0:0:0:0:
42,64,217323,5,0,0:0:0:0:
182,25,217481,1,0,0:0:0:0:
140,160,217638,1,0,0:0:0:0:
140,160,217796,1,0,0:0:0:0:
396,151,217954,5,0,0:0:0:0:
256,112,218112,1,0,0:0:0:0:
298,247,218270,1,0,0:0:0:0:
298,247,218428,1,0,0:0:0:0:
42,193,218586,5,0,0:0:0:0:
182,154,218744,1,0,0:0:0:0:
140,289,218902,1,0,0:0:0:0:
140,289,219060,1,0,0:0:0:0:
396,280,219217,5,0,0:0:0:0:
256,241,219375,1,0,0:0:0:0:
510,194,219533,2,0,P|521:135|505:98,1,100
304,321,219849,5,0,0:0:0:0:
432,214,220007,1,0,0:0:0:0:
467,369,220165,1,0,0:0:0:0:
467,369,220323,1,0,0:0:0:0:
197,192,220481,5,0,0:0:0:0:
304,321,220638,1,0,0:0:0:0:
149,356,220796,1,0,0:0:0:0:
149,356,220954,1,0,0:0:0:0:
325,85,221112,5,0,0:0:0:0:
197,192,221270,1,0,0:0:0:0:
162,37,221428,1,0,0:0:0:0:
162,37,221586,1,0,0:0:0:0:
432,214,221744,5,0,0:0:0:0:
325,85,221902,1,0,0:0:0:0:
480,50,222060,1,0,0:0:0:0:
480,50,222217,1,0,0:0:0:0:
304,321,222375,5,0,0:0:0:0:
249,177,222533,1,0,0:0:0:0:
463,234,222691,1,0,0:0:0:0:
463,234,222849,1,0,0:0:0:0:
243,256,223007,5,0,0:0:0:0:
387,311,223165,1,0,0:0:0:0:
330,97,223323,1,0,0:0:0:0:
330,97,223481,1,0,0:0:0:0:
304,321,223638,5,0,0:0:0:0:
439,206,223796,1,0,0:0:0:0:
218,190,223954,2,0,P|200:141|216:91,1,100
249,28,224191,1,0,0:0:0:0:
249,28,224270,1,0,0:0:0:0:
453,95,224428,1,0,0:0:0:0:
249,28,224586,2,0,P|199:20|153:44,1,100
51,301,224902,5,0,0:0:0:0:
197,283,225060,1,0,0:0:0:0:
108,165,225217,1,0,0:0:0:0:
108,165,225375,1,0,0:0:0:0:
129,349,225533,1,0,0:0:0:0:
191,199,225691,1,0,0:0:0:0:
31,219,225849,1,0,0:0:0:0:
31,219,226007,1,0,0:0:0:0:
316,322,226165,5,0,0:0:0:0:
378,172,226323,1,0,0:0:0:0:
476,302,226481,1,0,0:0:0:0:
476,302,226638,1,0,0:0:0:0:
294,231,226796,1,0,0:0:0:0:
470,209,226954,1,0,0:0:0:0:
401,374,227112,1,0,0:0:0:0:
401,374,227270,1,0,0:0:0:0:
270,131,227428,5,0,0:0:0:0:
201,295,227586,1,0,0:0:0:0:
93,153,227744,1,0,0:0:0:0:
93,153,227902,1,0,0:0:0:0:
294,231,228060,1,0,0:0:0:0:
176,73,228217,1,0,0:0:0:0:
100,255,228375,1,0,0:0:0:0:
100,255,228533,1,0,0:0:0:0:
310,120,228691,5,0,0:0:0:0:
403,291,228849,1,0,0:0:0:0:
505,123,229007,1,0,0:0:0:0:
505,123,229165,1,0,0:0:0:0:
294,231,229323,1,0,0:0:0:0:
405,45,229481,1,0,0:0:0:0:
510,235,229638,1,0,0:0:0:0:
510,235,229796,1,0,0:0:0:0:
277,70,229954,5,0,0:0:0:0:
202,248,230112,1,0,0:0:0:0:
390,218,230270,1,0,0:0:0:0:
390,218,230428,1,0,0:0:0:0:
24,172,230586,5,0,0:0:0:0:
202,248,230744,1,0,0:0:0:0:
172,60,230902,1,0,0:0:0:0:
172,60,231060,1,0,0:0:0:0:
76,335,231217,5,0,0:0:0:0:
303,221,231375,1,0,0:0:0:0:
214,347,231533,1,0,0:0:0:0:
214,347,231691,1,0,0:0:0:0:
57,179,231849,2,0,P|43:126|60:84,1,100
299,29,232165,1,0,0:0:0:0:
355,208,232323,1,0,0:0:0:0:
494,89,232481,5,0,0:0:0:0:
243,135,232638,1,0,0:0:0:0:
415,19,232796,1,0,0:0:0:0:
459,296,232954,1,0,0:0:0:0:
348,127,233112,1,0,0:0:0:0:
508,199,233270,1,0,0:0:0:0:
241,335,233428,1,0,0:0:0:0:
465,376,233586,1,0,0:0:0:0:
227,331,233744,1,0,0:0:0:0:
457,108,233902,5,0,0:0:0:0:
467,74,233981,1,0,0:0:0:0:
478,40,234060,1,0,0:0:0:0:
246,180,234217,5,0,0:0:0:0:
258,139,234296,1,0,0:0:0:0:
271,98,234375,2,0,B|284:48|284:48|277:-5,1,100
31,178,234691,5,0,0:0:0:0:
12,218,234770,1,0,0:0:0:0:
6,262,234849,1,0,0:0:0:0:
11,306,234928,1,0,0:0:0:0:
32,339,235007,6,0,P|130:351|143:253,2,220.000006713867
12,218,235796,1,0,0:0:0:0:
114,107,235954,2,0,P|161:94|217:121,1,110.000003356934
295,246,236270,1,0,0:0:0:0:
450,209,236428,1,0,0:0:0:0:
280,268,236586,2,0,P|266:328|359:358,1,165.000005035401
295,246,236902,2,0,P|226:231|188:254,1,110.000003356934
424,316,237217,1,0,0:0:0:0:
450,135,237375,1,0,0:0:0:0:
450,135,237454,1,0,0:0:0:0:
450,135,237533,6,0,B|475:211|475:211|475:242|475:242|522:278|510:349,2,220.000006713867
366,22,238323,1,0,0:0:0:0:
265,115,238481,2,0,P|209:133|161:111,1,110.000003356934
338,25,238796,2,0,B|404:20|404:20|438:31|438:31|502:26,1,165.000005035401
512,24,239112,1,0,0:0:0:0:
391,128,239270,2,0,P|374:182|395:233,1,110.000003356934
512,285,239586,2,0,P|433:256|371:303,1,165.000005035401
368,310,239902,1,0,0:0:0:0:
177,244,240060,6,0,B|155:204|169:155|201:131|201:131|208:81|166:46,2,220.000006713867
257,353,240849,1,0,0:0:0:0:
179,266,241007,2,0,P|120:243|74:257,1,110.000003356934
254,203,241323,2,0,B|322:195|322:195|369:204,1,110.000003356934
440,228,241560,1,0,0:0:0:0:
440,228,241638,1,0,0:0:0:0:
180,162,241796,1,0,0:0:0:0:
410,127,241954,2,0,P|436:70|373:2,1,165.000005035401
365,72,242270,2,0,B|305:83|305:83|254:72,1,110.000003356934
124,29,242586,5,0,0:0:0:0:
48,280,242744,1,0,0:0:0:0:
48,280,242902,1,0,0:0:0:0:
17,77,243060,1,0,0:0:0:0:
235,260,243217,1,0,0:0:0:0:
235,260,243375,1,0,0:0:0:0:
308,69,243533,6,0,P|364:17|461:91,1,220.000006713867
403,282,244007,1,0,0:0:0:0:
299,82,244165,2,0,P|229:68|178:140,1,165.000005035401
180,160,244481,1,0,0:0:0:0:
427,193,244638,1,0,0:0:0:0:
463,216,244717,1,0,0:0:0:0:
485,253,244796,1,0,0:0:0:0:
487,297,244875,1,0,0:0:0:0:
469,336,244954,1,0,0:0:0:0:
434,363,245033,1,0,0:0:0:0:
392,371,245112,5,0,0:0:0:0:
365,329,245191,1,0,0:0:0:0:
322,304,245270,1,0,0:0:0:0:
272,299,245349,1,0,0:0:0:0:
222,305,245428,1,0,0:0:0:0:
176,323,245507,1,0,0:0:0:0:
140,357,245586,1,0,0:0:0:0:
90,364,245665,1,0,0:0:0:0:
45,343,245744,1,0,0:0:0:0:
29,296,245823,1,0,0:0:0:0:
42,248,245902,1,0,0:0:0:0:
87,227,245981,1,0,0:0:0:0:
135,235,246060,1,0,0:0:0:0:
164,274,246138,1,0,0:0:0:0:
207,297,246217,1,0,0:0:0:0:
256,295,246296,1,0,0:0:0:0:
299,273,246375,1,0,0:0:0:0:
321,228,246454,1,0,0:0:0:0:
321,178,246533,6,0,B|313:144|313:144|301:122,1,55.0000016784668
226,65,246691,1,0,0:0:0:0:
226,65,246770,2,0,B|192:73|192:73|170:85,1,55.0000016784668
113,160,246928,1,0,0:0:0:0:
113,160,247007,2,0,B|121:194|121:194|133:216,1,55.0000016784668
208,273,247165,1,0,0:0:0:0:
208,273,247244,2,0,B|242:265|242:265|264:253,1,55.0000016784668
361,345,247402,1,0,0:0:0:0:
361,345,247481,2,0,B|327:337|327:337|305:325,1,55.0000016784668
434,297,247638,5,0,0:0:0:0:
475,272,247717,1,0,0:0:0:0:
496,228,247796,1,0,0:0:0:0:
489,179,247875,1,0,0:0:0:0:
455,144,247954,1,0,0:0:0:0:
408,133,248033,1,0,0:0:0:0:
363,151,248112,1,0,0:0:0:0:
336,193,248191,1,0,0:0:0:0:
336,242,248270,1,0,0:0:0:0:
336,291,248349,1,0,0:0:0:0:
308,332,248428,1,0,0:0:0:0:
263,350,248507,1,0,0:0:0:0:
216,339,248586,1,0,0:0:0:0:
182,304,248665,1,0,0:0:0:0:
175,255,248744,1,0,0:0:0:0:
196,211,248823,1,0,0:0:0:0:
238,187,248902,1,0,0:0:0:0:
280,160,248981,1,0,0:0:0:0:
307,118,249060,6,0,P|312:84|305:59,1,55.0000016784668
232,3,249217,1,0,0:0:0:0:
232,3,249296,2,0,P|198:-2|173:5,1,55.0000016784668
117,78,249454,1,0,0:0:0:0:
117,78,249533,2,0,P|112:112|119:137,1,55.0000016784668
192,193,249691,1,0,0:0:0:0:
192,193,249770,2,0,P|226:198|251:191,1,55.0000016784668
127,271,249928,1,0,0:0:0:0:
127,271,250007,2,0,P|93:266|68:273,1,55.0000016784668
190,361,250165,6,0,B|241:372|241:372|306:353,1,110.000003356934
191,10,250481,2,0,B|167:0|124:-5|78:36|82:97|113:128|113:128|93:167|40:176|40:176|79:214|73:273,1,389.999982147218
61,318,251033,1,0,0:0:0:0:
100,288,251112,1,0,0:0:0:0:
148,279,251191,1,0,0:0:0:0:
197,283,251270,1,0,0:0:0:0:
242,302,251349,1,0,0:0:0:0:
278,335,251428,5,0,0:0:0:0:
255,291,251507,1,0,0:0:0:0:
255,241,251586,1,0,0:0:0:0:
269,193,251665,1,0,0:0:0:0:
304,158,251744,2,0,P|333:151|365:157,3,55.0000016784668
313,234,252060,1,0,0:0:0:0:
266,222,252138,1,0,0:0:0:0:
234,186,252217,1,0,0:0:0:0:
228,137,252296,1,0,0:0:0:0:
250,94,252375,1,0,0:0:0:0:
292,70,252454,1,0,0:0:0:0:
341,65,252533,1,0,0:0:0:0:
388,79,252612,1,0,0:0:0:0:
423,114,252691,6,0,B|443:171|443:171|437:224,1,110.000003356934
179,355,253007,1,0,0:0:0:0:
36,137,253165,2,0,P|30:80|160:54,1,220.000006713867
227,220,253638,1,0,0:0:0:0:
63,334,253796,1,0,0:0:0:0:
350,356,253954,1,0,0:0:0:0:
114,177,254112,1,0,0:0:0:0:
397,75,254270,1,0,0:0:0:0:
354,337,254428,1,0,0:0:0:0:
255,155,254586,6,0,B|242:115|242:115|244:82,2,73.3333355712891
375,296,254902,2,0,B|387:256|387:256|385:223,2,73.3333355712891
194,369,255217,5,0,0:0:0:0:
161,68,265323,6,0,P|96:48|46:82,1,129.999994049073
110,120,265796,2,0,P|106:182|89:248,1,129.999994049073
61,315,266270,1,0,0:0:0:0:
145,273,266428,1,0,0:0:0:0:
233,292,266586,1,0,0:0:0:0:
244,310,266902,1,0,0:0:0:0:
257,332,267217,5,0,0:0:0:0:
339,366,267375,1,0,0:0:0:0:
423,334,267533,1,0,0:0:0:0:
460,251,267691,1,0,0:0:0:0:
386,194,267849,2,0,P|373:154|424:85,1,129.999994049073
445,153,268323,2,0,P|339:144|272:88,1,194.999991073609
264,66,269428,5,0,0:0:0:0:
147,200,269744,5,0,0:0:0:0:
163,101,270060,1,0,0:0:0:0:
239,164,270375,2,0,P|288:175|353:133,1,129.999994049073
396,79,270849,2,0,P|359:118|363:201,1,139.999995727539
387,269,271323,2,0,P|360:200|294:169,1,150.000005722046
74,181,271954,1,0,0:0:0:0:
188,365,272270,1,0,0:0:0:0:
219,95,272586,1,0,0:0:0:0:
59,198,272902,6,0,B|13:239|2:295|37:335|89:338|114:296|109:265,1,225.000008583069
109,244,273849,1,0,1:0:0:0:
109,244,275428,6,0,B|97:200|125:166|125:166|172:175|199:224,1,179.999994506836
238,317,275902,2,0,B|265:366|311:374|311:374|340:341|328:297,1,179.999994506836
306,201,276375,1,0,0:0:0:0:
395,228,276533,2,0,P|446:223|452:108,1,179.999994506836
306,201,277007,1,0,0:0:0:0:
239,81,277165,1,0,0:0:0:0:
385,73,277323,2,0,P|406:26|397:-18,1,89.9999972534181
171,43,277638,2,0,P|159:85|177:133,1,89.9999972534181
397,334,277954,6,0,B|456:339|495:280|495:280|472:259|438:256,1,179.999994506836
235,239,278428,2,0,B|200:287|231:351|231:351|261:341|281:314,1,179.999994506836
397,147,278902,2,0,B|372:93|301:88|301:88|294:118|308:149,1,179.999994506836
340,242,279375,1,0,0:0:0:0:
228,154,279533,2,0,P|220:103|226:60,1,89.9999972534181
237,29,279770,1,0,0:0:0:0:
237,29,279849,1,0,0:0:0:0:
129,237,280007,1,0,0:0:0:0:
134,268,280323,1,0,0:0:0:0:
9,66,280481,5,0,0:0:0:0:
336,127,280717,1,0,0:0:0:0:
119,379,280954,2,0,P|45:382|21:285,1,179.999994506836
101,183,281428,1,0,0:0:0:0:
197,280,281586,1,0,0:0:0:0:
197,280,281665,1,0,0:0:0:0:
197,280,281744,6,0,P|245:296|283:282,1,89.9999972534181
366,190,282060,1,0,0:0:0:0:
438,344,282217,1,0,0:0:0:0:
350,174,282375,2,0,B|339:118|339:118|346:78,1,89.9999972534181
421,363,282691,2,0,P|375:377|332:367,1,89.9999972534181
284,137,283007,6,0,P|341:97|422:153,1,179.999994506836
276,158,283481,1,0,0:0:0:0:
160,106,283638,2,0,P|146:56|158:20,1,89.9999972534181
272,179,283954,2,0,L|261:273,1,89.9999972534181
66,348,284270,5,0,0:0:0:0:
38,184,284428,1,0,0:0:0:0:
38,184,284507,1,0,0:0:0:0:
38,184,284586,1,0,0:0:0:0:
66,348,284744,1,0,0:0:0:0:
238,191,284902,1,0,0:0:0:0:
272,179,284981,1,0,0:0:0:0:
308,180,285060,1,0,0:0:0:0:
340,194,285138,1,0,0:0:0:0:
364,220,285217,1,0,0:0:0:0:
344,249,285296,1,0,0:0:0:0:
335,283,285375,1,0,0:0:0:0:
340,318,285454,1,0,0:0:0:0:
358,349,285533,6,0,P|421:369|477:282,1,179.999994506836
218,122,286007,2,0,P|169:166|216:258,1,179.999994506836
484,114,286481,2,0,P|469:49|366:44,1,179.999994506836
212,257,286954,1,0,0:0:0:0:
205,279,287270,5,0,0:0:0:0:
198,302,287349,1,0,0:0:0:0:
190,326,287428,1,0,0:0:0:0:
355,231,287586,1,0,0:0:0:0:
226,133,287744,2,0,P|211:86|224:49,1,89.9999972534181
299,152,287981,1,0,0:0:0:0:
299,152,288060,6,0,P|264:201|160:175,1,179.999994506836
343,30,288533,2,0,B|414:11|461:56|461:56|443:88|418:95,1,179.999994506836
160,175,289007,2,0,B|89:194|42:149|42:149|60:117|79:113,1,179.999994506836
223,49,289481,1,0,0:0:0:0:
250,62,289796,5,0,0:0:0:0:
125,291,289954,1,0,0:0:0:0:
301,244,290112,1,0,0:0:0:0:
73,117,290270,2,0,P|59:72|73:30,1,89.9999972534181
154,168,290507,1,0,0:0:0:0:
154,168,290586,6,0,B|151:220|114:260|114:260|126:295,1,134.999995880127
323,144,291060,2,0,B|320:92|283:52|283:52|295:17,1,134.999995880127
479,282,291533,2,0,P|432:355|350:332,1,179.999994506836
323,144,292007,1,0,0:0:0:0:
270,243,292165,1,0,0:0:0:0:
428,173,292323,1,0,0:0:0:0:
227,108,292481,2,0,P|214:59|234:16,1,89.9999972534181
428,173,292796,1,0,0:0:0:0:
290,66,292954,1,0,0:0:0:0:
457,200,293112,5,0,0:0:0:0:
473,236,293191,1,0,0:0:0:0:
469,276,293270,1,0,0:0:0:0:
447,309,293349,1,0,0:0:0:0:
410,327,293428,1,0,0:0:0:0:
371,325,293507,1,0,0:0:0:0:
337,303,293586,1,0,0:0:0:0:
318,268,293665,1,0,0:0:0:0:
298,232,293744,1,0,0:0:0:0:
264,211,293823,1,0,0:0:0:0:
224,209,293902,1,0,0:0:0:0:
188,227,293981,1,0,0:0:0:0:
166,260,294060,1,0,0:0:0:0:
162,300,294138,1,0,0:0:0:0:
179,336,294217,1,0,0:0:0:0:
213,358,294296,1,0,0:0:0:0:
252,359,294375,6,0,B|294:351|294:351|308:342|308:342|339:337,1,89.9999972534181
379,333,294612,1,0,0:0:0:0:
389,293,294691,1,0,0:0:0:0:
399,253,294770,1,0,0:0:0:0:
409,213,294849,1,0,0:0:0:0:
420,174,294928,1,0,0:0:0:0:
431,135,295007,2,0,P|383:111|338:128,1,89.9999972534181
286,169,295244,1,0,0:0:0:0:
286,169,295323,1,0,0:0:0:0:
130,35,295481,1,0,0:0:0:0:
54,251,295638,6,0,L|64:360,1,104.999996795654
43,138,295954,1,0,0:0:0:0:
43,138,296112,1,0,0:0:0:0:
198,293,296270,2,0,P|255:303|294:277,1,104.999996795654
375,137,296586,1,0,0:0:0:0:
375,137,296744,1,0,0:0:0:0:
489,278,296902,6,0,L|474:383,1,104.999996795654
369,221,297217,1,0,0:0:0:0:
372,179,297296,1,0,0:0:0:0:
375,137,297375,1,0,0:0:0:0:
378,95,297454,1,0,0:0:0:0:
381,53,297533,1,0,0:0:0:0:
482,208,297691,1,0,0:0:0:0:
268,146,297849,2,0,P|206:144|169:171,1,104.999996795654
104,346,298165,5,0,0:0:0:0:
264,315,298323,1,0,0:0:0:0:
158,197,298481,1,0,0:0:0:0:
158,197,298638,1,0,0:0:0:0:
413,369,298796,5,0,0:0:0:0:
382,209,298954,1,0,0:0:0:0:
264,315,299112,1,0,0:0:0:0:
264,315,299270,1,0,0:0:0:0:
349,139,299428,6,0,P|394:132|443:163,1,104.999996795654
264,315,299744,1,0,0:0:0:0:
222,306,299823,1,0,0:0:0:0:
180,297,299902,1,0,0:0:0:0:
138,288,299981,1,0,0:0:0:0:
96,280,300060,1,0,0:0:0:0:
222,178,300217,2,0,P|240:129|219:78,1,104.999996795654
15,68,300533,1,0,0:0:0:0:
15,68,300612,1,0,0:0:0:0:
15,68,300691,5,0,0:0:0:0:
165,133,300849,1,0,0:0:0:0:
32,233,301007,1,0,0:0:0:0:
32,233,301165,1,0,0:0:0:0:
235,49,301323,2,0,P|286:37|334:60,1,104.999996795654
451,209,301638,1,0,0:0:0:0:
451,209,301796,1,0,0:0:0:0:
239,359,301954,6,0,B|171:366|171:366|129:354,1,104.999996795654
20,249,302270,1,0,0:0:0:0:
181,200,302428,1,0,0:0:0:0:
181,200,302507,1,0,0:0:0:0:
180,200,302586,2,0,P|201:153|184:104,1,104.999996795654
23,274,302902,2,0,L|30:378,1,104.999996795654
75,155,303217,5,0,0:0:0:0:
158,315,303375,1,0,0:0:0:0:
281,182,303533,1,0,0:0:0:0:
281,182,303691,1,0,0:0:0:0:
63,137,303849,2,0,P|51:82|72:39,1,104.999996795654
281,182,304165,1,0,0:0:0:0:
158,315,304323,1,0,0:0:0:0:
301,168,304481,6,0,P|348:157|399:180,1,104.999996795654
238,343,304796,1,0,0:0:0:0:
198,329,304875,1,0,0:0:0:0:
158,315,304954,1,0,0:0:0:0:
118,302,305033,1,0,0:0:0:0:
78,289,305112,2,0,B|64:232|64:232|75:186,1,104.999996795654
398,179,305428,2,0,B|412:122|412:122|401:76,1,104.999996795654
181,17,305744,5,0,0:0:0:0:
218,189,305902,1,0,0:0:0:0:
52,142,306060,1,0,0:0:0:0:
52,142,306217,1,0,0:0:0:0:
181,17,306375,2,0,P|236:8|287:28,1,104.999996795654
442,215,306691,1,0,0:0:0:0:
442,215,306849,1,0,0:0:0:0:
228,86,307007,5,0,0:0:0:0:
260,264,307165,1,0,0:0:0:0:
404,140,307323,1,0,0:0:0:0:
429,106,307402,1,0,0:0:0:0:
431,64,307481,1,0,0:0:0:0:
413,25,307560,1,0,0:0:0:0:
377,3,307638,2,0,P|319:3|281:34,1,104.999996795654
377,261,307954,2,0,P|419:290|470:288,1,104.999996795654
305,155,308270,5,0,0:0:0:0:
203,324,308428,1,0,0:0:0:0:
97,171,308586,1,0,0:0:0:0:
97,171,308744,1,0,0:0:0:0:
319,137,308902,2,0,P|335:88|315:40,1,104.999996795654
97,171,309217,1,0,0:0:0:0:
203,324,309375,1,0,0:0:0:0:
305,155,309533,6,0,P|352:146|403:173,1,104.999996795654
203,324,309849,1,0,0:0:0:0:
161,314,309928,1,0,0:0:0:0:
119,305,310007,1,0,0:0:0:0:
77,296,310086,1,0,0:0:0:0:
35,287,310165,1,0,0:0:0:0:
195,164,310323,1,0,0:0:0:0:
303,346,310481,1,0,0:0:0:0:
466,229,310638,1,0,0:0:0:0:
181,146,310796,6,0,P|165:92|187:46,1,104.999996795654
422,19,311112,1,0,0:0:0:0:
422,19,311270,1,0,0:0:0:0:
195,164,311428,2,0,B|143:173|143:173|91:168,1,104.999996795654
362,71,311744,1,0,0:0:0:0:
258,254,311902,1,0,0:0:0:0:
426,115,312060,6,0,P|441:66|421:18,1,104.999996795654
258,254,312375,1,0,0:0:0:0:
407,328,312533,1,0,0:0:0:0:
407,328,312612,1,0,0:0:0:0:
407,328,312691,2,0,P|452:336|501:299,1,104.999996795654
241,257,313007,2,0,L|132:273,1,104.999996795654
57,284,313244,1,0,0:0:0:0:
57,284,313323,5,0,0:0:0:0:
101,81,313481,1,0,0:0:0:0:
241,257,313638,1,0,0:0:0:0:
19,165,313796,1,0,0:0:0:0:
228,91,313954,1,0,0:0:0:0:
183,355,314112,1,0,0:0:0:0:
101,81,314270,1,0,0:0:0:0:
345,169,314428,1,0,0:0:0:0:
57,284,314586,5,0,0:0:0:0:
228,91,314744,1,0,0:0:0:0:
264,81,314823,1,0,0:0:0:0:
301,83,314902,1,0,0:0:0:0:
335,99,314981,1,0,0:0:0:0:
367,120,315060,1,0,0:0:0:0:
399,139,315138,1,0,0:0:0:0:
435,150,315217,1,0,0:0:0:0:
473,141,315296,1,0,0:0:0:0:
506,121,315375,1,0,0:0:0:0:
478,95,315454,1,0,0:0:0:0:
444,77,315533,1,0,0:0:0:0:
405,73,315612,1,0,0:0:0:0:
366,80,315691,1,0,0:0:0:0:
331,97,315770,1,0,0:0:0:0:
301,122,315849,6,0,P|285:177|303:220,1,104.999996795654
366,80,316165,2,0,B|332:35|267:35|234:82|234:82|201:83|177:102,1,209.999993591309
54,208,316638,1,0,0:0:0:0:
40,81,316796,1,0,0:0:0:0:
54,208,316954,1,0,0:0:0:0:
72,343,317112,5,0,0:0:0:0:
54,208,317270,1,0,0:0:0:0:
184,271,317428,2,0,P|237:280|279:251,1,104.999996795654
301,173,317665,1,0,0:0:0:0:
301,173,317744,1,0,0:0:0:0:
423,283,317902,1,0,0:0:0:0:
282,159,318060,6,0,P|271:94|391:66,1,209.999993591309
477,158,318533,1,0,0:0:0:0:
423,283,318691,1,0,0:0:0:0:
411,305,319007,1,0,0:0:0:0:
301,173,319165,1,0,0:0:0:0:
477,158,319323,2,0,P|498:106|479:52,1,104.999996795654
392,290,319638,6,0,B|340:302|340:302|282:288,1,104.999996795654
182,129,319954,2,0,B|130:116|130:116|72:130,1,104.999996795654
1,155,320191,1,0,0:0:0:0:
1,155,320270,1,0,0:0:0:0:
107,287,320428,1,0,0:0:0:0:
245,178,320586,2,0,P|263:123|241:73,1,104.999996795654
35,258,320902,6,0,P|62:350|161:343,1,209.999993591309
239,245,321375,1,0,0:0:0:0:
337,313,321533,2,0,P|392:325|440:302,1,104.999996795654
239,245,321849,1,0,0:0:0:0:
232,353,322007,1,0,0:0:0:0:
360,208,322165,6,0,P|372:157|348:104,1,104.999996795654
238,244,322481,2,0,P|183:294|114:267,1,157.499995193482
103,242,322796,1,0,0:0:0:0:
163,130,322954,1,0,0:0:0:0:
163,130,323033,1,0,0:0:0:0:
163,130,323112,2,0,B|179:64|179:64|172:22,1,104.999996795654
28,136,323428,5,0,0:0:0:0:
48,343,323586,1,0,0:0:0:0:
37,239,323744,1,0,0:0:0:0:
210,123,323902,5,0,0:0:0:0:
20,37,324060,1,0,0:0:0:0:
116,79,324217,1,0,0:0:0:0:
130,287,324375,5,0,0:0:0:0:
299,165,324533,1,0,0:0:0:0:
215,227,324691,1,0,0:0:0:0:
20,37,324849,5,0,0:0:0:0:
48,343,325007,1,0,0:0:0:0:
130,179,325165,1,0,0:0:0:0:
280,322,325323,2,0,P|338:333|378:306,1,104.999996795654
396,273,325560,1,0,0:0:0:0:
408,233,325638,1,0,0:0:0:0:
403,191,325717,1,0,0:0:0:0:
383,153,325796,1,0,0:0:0:0:
350,127,325875,1,0,0:0:0:0:
306,119,325954,6,0,B|234:131|234:131|202:156,1,110.000003356934
497,307,326270,2,0,B|425:295|425:295|393:270,1,110.000003356934
386,32,326586,1,0,0:0:0:0:
507,162,326744,1,0,0:0:0:0:
507,162,326823,1,0,0:0:0:0:
507,162,326902,1,0,0:0:0:0:
226,227,327060,6,0,P|134:184|164:87,1,220.000006713867
286,47,327533,1,0,0:0:0:0:
376,158,327691,1,0,0:0:0:0:
474,35,327849,1,0,0:0:0:0:
274,154,328007,1,0,0:0:0:0:
479,197,328165,1,0,0:0:0:0:
379,11,328323,1,0,0:0:0:0:
348,262,328481,6,0,B|343:322|343:322|361:375,1,110.000003356934
352,248,328796,1,0,0:0:0:0:
268,122,328954,2,0,P|209:102|161:125,1,110.000003356934
81,237,329270,1,0,0:0:0:0:
81,237,329349,1,0,0:0:0:0:
81,237,329428,1,0,0:0:0:0:
291,131,329586,6,0,P|332:93|233:26,1,220.000006713867
81,237,330060,2,0,P|74:297|85:348,1,110.000003356934
171,150,330375,2,0,P|122:113|72:97,1,110.000003356934
201,271,330691,2,0,P|256:247|295:212,1,110.000003356934
174,153,330928,1,0,0:0:0:0:
174,153,331007,6,0,B|127:141|73:175|66:224|66:224|82:259|64:298,1,220.000006713867
8,372,331481,1,0,0:0:0:0:
166,291,331638,2,0,P|221:282|268:313,1,110.000003356934
314,375,331875,1,0,0:0:0:0:
314,375,331954,1,0,0:0:0:0:
442,299,332112,1,0,0:0:0:0:
323,202,332270,6,0,P|297:140|412:82,1,220.000006713867
492,175,332744,1,0,0:0:0:0:
341,346,332902,1,0,0:0:0:0:
297,339,332981,1,0,0:0:0:0:
253,332,333060,1,0,0:0:0:0:
209,325,333138,1,0,0:0:0:0:
165,319,333217,1,0,0:0:0:0:
136,285,333296,1,0,0:0:0:0:
108,251,333375,1,0,0:0:0:0:
79,217,333454,1,0,0:0:0:0:
55,179,333533,6,0,B|31:127|31:127|40:72,1,110.000003356934
258,229,333849,2,0,B|224:275|224:275|172:295,1,110.000003356934
200,28,334165,2,0,B|256:33|256:33|300:68,1,110.000003356934
363,131,334402,1,0,0:0:0:0:
363,131,334481,1,0,0:0:0:0:
258,229,334638,1,0,0:0:0:0:
407,198,334796,6,0,B|455:164|451:108|422:72|422:72|422:31|454:3,1,220.000006713867
394,206,335270,1,0,0:0:0:0:
159,235,335428,1,0,0:0:0:0:
117,218,335507,1,0,0:0:0:0:
89,185,335586,1,0,0:0:0:0:
77,143,335665,1,0,0:0:0:0:
87,100,335744,1,0,0:0:0:0:
114,66,335823,1,0,0:0:0:0:
153,48,335902,1,0,0:0:0:0:
197,49,335981,1,0,0:0:0:0:
236,70,336060,6,0,P|288:89|343:63,1,115.000002193451
176,143,336375,1,0,0:0:0:0:
43,26,336533,1,0,0:0:0:0:
4,179,336691,2,0,B|-4:248|-4:248|10:291,1,115.000002193451
45,371,336928,1,0,0:0:0:0:
45,371,337007,1,0,0:0:0:0:
175,143,337165,6,0,P|279:122|310:222,1,230.000004386902
225,330,337638,1,0,0:0:0:0:
401,298,337796,1,0,0:0:0:0:
241,187,337954,1,0,0:0:0:0:
325,364,338112,1,0,0:0:0:0:
325,364,338191,1,0,0:0:0:0:
325,364,338270,1,0,0:0:0:0:
484,225,338428,1,0,0:0:0:0:
219,160,338586,6,0,B|185:119|200:55|249:30|249:30|205:42|172:18,1,230.000004386902
282,109,339060,2,0,P|331:122|388:92,1,115.000002193451
335,283,339375,1,0,0:0:0:0:
335,283,339454,1,0,0:0:0:0:
335,283,339533,1,0,0:0:0:0:
147,84,339691,6,0,P|68:79|54:209,1,230.000004386902
336,303,340165,2,0,P|392:315|445:282,1,115.000002193451
293,97,340481,2,0,P|254:139|256:201,1,115.000002193451
476,192,340796,1,0,0:0:0:0:
487,148,340875,1,0,0:0:0:0:
489,102,340954,1,0,0:0:0:0:
482,56,341033,1,0,0:0:0:0:
470,11,341112,6,0,B|430:37|416:73|416:73|454:154|400:210,1,230.000004386902
253,261,341586,1,0,0:0:0:0:
210,111,341744,1,0,0:0:0:0:
350,46,341902,1,0,0:0:0:0:
350,46,341981,1,0,0:0:0:0:
350,46,342060,1,0,0:0:0:0:
253,261,342217,1,0,0:0:0:0:
144,167,342375,6,0,P|125:113|151:56,1,115.000002193451
251,272,342691,2,0,B|227:344|227:344|203:375,1,115.000002193451
310,105,343007,2,0,P|366:84|421:104,1,115.000002193451
477,163,343244,1,0,0:0:0:0:
477,163,343323,1,0,0:0:0:0:
413,313,343481,1,0,0:0:0:0:
256,169,343638,5,0,0:0:0:0:
231,130,343717,1,0,0:0:0:0:
231,85,343796,1,0,0:0:0:0:
254,46,343875,1,0,0:0:0:0:
295,25,343954,1,0,0:0:0:0:
340,29,344033,1,0,0:0:0:0:
377,56,344112,5,0,0:0:0:0:
343,87,344191,1,0,0:0:0:0:
297,96,344270,1,0,0:0:0:0:
250,95,344349,1,0,0:0:0:0:
205,83,344428,1,0,0:0:0:0:
165,59,344507,1,0,0:0:0:0:
137,22,344586,5,0,0:0:0:0:
135,68,344665,1,0,0:0:0:0:
133,114,344744,1,0,0:0:0:0:
131,160,344823,1,0,0:0:0:0:
129,206,344902,1,0,0:0:0:0:
128,252,344981,1,0,0:0:0:0:
128,298,345060,5,0,0:0:0:0:
302,170,345217,1,0,0:0:0:0:
384,372,345375,1,0,0:0:0:0:
284,146,345533,6,0,B|272:101|272:101|277:70,2,76.6666681289673
391,350,345849,2,0,B|403:305|403:305|398:274,2,76.6666681289673
166,352,346165,5,0,0:0:0:0:
90,338,346323,1,0,0:0:0:0:
41,279,346481,1,0,0:0:0:0:
41,203,346638,1,0,0:0:0:0:
91,144,346796,1,0,0:0:0:0:
165,131,346954,1,0,0:0:0:0:
232,168,347112,1,0,0:0:0:0:
258,241,347270,1,0,0:0:0:0:
232,313,347428,5,0,0:0:0:0:
188,249,347586,1,0,0:0:0:0:
195,172,347744,1,0,0:0:0:0:
248,119,347902,1,0,0:0:0:0:
326,112,348060,1,0,0:0:0:0:
387,156,348217,1,0,0:0:0:0:
408,229,348375,1,0,0:0:0:0:
375,299,348533,1,0,0:0:0:0:
306,332,348691,5,0,0:0:0:0:
231,314,348849,1,0,0:0:0:0:
179,262,349007,1,0,0:0:0:0:
172,191,349165,1,0,0:0:0:0:
215,130,349323,1,0,0:0:0:0:
284,112,349481,1,0,0:0:0:0:
351,142,349638,1,0,0:0:0:0:
381,208,349796,1,0,0:0:0:0:
363,278,349954,5,0,0:0:0:0:
423,233,350112,1,0,0:0:0:0:
441,163,350270,1,0,0:0:0:0:
410,96,350428,1,0,0:0:0:0:
344,67,350586,1,0,0:0:0:0:
275,85,350744,1,0,0:0:0:0:
232,145,350902,1,0,0:0:0:0:
239,217,351060,1,0,0:0:0:0:
291,269,351217,5,0,0:0:0:0:
221,273,351375,1,0,0:0:0:0:
164,230,351533,1,0,0:0:0:0:
147,163,351691,1,0,0:0:0:0:
176,100,351849,1,0,0:0:0:0:
239,72,352007,1,0,0:0:0:0:
304,89,352165,1,0,0:0:0:0:
345,147,352323,1,0,0:0:0:0:
338,215,352481,5,0,0:0:0:0:
283,171,352638,1,0,0:0:0:0:
274,101,352796,1,0,0:0:0:0:
308,42,352954,1,0,0:0:0:0:
374,18,353112,1,0,0:0:0:0:
438,43,353270,1,0,0:0:0:0:
472,101,353428,1,0,0:0:0:0:
460,171,353586,1,0,0:0:0:0:
408,214,353744,5,0,0:0:0:0:
353,163,353902,1,0,0:0:0:0:
286,162,354060,1,0,0:0:0:0:
234,200,354217,1,0,0:0:0:0:
218,266,354375,1,0,0:0:0:0:
201,331,354533,1,0,0:0:0:0:
149,369,354691,1,0,0:0:0:0:
82,368,354849,1,0,0:0:0:0:
35,319,355007,5,0,0:0:0:0:
36,251,355165,1,0,0:0:0:0:
78,198,355323,1,0,0:0:0:0:
144,187,355481,1,0,0:0:0:0:
206,213,355638,1,0,0:0:0:0:
269,237,355796,1,0,0:0:0:0:
335,227,355954,1,0,0:0:0:0:
383,179,356112,5,0,0:0:0:0:
