osu file format v14

[General]
AudioFilename: audio.mp3
AudioLeadIn: 0
PreviewTime: 22392
Countdown: 0
SampleSet: Soft
StackLeniency: 0.7
Mode: 0
LetterboxInBreaks: 0
WidescreenStoryboard: 1

[Editor]
Bookmarks: 11148,44109,50289,99045
DistanceSpacing: 0.9
BeatDivisor: 2
GridSize: 4
TimelineZoom: 1

[Metadata]
Title:high school romance
TitleUnicode:high school romance
Artist:miraie
ArtistUnicode:miraie
Creator:Chompy
Version:normal
Source:osu!
Tags:fa featured artist mg mpg mappers mappers' guild english pop hyperpop hiphop hip hop trap xoul lazarus gordon indie lb66
BeatmapID:2995262
BeatmapSetID:1457191

[Difficulty]
HPDrainRate:3.5
CircleSize:3
OverallDifficulty:4.5
ApproachRate:5.5
SliderMultiplier:1.2
SliderTickRate:1

[Events]
//Background and Video events
0,0,"le thundercokc photograph.jpg",0,0
//Break Periods
2,44309,49164
//Storyboard Layer 0 (Background)
//Storyboard Layer 1 (Fail)
//Storyboard Layer 2 (Pass)
//Storyboard Layer 3 (Foreground)
//Storyboard Layer 4 (Overlay)
//Storyboard Sound Samples

[TimingPoints]
161,343.347639484979,4,2,1,25,1,0
11148,-100,4,2,1,70,0,0
20933,-100,4,2,2,70,0,0
21105,-100,4,2,1,70,0,0
21276,-100,4,2,2,70,0,0
21448,-100,4,2,1,70,0,0
21620,-100,4,2,2,70,0,0
22135,-90.9090909090909,4,2,1,85,0,1
43594,-90.9090909090909,4,2,2,85,0,1
43766,-90.9090909090909,4,2,1,85,0,1
43937,-90.9090909090909,4,2,2,85,0,1
44109,-90.9090909090909,4,2,1,85,0,0
50289,-100,4,2,1,60,0,0
55096,-100,4,2,1,70,0,0
65568,-100,4,2,2,70,0,0
66083,-90.9090909090909,4,2,1,85,0,1
76384,-90.9090909090909,4,2,1,85,0,0
77070,-90.9090909090909,4,2,1,85,0,1
98530,-90.9090909090909,4,2,2,85,0,1
98701,-90.9090909090909,4,2,1,85,0,1
98873,-90.9090909090909,4,2,2,85,0,1
99045,-90.9090909090909,4,2,1,85,0,0

[Colours]
Combo1 : 234,217,191
Combo2 : 214,254,139
Combo3 : 213,226,199
Combo4 : 247,168,115

[HitObjects]
24,348,11148,5,4,3:2:0:0:
105,276,11491,2,0,P|151:312|210:314,2,120,2|2|2,3:2|3:2|3:2,0:0:0:0:
43,186,12521,1,2,3:2:0:0:
126,117,12864,2,0,B|180:89|180:89|236:109,1,120,2|2,3:2|3:2,0:0:0:0:
340,83,13551,6,0,P|348:49|337:16,2,60,2|2|2,3:2|0:2|3:2,0:0:0:0:
384,181,14238,2,0,P|418:178|446:157,2,60,2|2|2,3:2|0:2|3:2,0:0:0:0:
288,231,14924,2,0,P|258:212|223:213,1,60,2|2,3:2|0:2,0:0:0:0:
208,259,15268,2,0,B|152:263|152:263|144:268|144:268|72:274,2,120,2|2|0,3:2|3:2|3:2,0:0:0:0:
297,320,16298,2,0,P|326:316|351:300,1,60,2|2,3:2|0:2,0:0:0:0:
393,266,16641,6,0,P|432:309|490:323,2,120,2|2|2,3:2|3:2|3:2,0:0:0:0:
435,166,17671,1,2,3:2:0:0:
386,69,18015,1,2,3:2:0:0:
286,108,18358,2,0,L|218:102,1,60,2|2,3:2|0:2,0:0:0:0:
198,56,18701,1,2,3:2:0:0:
89,62,19045,2,0,P|70:92|71:127,1,60,2|2,3:2|0:2,0:0:0:0:
47,165,19388,6,0,P|101:187|123:241,1,120,2|2,3:2|3:2,0:0:0:0:
68,333,20075,2,0,L|0:338,2,60,2|2|2,3:2|0:2|3:2,0:0:0:0:
115,358,20590,1,2,0:2:0:0:
276,344,21105,2,0,P|257:314|258:279,1,60,2|2,3:2|3:2,0:0:0:0:
288,247,21448,2,0,P|342:265|388:230,1,120,10|10,3:2|0:2,0:0:0:0:
451,128,22135,5,4,3:2:0:0:
370,40,22478,2,0,B|334:26|302:41|310:52|280:69|244:54,1,132.00000402832,10|2,3:2|3:2,0:0:0:0:
128,29,23165,2,0,P|68:51|46:121,1,132.00000402832,10|2,3:2|3:2,0:0:0:0:
90,221,23851,2,0,P|116:202|149:200,1,66.0000020141602,10|2,3:2|0:2,0:0:0:0:
192,241,24195,2,0,B|253:245|253:245|262:250|262:250|341:257,1,132.00000402832,2|10,3:2|3:2,0:0:0:0:
440,268,24882,5,2,3:2:0:0:
496,163,25225,2,0,P|474:101|411:76,1,132.00000402832,10|2,3:2|3:2,0:0:0:0:
301,42,25912,1,10,3:2:0:0:
191,88,26255,2,0,P|194:121|214:147,1,66.0000020141602,2|2,3:2|2:2,2:0:0:0:
272,156,26598,2,0,B|267:217|267:217|262:226|262:226|255:305,1,132.00000402832,10|2,3:2|3:2,0:0:0:0:
157,352,27285,2,0,L|76:344,1,66.0000020141602,10|8,3:2|3:2,0:0:0:0:
32,337,27628,5,0,3:2:0:0:
43,218,27972,2,0,B|57:182|42:150|31:158|14:128|29:92,1,132.00000402832,10|2,3:2|3:2,0:0:0:0:
135,40,28658,2,0,P|199:33|245:76,1,132.00000402832,10|2,3:2|3:2,0:0:0:0:
223,193,29345,2,0,P|249:211|282:213,1,66.0000020141602,10|2,3:2|0:2,0:0:0:0:
326,174,29688,2,0,B|387:178|387:178|396:183|396:183|475:190,1,132.00000402832,2|10,3:2|3:2,0:0:0:0:
500,299,30375,5,2,3:2:0:0:
394,354,30718,2,0,P|329:361|273:329,1,132.00000402832,10|2,3:2|3:2,0:0:0:0:
203,233,31405,1,10,3:2:0:0:
297,160,31748,2,0,P|315:133|317:100,1,66.0000020141602,2|2,3:2|0:2,0:0:0:0:
297,44,32092,2,0,P|237:69|174:50,1,132.00000402832,10|2,3:2|3:2,0:0:0:0:
62,13,32779,2,0,L|54:88,1,66.0000020141602,10|8,3:2|3:2,0:0:0:0:
11,118,33122,5,4,3:2:0:0:
60,225,33465,2,0,B|55:286|55:286|50:295|50:295|43:374,2,132.00000402832,10|0|8,3:2|3:2|3:2,0:0:0:0:
158,157,34495,2,0,P|188:149|221:157,1,66.0000020141602,2|2,3:2|0:2,0:0:0:0:
261,201,34839,2,0,P|292:207|324:199,1,66.0000020141602,10|2,3:2|0:2,0:0:0:0:
370,162,35181,1,2,3:2:0:0:
460,239,35525,1,10,3:2:0:0:
409,346,35869,6,0,P|378:353|345:346,1,66.0000020141602,2|2,3:2|0:2,0:0:0:0:
308,299,36213,2,0,P|276:292|244:300,1,66.0000020141602,10|2,3:2|0:2,0:0:0:0:
215,352,36555,2,0,P|184:296|120:289,1,132.00000402832,2|10,3:2|3:2,0:0:0:0:
26,216,37242,2,0,P|18:185|26:152,1,66.0000020141602,2|2,3:2|0:2,0:0:0:0:
82,132,37586,2,0,P|90:101|80:68,1,66.0000020141602,10|2,3:2|0:2,0:0:0:0:
39,26,37929,2,0,P|99:45|171:30,1,132.00000402832,2|10,3:2|3:2,0:0:0:0:
284,30,38615,5,0,3:2:0:0:
372,109,38959,2,0,B|433:104|433:104|442:99|442:99|501:93,2,132.00000402832,10|0|8,3:2|3:2|3:2,0:0:0:0:
258,144,39989,2,0,P|250:174|258:207,1,66.0000020141602,2|2,3:2|0:2,0:0:0:0:
309,238,40333,2,0,P|315:269|307:301,1,66.0000020141602,10|2,3:2|0:2,0:0:0:0:
270,347,40675,1,2,3:2:0:0:
152,363,41019,1,10,3:2:0:0:
71,275,41362,6,0,P|63:244|71:211,1,66.0000020141602,2|2,3:2|0:2,0:0:0:0:
129,198,41706,2,0,P|135:166|127:134,1,66.0000020141602,10|2,3:2|0:2,0:0:0:0:
94,84,42048,1,2,3:2:0:0:
196,23,42392,1,10,3:2:0:0:
308,62,42736,2,0,L|402:54,1,66.0000020141602,2|2,3:2|0:2,0:0:0:0:
422,90,43079,2,0,L|429:184,1,66.0000020141602,10|2,3:2|0:2,0:0:0:0:
385,198,43422,1,2,3:2:0:0:
287,266,43766,6,0,P|256:258|223:266,2,66.0000020141602,2|0|2,3:2|3:2|2:2,0:0:0:0:
492,289,50289,5,2,0:2:0:0:
405,352,50633,1,2,0:2:0:0:
318,289,50976,2,0,P|307:231|335:178,1,120,2|2,0:2|0:2,0:0:0:0:
20,95,53036,5,2,0:2:0:0:
107,32,53380,1,2,0:2:0:0:
194,95,53723,2,0,P|204:152|176:205,1,120,2|2,0:2|0:2,0:0:0:0:
176,205,55096,6,0,B|120:209|120:209|112:214|112:214|58:219,2,120,4|2|2,3:2|3:2|3:2,0:0:0:0:
256,276,56126,1,2,3:2:0:0:
336,205,56470,2,0,B|392:209|392:209|400:214|400:214|454:219,2,120,2|2|2,3:2|3:2|3:2,0:0:0:0:
256,131,57500,1,2,3:2:0:0:
185,49,57843,6,0,P|158:63|128:63,1,60,2|0,3:2|0:0,0:0:0:0:
74,63,58186,2,0,P|106:112|98:170,1,120,2|0,3:2|3:2,0:0:0:0:
26,250,58873,1,2,3:2:0:0:
105,323,59216,2,0,B|159:351|159:351|215:331,1,120,2|2,3:2|3:2,0:0:0:0:
304,271,59903,2,0,L|299:203,1,60,2|2,3:2|0:2,0:0:0:0:
264,170,60246,2,0,L|270:102,1,60,2|2,3:2|0:2,0:0:0:0:
279,57,60589,1,2,3:2:0:0:
383,27,60933,6,0,P|410:41|439:41,1,60,2|2,3:2|0:2,0:0:0:0:
491,53,61276,2,0,P|451:96|449:154,1,120,2|2,3:2|3:2,0:0:0:0:
484,257,61963,1,2,3:2:0:0:
422,345,62306,2,0,L|354:340,1,60,2|2,3:2|0:2,0:0:0:0:
321,305,62649,2,0,L|253:311,1,60,2|2,3:2|0:2,0:0:0:0:
208,320,62992,1,2,3:2:0:0:
100,335,63336,1,2,3:2:0:0:
27,254,63680,6,0,P|22:224|33:197,1,60,2|2,3:2|0:2,0:0:0:0:
71,159,64023,1,2,3:2:0:0:
67,50,64367,1,2,3:2:0:0:
173,30,64710,2,0,B|229:34|229:34|237:39|237:39|291:44,1,120,2|2,3:2|3:2,0:0:0:0:
398,27,65397,1,8,3:2:0:0:
500,241,66083,5,4,3:2:0:0:
428,336,66427,2,0,P|404:312|373:303,1,66.0000020141602,10|2,3:2|0:2,0:0:0:0:
317,322,66770,2,0,P|339:261|319:199,1,132.00000402832,2|10,3:2|3:2,0:0:0:0:
228,122,67457,1,2,3:2:0:0:
127,185,67801,2,0,P|94:178|62:186,1,66.0000020141602,10|2,3:2|0:2,0:0:0:0:
15,220,68143,1,2,3:2:0:0:
34,337,68487,1,10,3:2:0:0:
151,353,68830,6,0,P|181:360|213:353,1,66.0000020141602,2|2,3:2|0:2,0:0:0:0:
242,299,69174,2,0,P|273:292|305:300,1,66.0000020141602,10|2,3:2|0:2,0:0:0:0:
343,345,69516,1,2,3:2:0:0:
454,304,69860,1,10,3:2:0:0:
470,186,70203,2,0,L|477:91,1,66.0000020141602,2|2,3:2|0:2,0:0:0:0:
435,76,70546,2,0,L|340:68,1,66.0000020141602,10|2,3:2|0:2,0:0:0:0:
321,105,70889,1,2,3:2:0:0:
226,32,71233,1,10,3:2:0:0:
148,122,71577,5,0,3:2:0:0:
240,196,71920,2,0,P|267:213|299:217,1,66.0000020141602,10|2,3:2|0:2,0:0:0:0:
359,215,72264,2,0,B|354:276|354:276|349:285|349:285|343:344,1,132.00000402832,2|10,3:2|3:2,0:0:0:0:
226,324,72950,2,0,P|194:315|162:324,1,66.0000020141602,2|2,3:2|0:2,0:0:0:0:
113,357,73294,2,0,P|80:362|48:354,1,66.0000020141602,10|2,3:2|0:2,0:0:0:0:
15,305,73637,2,0,B|19:243|19:243|24:234|24:234|30:175,1,132.00000402832,2|10,3:2|3:2,0:0:0:0:
2,59,74324,5,2,3:2:0:0:
115,24,74667,1,10,3:2:0:0:
187,117,75010,2,0,P|243:146|305:130,1,132.00000402832,2|10,3:2|3:2,0:0:0:0:
397,53,75697,1,2,3:2:0:0:
465,149,76040,1,8,3:2:0:0:
460,267,76384,6,2,B|412:293|412:293|365:283|332:258|332:258|282:283,1,198.000006042481,2|2,0:2|0:0,0:0:0:0:
233,315,77070,5,4,3:2:0:0:
114,327,77414,2,0,B|100:291|115:259|126:267|143:237|128:201,1,132.00000402832,10|2,3:2|3:2,0:0:0:0:
36,125,78100,2,0,P|74:72|140:61,1,132.00000402832,10|2,3:2|3:2,0:0:0:0:
234,129,78787,2,0,P|262:113|280:86,1,66.0000020141602,10|2,3:2|0:2,0:0:0:0:
278,26,79130,2,0,B|339:30|339:30|348:35|348:35|427:42,1,132.00000402832,2|10,3:2|3:2,0:0:0:0:
496,120,79817,5,2,3:2:0:0:
453,231,80161,2,0,P|386:228|338:272,1,132.00000402832,10|2,3:2|3:2,0:0:0:0:
258,356,80847,1,10,3:2:0:0:
180,265,81191,2,0,P|152:244|119:239,1,66.0000020141602,2|2,3:2|0:2,0:0:0:0:
63,252,81534,2,0,B|67:190|67:190|72:181|72:181|79:102,1,132.00000402832,10|2,3:2|3:2,0:0:0:0:
157,33,82221,2,0,L|237:40,1,66.0000020141602,10|8,3:2|3:2,0:0:0:0:
281,48,82564,5,0,3:2:0:0:
398,63,82907,2,0,B|412:99|397:131|386:123|369:153|384:189,1,132.00000402832,10|2,3:2|3:2,0:0:0:0:
436,295,83594,2,0,P|383:332|319:324,1,132.00000402832,10|2,3:2|3:2,0:0:0:0:
200,313,84281,2,0,P|181:286|179:253,1,66.0000020141602,10|2,3:2|0:2,0:0:0:0:
233,228,84624,2,0,B|237:166|237:166|242:157|242:157|249:78,1,132.00000402832,2|10,3:2|3:2,0:0:0:0:
157,19,85311,5,2,3:2:0:0:
57,84,85654,2,0,P|26:141|38:206,1,132.00000402832,10|2,3:2|3:2,0:0:0:0:
113,296,86341,1,10,3:2:0:0:
222,249,86684,2,0,P|253:245|283:261,1,66.0000020141602,2|2,3:2|0:2,0:0:0:0:
297,318,87028,2,0,P|356:343|418:324,1,132.00000402832,10|2,3:2|3:2,0:0:0:0:
484,226,87714,2,0,L|497:150,1,66.0000020141602,10|8,3:2|3:2,0:0:0:0:
453,118,88057,5,4,3:2:0:0:
368,34,88401,2,0,B|306:38|306:38|297:43|297:43|218:50,2,132.00000402832,10|0|8,3:2|3:2|3:2,0:0:0:0:
453,118,89431,2,0,P|460:148|453:181,1,66.0000020141602,2|2,3:2|0:2,0:0:0:0:
403,214,89775,2,0,P|396:245|404:277,1,66.0000020141602,10|2,3:2|0:2,0:0:0:0:
443,321,90117,1,2,3:2:0:0:
334,369,90461,1,10,3:2:0:0:
239,296,90804,6,0,P|208:288|175:296,1,66.0000020141602,2|2,3:2|0:2,0:0:0:0:
141,345,91148,2,0,P|109:351|77:343,1,66.0000020141602,10|2,3:2|0:2,0:0:0:0:
17,342,91490,2,0,P|43:281|26:217,1,132.00000402832,2|10,3:2|3:2,0:0:0:0:
13,101,92178,2,0,P|43:93|76:101,1,66.0000020141602,2|2,3:2|0:2,0:0:0:0:
117,144,92522,2,0,P|148:150|180:142,1,66.0000020141602,10|2,3:2|0:2,0:0:0:0:
236,122,92864,2,0,P|209:180|223:244,1,132.00000402832,2|10,3:2|3:2,0:0:0:0:
304,331,93551,5,0,3:2:0:0:
378,238,93894,2,0,B|439:242|439:242|448:247|448:247|507:253,2,132.00000402832,10|0|8,3:2|3:2|3:2,0:0:0:0:
304,331,94924,2,0,P|273:338|240:331,1,66.0000020141602,2|2,3:2|0:2,0:0:0:0:
207,281,95268,2,0,P|175:274|143:282,1,66.0000020141602,10|2,3:2|0:2,0:0:0:0:
95,316,95610,1,2,3:2:0:0:
29,216,95954,1,10,3:2:0:0:
75,106,96298,6,0,P|105:98|138:106,1,66.0000020141602,2|2,3:2|0:2,0:0:0:0:
182,146,96642,2,0,P|213:152|245:144,1,66.0000020141602,10|2,3:2|0:2,0:0:0:0:
281,97,96984,1,2,3:2:0:0:
398,80,97328,1,10,3:2:0:0:
475,167,97671,2,0,L|482:261,1,66.0000020141602,2|2,3:2|0:2,0:0:0:0:
455,286,98014,2,0,L|360:293,1,66.0000020141602,10|2,3:2|0:2,0:0:0:0:
338,259,98357,1,2,3:2:0:0:
231,311,98701,6,0,P|200:318|167:311,2,66.0000020141602,2|0|2,3:2|3:2|2:2,0:0:0:0:
