osu file format v14

[General]
AudioFilename: audio.mp3
AudioLeadIn: 0
PreviewTime: 22392
Countdown: 0
SampleSet: Soft
StackLeniency: 0.4
Mode: 0
LetterboxInBreaks: 0
WidescreenStoryboard: 0

[Editor]
Bookmarks: 11148,44109,50289,99045
DistanceSpacing: 0.3
BeatDivisor: 4
GridSize: 4
TimelineZoom: 2

[Metadata]
Title:high school romance
TitleUnicode:high school romance
Artist:miraie
ArtistUnicode:miraie
Creator:Chompy
Version:adolescence
Source:osu!
Tags:fa featured artist mg mpg mappers mappers' guild english pop hyperpop hiphop hip hop trap xoul lazarus gordon indie lb66
BeatmapID:2994859
BeatmapSetID:1457191

[Difficulty]
HPDrainRate:5
CircleSize:4
OverallDifficulty:8
ApproachRate:9
SliderMultiplier:1.9
SliderTickRate:1

[Events]
//Background and Video events
0,0,"le thundercokc photograph.jpg",0,0
//Break Periods
2,44308,49689
2,51519,52436
//Storyboard Layer 0 (Background)
//Storyboard Layer 1 (Fail)
//Storyboard Layer 2 (Pass)
//Storyboard Layer 3 (Foreground)
//Storyboard Layer 4 (Overlay)
//Storyboard Sound Samples

[TimingPoints]
161,343.347639484979,4,2,1,25,1,0
11148,-100,4,2,1,70,0,0
20933,-100,4,2,2,70,0,0
21105,-100,4,2,1,70,0,0
21276,-100,4,2,2,70,0,0
21448,-100,4,2,1,70,0,0
21620,-100,4,2,2,70,0,0
22135,-71.4285714285714,4,2,1,85,0,1
43594,-71.4285714285714,4,2,2,85,0,1
43766,-71.4285714285714,4,2,1,85,0,1
43937,-71.4285714285714,4,2,2,85,0,1
44109,-100,4,2,1,85,0,0
50289,-133.333333333333,4,2,1,60,0,0
55096,-133.333333333333,4,2,1,70,0,0
60590,-100,4,2,1,70,0,0
65568,-100,4,2,2,70,0,0
66083,-71.4285714285714,4,2,1,85,0,1
76384,-200,4,2,1,85,0,0
77070,-71.4285714285714,4,2,1,85,0,1
98530,-71.4285714285714,4,2,2,85,0,1
98701,-71.4285714285714,4,2,1,85,0,1
98873,-71.4285714285714,4,2,2,85,0,1
99045,-100,4,2,1,85,0,0

[Colours]
Combo1 : 234,217,191
Combo2 : 214,254,139
Combo3 : 213,226,199
Combo4 : 247,168,115

[HitObjects]
32,214,11148,6,0,B|22:191|31:163|31:163|35:191|61:210,1,95,4|0,3:2|0:0,0:0:0:0:
113,276,11491,2,0,B|164:289|206:256|188:239|233:209|285:222,1,190,2|2,3:2|3:2,0:0:0:0:
298,84,12006,1,2,0:2:0:0:
298,84,12178,2,0,P|309:129|347:154,1,95,2|0,3:2|0:0,0:0:0:0:
454,117,12521,5,2,3:2:0:0:
454,117,12693,1,2,0:2:0:0:
479,307,12864,2,0,B|445:242|361:232|361:232|385:238|400:254,1,190,2|2,3:2|3:2,0:0:0:0:
112,334,13551,6,0,B|148:309|142:281|142:281|119:289|111:316,1,95,2|2,3:2|0:2,0:0:0:0:
31,196,13894,2,0,B|35:240|35:240|32:250|32:250|36:289,1,95,2|0,3:2|0:0,0:0:0:0:
105,93,14238,6,0,P|69:95|99:76,1,95,2|2,3:2|0:2,0:0:0:0:
195,173,14581,2,0,B|190:133|190:133|193:123|193:123|189:79,1,95,2|0,3:2|0:0,0:0:0:0:
268,21,14924,1,2,3:2:0:0:
268,21,15096,1,2,0:2:0:0:
312,178,15268,6,0,P|381:173|431:124,1,142.5,2|0,3:2|0:0,0:0:0:0:
445,72,15611,2,0,B|438:150|500:200|500:200|484:181|480:160,1,190,2|0,3:2|3:2,0:0:0:0:
269,301,16298,6,0,B|279:278|270:250|270:250|266:278|240:297,1,95,2|2,3:2|0:2,0:0:0:0:
194,356,16641,2,0,B|141:369|96:339|114:322|72:289|19:303,2,190,2|2|2,3:2|3:2|3:2,0:0:0:0:
190,144,17671,2,0,P|225:113|272:108,1,95,2|2,3:2|0:2,0:0:0:0:
348,157,18015,5,2,3:2:0:0:
348,157,18186,1,2,0:2:0:0:
418,118,18358,5,2,3:2:0:0:
398,25,18530,1,2,0:2:0:0:
494,216,18701,5,2,3:2:0:0:
494,216,18873,1,2,0:2:0:0:
426,251,19045,5,2,3:2:0:0:
355,226,19216,1,2,0:2:0:0:
278,321,19388,6,0,P|244:290|198:287,1,95,2|0,3:2|0:0,0:0:0:0:
71,370,19731,2,0,P|129:332|149:265,1,142.5,2|0,3:2|0:0,0:0:0:0:
113,233,20075,5,2,3:2:0:0:
113,233,20246,1,2,0:2:0:0:
39,167,20418,5,2,3:2:0:0:
62,48,20590,1,2,0:2:0:0:
374,244,21105,6,0,B|338:219|344:191|344:191|367:199|375:226,1,95,2|2,3:2|3:2,0:0:0:0:
403,133,21448,2,0,B|442:129|442:129|490:125|484:57|436:61|436:61|381:66,1,190,10|10,3:2|0:2,0:0:0:0:
42,304,22135,6,0,P|50:353|19:315,1,132.999995941162,4|0,3:2|0:0,0:0:0:0:
102,178,22478,6,0,B|157:164|206:193|187:221|237:246|283:233,1,199.499993911743,10|0,3:2|0:0,0:0:0:0:
283,179,22821,2,0,B|236:166|186:191|205:219|156:248|101:234,1,199.499993911743,2|0,3:2|0:0,0:0:0:0:
10,153,23165,6,0,B|2:71|67:19|67:19|50:39|46:61,1,199.499993911743,10|0,3:2|0:0,0:0:0:0:
122,81,23508,2,0,B|158:93|186:73|186:73|158:53|122:73,1,132.999995941162,2|0,3:2|0:0,0:0:0:0:
17,238,23851,5,10,3:2:0:0:
17,238,24023,1,2,0:2:0:0:
206,329,24195,6,0,B|211:278|211:278|216:216|304:224|298:286|298:286|292:357,1,265.999991882324,2|10,3:2|3:2,0:0:0:0:
397,91,24882,5,2,3:2:0:0:
397,91,25053,1,2,0:2:0:0:
411,170,25225,5,10,3:2:0:0:
490,155,25397,1,2,0:2:0:0:
286,63,25568,6,0,B|256:70|223:53|216:25|216:25|241:18|267:37,1,132.999995941162,2|0,3:2|0:0,0:0:0:0:
390,222,25912,2,0,B|395:165|395:165|390:151|390:151|396:89,1,132.999995941162,10|0,3:2|0:0,0:0:0:0:
385,302,26255,5,2,3:2:0:0:
385,302,26427,1,2,0:2:0:0:
310,191,26598,5,10,3:2:0:0:
342,107,26770,1,2,0:2:0:0:
151,313,26942,6,0,B|109:290|127:239|127:239|132:264|151:278,1,132.999995941162,2|0,3:2|0:0,0:0:0:0:
12,201,27285,2,0,B|44:186|75:204|75:204|107:222|139:207|139:207|172:193|203:211,1,199.499993911743,10|0,3:2|0:0,0:0:0:0:
246,279,27628,5,0,3:2:0:0:
489,30,27972,6,0,B|434:16|385:45|404:73|354:98|308:85,1,199.499993911743,10|0,3:2|0:0,0:0:0:0:
308,31,28315,2,0,B|355:18|405:43|386:71|435:100|490:86,1,199.499993911743,2|0,3:2|0:0,0:0:0:0:
496,173,28658,6,0,B|504:255|439:307|439:307|456:287|460:265,1,199.499993911743,10|0,3:2|0:0,0:0:0:0:
384,245,29001,2,0,B|348:233|320:253|320:253|348:273|384:253,1,132.999995941162,2|0,3:2|0:0,0:0:0:0:
496,363,29345,5,10,3:2:0:0:
496,363,29517,1,2,0:2:0:0:
208,241,29689,6,0,B|214:311|214:311|219:374|307:366|301:304|301:304|297:253,1,265.999991882324,2|10,3:2|3:2,0:0:0:0:
25,46,30375,5,2,3:2:0:0:
25,46,30547,1,2,0:2:0:0:
107,57,30718,5,10,3:2:0:0:
189,68,30890,1,2,0:2:0:0:
58,257,31062,6,0,B|40:272|15:265|15:265|22:237|55:220|85:227,1,132.999995941162,2|0,3:2|0:0,0:0:0:0:
189,68,31406,2,0,B|194:125|194:125|189:139|189:139|195:201,1,132.999995941162,10|0,3:2|0:0,0:0:0:0:
111,155,31748,5,2,3:2:0:0:
111,155,31920,1,2,0:2:0:0:
194,199,32092,5,10,3:2:0:0:
309,184,32264,1,2,0:2:0:0:
488,290,32435,6,0,B|465:248|414:266|414:266|439:271|453:290,1,132.999995941162,2|0,3:2|0:0,0:0:0:0:
394,344,32779,5,10,3:2:0:0:
480,154,32950,1,8,3:2:0:0:
308,183,33122,6,0,P|341:146|332:195,1,132.999995941162,4|0,3:2|0:0,0:0:0:0:
187,305,33465,2,0,P|141:259|77:246,1,132.999995941162,10|0,3:2|0:0,0:0:0:0:
13,339,33809,5,0,3:2:0:0:
2,145,33980,1,0,0:0:0:0:
121,350,34152,2,0,P|185:336|231:290,1,132.999995941162,8|0,3:2|0:0,0:0:0:0:
178,109,34495,5,2,3:2:0:0:
178,109,34667,1,2,0:2:0:0:
260,167,34839,5,10,3:2:0:0:
279,165,34924,1,2,0:2:0:0:
298,163,35010,1,2,0:2:0:0:
490,226,35182,6,0,B|485:264|452:277|452:277|450:241|483:219,1,132.999995941162,2|0,3:2|0:0,0:0:0:0:
461,136,35525,2,0,B|406:150|357:121|376:93|326:68|280:81,1,199.499993911743,10|0,3:2|0:0,0:0:0:0:
215,139,35869,5,2,3:2:0:0:
215,139,36040,1,2,0:2:0:0:
146,204,36212,5,10,3:2:0:0:
27,180,36384,1,2,0:2:0:0:
123,52,36555,6,0,B|78:17|25:32|25:32|80:37|108:72,1,199.499993911743,2|0,3:2|0:0,0:0:0:0:
182,111,36899,2,0,B|190:193|125:245|125:245|142:225|146:203,1,199.499993911743,10|0,3:2|0:0,0:0:0:0:
67,190,37242,5,2,3:2:0:0:
67,190,37414,1,2,0:2:0:0:
163,347,37585,5,10,3:2:0:0:
279,318,37757,1,2,0:2:0:0:
396,250,37929,6,0,B|440:237|491:260|503:301|503:301|466:313|426:287,1,199.499993911743,2|0,3:2|0:0,0:0:0:0:
376,359,38272,2,0,B|383:274|383:274|376:254|376:254|384:162,1,199.499993911743,10|0,3:2|0:0,0:0:0:0:
408,85,38615,6,0,P|441:48|432:97,1,132.999995941162,0|0,3:2|0:0,0:0:0:0:
287,207,38958,2,0,P|241:161|177:148,1,132.999995941162,10|0,3:2|0:0,0:0:0:0:
113,241,39302,5,0,3:2:0:0:
102,47,39473,1,0,0:0:0:0:
221,252,39645,2,0,P|285:238|331:192,1,132.999995941162,8|0,3:2|0:0,0:0:0:0:
205,31,39989,5,2,3:2:0:0:
205,31,40161,1,2,0:2:0:0:
147,113,40333,5,10,3:2:0:0:
149,132,40418,1,2,0:2:0:0:
151,151,40504,1,2,0:2:0:0:
42,280,40676,6,0,B|49:315|22:339|22:339|8:307|31:276,1,132.999995941162,2|0,3:2|0:0,0:0:0:0:
118,241,41019,2,0,B|173:227|222:256|203:284|253:309|299:296,1,199.499993911743,10|0,3:2|0:0,0:0:0:0:
360,230,41362,5,2,3:2:0:0:
360,230,41534,1,2,0:2:0:0:
405,351,41706,5,10,3:2:0:0:
483,368,41877,1,2,0:2:0:0:
500,290,42049,5,2,3:2:0:0:
11,121,42392,5,10,3:2:0:0:
296,47,42736,5,2,3:2:0:0:
296,47,42907,1,2,0:2:0:0:
353,104,43079,5,10,3:2:0:0:
481,83,43251,1,2,0:2:0:0:
505,11,43422,5,2,3:2:0:0:
350,363,43766,5,2,3:2:0:0:
272,310,43937,1,0,3:2:0:0:
253,312,44022,1,2,0:2:0:0:
234,314,44108,1,2,2:2:0:0:
234,314,50289,6,0,P|206:292|171:285,1,71.2500027179719,2|2,0:2|0:2,0:0:0:0:
97,329,50633,1,2,0:2:0:0:
97,329,50804,1,2,0:2:0:0:
58,169,50976,6,0,P|47:221|65:172,1,142.500005435944,2|2,0:2|0:2,0:0:0:0:
222,75,53036,5,2,0:2:0:0:
313,106,53208,1,2,0:2:0:0:
372,58,53379,5,2,0:2:0:0:
372,58,53551,1,2,0:2:0:0:
454,108,53723,6,0,B|432:143|448:180|448:180|445:144|469:117,1,142.500005435944,2|2,0:2|0:2,0:0:0:0:
256,192,54238,12,0,55010,0:0:0:0:
254,295,55096,5,4,3:2:0:0:
254,295,55439,5,2,3:2:0:0:
312,349,55611,1,2,0:2:0:0:
404,254,55783,1,2,3:2:0:0:
404,254,56126,5,2,3:2:0:0:
339,215,56298,1,2,0:2:0:0:
347,140,56470,6,0,P|394:102|443:113,1,106.875004076958,2|0,3:2|0:0,0:0:0:0:
470,148,56813,5,2,3:2:0:0:
470,148,56985,1,2,0:2:0:0:
301,201,57156,6,0,B|274:207|245:192|239:167|239:167|261:161|284:178,1,106.875004076958,2|2,3:2|0:2,0:0:0:0:
301,201,57500,2,0,B|305:247|305:247|301:259|301:259|305:310,1,106.875004076958,2|0,3:2|0:0,0:0:0:0:
268,352,57843,5,2,3:2:0:0:
40,334,58186,2,0,B|79:343|112:322|99:309|130:285|169:294,1,142.500005435944,2|0,3:2|3:2,0:0:0:0:
226,235,58701,1,2,0:2:0:0:
226,235,58873,2,0,P|225:199|204:171,1,71.2500027179719,2|2,3:2|0:2,0:0:0:0:
140,98,59216,6,0,P|87:95|43:124,1,106.875004076958,2|0,3:2|0:0,0:0:0:0:
36,169,59560,1,2,3:2:0:0:
199,29,59903,5,2,3:2:0:0:
199,29,60075,1,2,0:2:0:0:
273,68,60246,2,0,P|305:54|341:57,1,71.2500027179719,2|2,3:2|0:2,0:0:0:0:
421,122,60590,2,0,B|431:99|422:71|422:71|418:99|392:118,1,95,2|0,3:2|0:0,0:0:0:0:
466,287,60933,5,2,3:2:0:0:
466,287,61105,1,2,0:2:0:0:
399,221,61276,2,0,B|345:204|300:234|318:251|276:284|223:270,1,190,2|2,3:2|3:2,0:0:0:0:
41,365,61963,6,0,B|48:301|48:301|43:284|43:284|49:214,1,142.5,2|0,3:2|0:0,0:0:0:0:
18,195,62306,5,2,3:2:0:0:
18,195,62478,1,2,0:2:0:0:
68,67,62650,5,2,3:2:0:0:
182,109,62821,1,2,0:2:0:0:
256,72,62993,5,2,3:2:0:0:
256,72,63165,1,2,0:2:0:0:
323,176,63336,6,0,P|392:171|442:122,1,142.5,2|0,3:2|0:0,0:0:0:0:
430,80,63680,5,2,3:2:0:0:
430,80,63851,1,2,0:2:0:0:
499,187,64023,5,2,3:2:0:0:
475,254,64195,1,2,0:2:0:0:
492,374,64367,6,0,P|438:330|368:332,1,142.5,2|0,3:2|0:0,0:0:0:0:
322,360,64710,2,0,B|369:297|343:222|343:222|346:246|338:266,2,190,2|2|8,3:2|3:2|3:2,0:0:0:0:
219,277,65568,5,8,0:2:0:0:
205,274,65740,5,8,0:2:0:0:
191,271,65912,5,8,0:2:0:0:
38,248,66083,6,0,B|84:261|134:236|115:208|164:179|219:193,1,199.499993911743,4|0,3:2|0:0,0:0:0:0:
294,159,66427,5,10,3:2:0:0:
256,27,66598,1,2,0:2:0:0:
434,224,66770,6,0,B|404:231|371:214|364:186|364:186|389:179|415:198,1,132.999995941162,2|0,3:2|0:0,0:0:0:0:
478,27,67113,2,0,B|483:84|483:84|478:98|478:98|484:160,1,132.999995941162,10|0,3:2|0:0,0:0:0:0:
492,350,67457,5,2,3:2:0:0:
492,350,67628,1,2,0:2:0:0:
371,263,67800,5,10,3:2:0:0:
290,278,67972,1,2,0:2:0:0:
102,367,68143,6,0,B|132:374|165:357|172:329|172:329|147:322|121:341,1,132.999995941162,2|0,3:2|0:0,0:0:0:0:
58,170,68486,2,0,B|52:227|52:227|57:241|57:241|51:303,1,132.999995941162,10|0,3:2|0:0,0:0:0:0:
143,218,68830,5,2,3:2:0:0:
143,218,69002,1,2,0:2:0:0:
211,171,69173,5,10,3:2:0:0:
244,56,69345,1,2,0:2:0:0:
362,118,69517,6,0,B|444:110|496:175|496:175|476:158|454:154,1,199.499993911743,2|0,3:2|0:0,0:0:0:0:
431,232,69860,2,0,B|408:263|422:295|422:295|449:271|442:236,1,132.999995941162,10|0,3:2|0:0,0:0:0:0:
493,354,70203,5,2,3:2:0:0:
493,354,70375,1,2,0:2:0:0:
351,320,70547,5,10,3:2:0:0:
280,350,70718,1,2,0:2:0:0:
216,240,70890,6,0,B|170:253|120:228|139:200|90:171|35:185,1,199.499993911743,2|0,3:2|0:0,0:0:0:0:
36,264,71233,2,0,P|52:310|61:262,1,132.999995941162,10|8,3:2|3:2,0:0:0:0:
125,114,71577,6,0,B|171:127|221:102|202:74|251:45|306:59,1,199.499993911743,0|0,3:2|0:0,0:0:0:0:
364,115,71920,5,10,3:2:0:0:
297,257,72092,1,2,0:2:0:0:
383,325,72264,6,0,B|338:360|285:345|285:345|340:340|368:305,1,199.499993911743,2|0,3:2|0:0,0:0:0:0:
441,266,72607,2,0,B|396:196|430:120|430:120|424:146|431:167,1,199.499993911743,10|0,3:2|0:0,0:0:0:0:
508,203,72950,5,2,3:2:0:0:
508,203,73122,1,2,0:2:0:0:
484,60,73294,5,10,3:2:0:0:
425,12,73465,1,2,0:2:0:0:
272,68,73637,6,0,B|317:103|370:88|370:88|315:83|287:48,1,199.499993911743,2|0,3:2|0:0,0:0:0:0:
211,20,73980,2,0,B|163:87|80:83|80:83|106:79|123:65,1,199.499993911743,10|0,3:2|0:0,0:0:0:0:
22,25,74324,5,2,3:2:0:0:
22,25,74495,1,2,0:2:0:0:
97,180,74667,5,10,3:2:0:0:
81,253,74839,1,2,0:2:0:0:
97,368,75010,6,0,B|132:375|161:359|148:341|181:321|218:331,1,132.999995941162,2|0,3:2|0:0,0:0:0:0:
269,353,75268,1,0,0:0:0:0:
269,353,75354,2,0,B|274:296|274:296|269:282|269:282|275:220,1,132.999995941162,10|0,3:2|0:0,0:0:0:0:
289,27,75697,5,2,3:2:0:0:
289,27,75869,1,2,0:2:0:0:
421,56,76040,5,8,3:2:0:0:
491,29,76212,1,2,0:2:0:0:
491,177,76384,6,2,P|439:114|358:102,1,166.25,2|2,0:2|0:0,0:0:0:0:
384,231,77070,6,0,P|376:182|407:220,1,132.999995941162,4|0,3:2|0:0,0:0:0:0:
247,227,77414,6,0,B|191:241|184:296|184:296|181:240|129:221,1,199.499993911743,10|0,3:2|0:0,0:0:0:0:
82,358,77757,2,0,B|129:371|179:346|160:318|209:289|264:303,1,199.499993911743,2|0,3:2|0:0,0:0:0:0:
362,340,78100,6,0,B|339:338|319:349|319:349|298:297|337:239|384:227,1,199.499993911743,10|0,3:2|0:0,0:0:0:0:
472,278,78443,2,0,B|490:237|462:203|462:203|471:226|461:254,1,132.999995941162,2|0,3:2|0:0,0:0:0:0:
395,140,78787,5,10,3:2:0:0:
395,140,78959,1,2,0:2:0:0:
155,145,79130,6,0,B|104:150|104:150|42:155|50:243|112:237|112:237|183:231,1,265.999991882324,2|10,3:2|3:2,0:0:0:0:
485,23,79817,5,2,3:2:0:0:
485,23,79988,1,2,0:2:0:0:
474,97,80160,5,10,3:2:0:0:
460,176,80332,1,2,0:2:0:0:
268,117,80504,6,0,B|263:86|283:55|311:50|311:50|316:76|295:100,1,132.999995941162,2|0,3:2|0:0,0:0:0:0:
460,176,80848,2,0,B|403:171|403:171|389:176|389:176|327:170,1,132.999995941162,10|0,3:2|0:0,0:0:0:0:
398,321,81191,5,2,3:2:0:0:
398,321,81362,1,2,0:2:0:0:
245,363,81534,5,10,3:2:0:0:
167,351,81706,1,2,0:2:0:0:
303,160,81877,6,0,P|297:209|328:170,1,132.999995941162,2|0,3:2|0:0,0:0:0:0:
408,281,82221,2,0,B|376:266|345:284|345:284|313:302|281:287|281:287|248:273|217:291,1,199.499993911743,10|0,3:2|0:0,0:0:0:0:
167,351,82564,5,0,3:2:0:0:
114,56,82907,6,0,B|170:56|191:108|191:108|180:53|227:21,1,199.499993911743,10|0,3:2|0:0,0:0:0:0:
300,79,83250,2,0,B|253:66|203:91|222:119|173:148|118:134,1,199.499993911743,2|0,3:2|0:0,0:0:0:0:
14,199,83594,6,0,B|13:176|0:157|0:157|49:131|111:164|128:209,1,199.499993911743,10|0,3:2|0:0,0:0:0:0:
93,304,83937,2,0,B|136:314|165:281|165:281|144:293|114:288,1,132.999995941162,2|0,3:2|0:0,0:0:0:0:
22,354,84281,5,10,3:2:0:0:
22,354,84452,1,2,0:2:0:0:
292,259,84624,6,0,B|343:264|343:264|405:269|397:357|335:351|335:351|264:345,1,265.999991882324,2|10,3:2|3:2,0:0:0:0:
327,12,85311,5,2,3:2:0:0:
327,12,85483,1,2,0:2:0:0:
317,94,85654,5,10,3:2:0:0:
399,105,85826,1,2,0:2:0:0:
136,183,85997,6,0,B|92:162|108:110|108:110|114:135|134:148,1,132.999995941162,2|0,3:2|0:0,0:0:0:0:
317,94,86341,2,0,B|260:88|260:88|246:93|246:93|184:87,1,132.999995941162,10|0,3:2|0:0,0:0:0:0:
281,174,86684,5,2,3:2:0:0:
281,174,86856,1,2,0:2:0:0:
227,293,87027,5,10,3:2:0:0:
265,355,87199,1,2,0:2:0:0:
416,228,87371,6,0,B|439:225|452:203|452:203|427:188|391:199|375:225,1,132.999995941162,2|0,3:2|0:0,0:0:0:0:
390,306,87714,5,10,3:2:0:0:
300,123,87886,1,8,3:2:0:0:
202,304,88057,6,0,P|235:341|226:292,1,132.999995941162,4|0,3:2|0:0,0:0:0:0:
208,67,88401,2,0,B|205:111|252:131|252:131|274:118|299:122,1,132.999995941162,10|0,3:2|0:0,0:0:0:0:
404,33,88745,5,0,3:2:0:0:
293,203,88916,1,0,0:0:0:0:
144,128,89088,2,0,P|80:118|21:152,1,132.999995941162,8|0,3:2|0:0,0:0:0:0:
70,354,89431,5,2,3:2:0:0:
70,354,89603,1,2,0:2:0:0:
12,272,89775,5,10,3:2:0:0:
14,253,89860,1,2,0:2:0:0:
16,234,89946,1,2,0:2:0:0:
194,320,90118,6,0,B|241:316|246:262|246:262|231:282|208:288,1,132.999995941162,2|0,3:2|0:0,0:0:0:0:
186,218,90461,2,0,B|241:204|290:233|271:261|321:286|367:273,1,199.499993911743,10|0,3:2|0:0,0:0:0:0:
439,227,90804,5,2,3:2:0:0:
439,227,90976,1,2,0:2:0:0:
415,90,91148,5,10,3:2:0:0:
448,23,91319,1,2,0:2:0:0:
288,146,91491,6,0,B|239:117|247:62|247:62|229:115|173:119,1,199.499993911743,2|0,3:2|0:0,0:0:0:0:
135,29,91835,2,0,B|198:81|189:164|189:164|187:137|174:119,1,199.499993911743,10|0,3:2|0:0,0:0:0:0:
93,110,92178,5,2,3:2:0:0:
93,110,92349,1,2,0:2:0:0:
29,167,92521,5,10,3:2:0:0:
69,329,92693,1,2,0:2:0:0:
242,270,92864,6,0,B|264:286|264:286|274:319|263:357|263:357|226:344|203:314|203:314|206:288,1,199.499993911743,2|0,3:2|0:0,0:0:0:0:
196,199,93208,2,0,B|281:192|281:192|301:199|301:199|393:191,1,199.499993911743,10|0,3:2|0:0,0:0:0:0:
440,123,93551,6,0,P|484:100|458:142,1,132.999995941162,0|0,3:2|0:0,0:0:0:0:
487,326,93894,2,0,B|456:357|409:336|409:336|404:311|385:295,1,132.999995941162,10|0,3:2|0:0,0:0:0:0:
255,144,94238,5,0,3:2:0:0:
333,354,94409,1,0,0:0:0:0:
201,292,94581,2,0,P|266:288|315:246,1,132.999995941162,8|0,3:2|0:0,0:0:0:0:
476,97,94924,5,2,3:2:0:0:
476,97,95096,1,2,0:2:0:0:
394,39,95268,5,10,3:2:0:0:
375,41,95353,1,2,0:2:0:0:
356,43,95439,1,2,0:2:0:0:
267,192,95611,6,0,B|220:188|215:134|215:134|230:154|253:160,1,132.999995941162,2|0,3:2|0:0,0:0:0:0:
275,85,95954,2,0,B|220:71|171:100|190:128|140:153|94:140,1,199.499993911743,10|0,3:2|0:0,0:0:0:0:
46,76,96298,5,2,3:2:0:0:
46,76,96470,1,2,0:2:0:0:
13,302,96641,5,10,3:2:0:0:
87,316,96813,1,2,0:2:0:0:
162,330,96985,5,2,3:2:0:0:
494,363,97328,5,10,3:2:0:0:
364,16,97671,5,2,3:2:0:0:
364,16,97843,1,2,0:2:0:0:
429,56,98015,5,10,3:2:0:0:
404,183,98186,1,2,0:2:0:0:
469,223,98358,5,2,3:2:0:0:
65,137,98701,5,2,3:2:0:0:
12,59,98873,1,0,3:2:0:0:
14,40,98958,1,2,0:2:0:0:
16,21,99044,1,2,2:2:0:0:
