osu file format v14

[General]
AudioFilename: audio.mp3
AudioLeadIn: 0
PreviewTime: 22392
Countdown: 0
SampleSet: Soft
StackLeniency: 0.7
Mode: 0
LetterboxInBreaks: 0
WidescreenStoryboard: 1

[Editor]
Bookmarks: 11148,44109,50289,99045
DistanceSpacing: 1
BeatDivisor: 2
GridSize: 16
TimelineZoom: 1

[Metadata]
Title:high school romance
TitleUnicode:high school romance
Artist:miraie
ArtistUnicode:miraie
Creator:Chompy
Version:easy
Source:osu!
Tags:fa featured artist mg mpg mappers mappers' guild english pop hyperpop hiphop hip hop trap xoul lazarus gordon indie lb66
BeatmapID:2995170
BeatmapSetID:1457191

[Difficulty]
HPDrainRate:2
CircleSize:2
OverallDifficulty:3
ApproachRate:3.5
SliderMultiplier:0.9
SliderTickRate:1

[Events]
//Background and Video events
0,0,"le thundercokc photograph.jpg",0,0
//Break Periods
2,44309,48849
//Storyboard Layer 0 (Background)
//Storyboard Layer 1 (Fail)
//Storyboard Layer 2 (Pass)
//Storyboard Layer 3 (Foreground)
//Storyboard Layer 4 (Overlay)
//Storyboard Sound Samples

[TimingPoints]
161,343.347639484979,4,2,1,25,1,0
11148,-100,4,2,1,70,0,0
20933,-100,4,2,2,70,0,0
21105,-100,4,2,1,70,0,0
21276,-100,4,2,2,70,0,0
21448,-100,4,2,1,70,0,0
21620,-100,4,2,2,70,0,0
22135,-90.9090909090909,4,2,1,85,0,1
43594,-90.9090909090909,4,2,2,85,0,1
43766,-90.9090909090909,4,2,1,85,0,1
43937,-90.9090909090909,4,2,2,85,0,1
44109,-90.9090909090909,4,2,1,85,0,0
50289,-100,4,2,1,60,0,0
55096,-100,4,2,1,70,0,0
65568,-100,4,2,2,70,0,0
66083,-90.9090909090909,4,2,1,85,0,1
76384,-100,4,2,1,85,0,0
77070,-90.9090909090909,4,2,1,85,0,1
98530,-90.9090909090909,4,2,2,85,0,1
98701,-90.9090909090909,4,2,1,85,0,1
98873,-90.9090909090909,4,2,2,85,0,1
99045,-90.9090909090909,4,2,1,85,0,0

[Colours]
Combo1 : 234,217,191
Combo2 : 214,254,139
Combo3 : 213,226,199
Combo4 : 247,168,115

[HitObjects]
32,321,11148,6,0,B|78:297|122:324|103:347|154:368|198:340,1,180,4|2,3:2|3:2,0:0:0:0:
256,271,12178,1,2,3:2:0:0:
313,340,12521,2,0,B|358:368|409:347|390:324|434:297|480:321,1,180,2|2,3:2|3:2,0:0:0:0:
475,140,13894,6,0,P|422:70|335:57,1,180,2|2,3:2|3:2,0:0:0:0:
256,101,14924,1,2,3:2:0:0:
176,57,15268,2,0,P|134:70|106:106,1,90,2|2,3:2|3:2,0:0:0:0:
85,285,16298,1,2,3:2:0:0:
173,303,16641,6,0,P|217:252|327:252,1,180,2|2,3:2|3:2,0:0:0:0:
399,297,17671,1,2,3:2:0:0:
474,247,18015,2,0,P|487:204|474:161,1,90,2|2,3:2|3:2,0:0:0:0:
421,90,18701,1,2,3:2:0:0:
247,43,19388,6,0,B|163:50|163:50|151:47|151:47|63:55,1,180,2|2,3:2|3:2,0:0:0:0:
26,134,20418,1,2,3:2:0:0:
65,309,21105,2,0,P|108:322|151:309,1,90,2|10,3:2|3:2,0:0:0:0:
198,117,22135,5,4,3:2:0:0:
285,70,22478,2,0,P|379:84|431:165,1,198.000006042481,10|10,3:2|3:2,0:0:0:0:
422,264,23508,1,2,3:2:0:0:
331,304,23851,2,0,B|276:304|254:355|254:355|232:304|177:304,1,198.000006042481,10|10,3:2|3:2,0:0:0:0:
87,264,24882,6,0,P|72:216|87:169,1,99.0000030212403,2|10,3:2|3:2,0:0:0:0:
245,52,25912,1,10,3:2:0:0:
330,103,26255,2,0,B|374:192|374:192|332:282,1,198.000006042481,2|2,3:2|3:2,0:0:0:0:
245,329,27285,1,10,3:2:0:0:
52,283,27972,6,0,P|16:193|55:104,1,198.000006042481,10|10,3:2|3:2,0:0:0:0:
133,43,29002,1,2,3:2:0:0:
220,89,29345,2,0,B|270:115|319:85|298:60|354:37|402:68,1,198.000006042481,10|10,3:2|3:2,0:0:0:0:
479,131,30375,6,0,P|493:178|479:225,1,99.0000030212403,2|10,3:2|3:2,0:0:0:0:
334,359,31405,1,10,3:2:0:0:
239,330,31748,2,0,B|231:237|231:237|234:224|234:224|225:127,1,198.000006042481,2|2,3:2|3:2,0:0:0:0:
293,59,32779,1,10,3:2:0:0:
97,43,33465,6,0,P|30:113|40:208,1,198.000006042481,10|8,3:2|3:2,2:0:0:0:
99,288,34495,1,2,3:2:0:0:
171,351,34839,2,0,B|226:343|226:343|256:320|263:282|263:282|330:267,1,198.000006042481,10|10,3:2|3:2,0:0:0:0:
411,210,35869,5,2,3:2:0:0:
498,256,36212,1,10,3:2:0:0:
506,58,36899,1,10,3:2:0:0:
411,29,37242,2,0,B|360:2|312:32|332:57|276:80|228:49,1,198.000006042481,2|2,3:2|3:2,0:0:0:0:
131,27,38272,1,10,3:2:0:0:
31,198,38959,6,0,P|45:293|124:347,1,198.000006042481,10|8,3:2|3:2,0:0:0:0:
202,286,39989,1,2,3:2:0:0:
278,348,40332,2,0,B|370:339|370:339|382:333|382:333|479:325,1,198.000006042481,10|10,3:2|3:2,0:0:0:0:
509,233,41362,5,2,3:2:0:0:
448,154,41706,1,10,3:2:0:0:
285,41,42392,1,10,3:2:0:0:
207,103,42736,2,0,B|162:192|162:192|204:282,1,198.000006042481,2|2,3:2|3:2,0:0:0:0:
285,339,43766,1,2,3:2:0:0:
377,302,44109,1,2,0:2:0:0:
353,276,50289,6,0,B|353:319|309:351|257:351|257:351|205:351|161:319|161:276,1,270,2|2,0:2|0:2,0:0:0:0:
137,77,53036,6,0,B|185:83|229:62|256:27|256:27|285:65|331:82|375:77,1,270,2|2,0:2|0:2,0:0:0:0:
480,323,55096,6,0,B|434:299|390:326|409:349|358:370|314:342,1,180,4|2,3:2|3:2,0:0:0:0:
256,273,56126,1,2,3:2:0:0:
199,342,56469,2,0,B|154:370|103:349|122:326|78:299|32:323,1,180,2|2,3:2|3:2,0:0:0:0:
35,142,57843,6,0,P|88:72|175:59,1,180,2|0,3:2|3:2,0:0:0:0:
258,94,58873,1,2,3:2:0:0:
333,42,59217,1,2,3:2:0:0:
421,61,59560,2,0,P|435:103|424:146,1,90,2|2,3:2|3:2,0:0:0:0:
364,315,60590,1,2,3:2:0:0:
298,252,60933,6,0,P|256:239|213:252,1,90,2|2,3:2|3:2,0:0:0:0:
148,314,61620,1,2,3:2:0:0:
65,278,61963,2,0,B|73:194|73:194|78:183|78:183|85:95,1,180,2|2,3:2|3:2,0:0:0:0:
261,64,63336,1,2,3:2:0:0:
327,124,63680,6,0,B|356:137|375:163|380:192|380:192|375:224|354:249|327:260,1,180,2|2,3:2|3:2,0:0:0:0:
246,301,64710,2,0,P|213:270|169:263,1,90,2|2,3:2|3:2,0:0:0:0:
89,304,65397,1,8,3:2:0:0:
21,117,66083,5,4,3:2:0:0:
81,38,66427,2,0,P|176:49|228:129,1,198.000006042481,10|10,3:2|3:2,0:0:0:0:
201,225,67457,1,2,3:2:0:0:
226,320,67800,2,0,B|267:289|319:314|307:339|354:370|409:340,1,198.000006042481,10|10,3:2|3:2,0:0:0:0:
497,297,68830,5,2,3:2:0:0:
465,203,69173,1,10,3:2:0:0:
382,23,69860,1,10,3:2:0:0:
346,115,70203,2,0,B|256:159|256:159|166:117,1,198.000006042481,2|2,3:2|3:2,0:0:0:0:
136,23,71233,1,10,3:2:0:0:
35,193,71920,6,0,P|34:290|104:355,1,198.000006042481,10|10,3:2|3:2,0:0:0:0:
190,306,72950,1,2,3:2:0:0:
272,250,73294,2,0,B|321:219|377:242|356:267|405:297|455:270,1,198.000006042481,10|10,3:2|3:2,0:0:0:0:
498,180,74324,5,2,3:2:0:0:
454,91,74667,1,10,3:2:0:0:
270,17,75354,1,10,3:2:0:0:
207,93,75697,2,0,B|152:93|130:144|130:144|108:93|52:93,1,198.000006042481,2|2,3:2|0:2,0:0:0:0:
18,288,77070,5,4,3:2:0:0:
106,332,77414,2,0,P|200:347|275:281,1,198.000006042481,10|10,3:2|3:2,0:0:0:0:
335,207,78444,1,2,3:2:0:0:
431,211,78787,2,0,B|462:196|483:168|489:136|489:136|483:101|460:73|431:61,1,198.000006042481,10|10,3:2|3:2,0:0:0:0:
332,45,79817,6,0,P|284:30|237:45,1,99.0000030212403,2|10,3:2|3:2,0:0:0:0:
90,175,80847,1,10,3:2:0:0:
125,267,81191,2,0,B|174:297|230:274|209:249|258:219|308:246,1,198.000006042481,2|2,3:2|3:2,0:0:0:0:
380,313,82221,1,10,3:2:0:0:
492,150,82907,6,0,P|472:56|383:26,1,198.000006042481,10|10,3:2|3:2,0:0:0:0:
296,75,83937,1,2,3:2:0:0:
197,59,84281,2,0,B|205:151|205:151|211:163|211:163|219:260,1,198.000006042481,10|10,3:2|3:2,0:0:0:0:
157,333,85311,6,0,P|109:347|62:333,1,99.0000030212403,2|10,3:2|3:2,0:0:0:0:
16,141,86341,1,10,3:2:0:0:
76,63,86684,2,0,P|166:30|252:74,1,198.000006042481,2|2,3:2|3:2,2:0:0:0:
332,132,87714,1,10,3:2:0:0:
286,324,88401,6,0,P|379:346|459:293,1,198.000006042481,10|8,3:2|3:2,0:0:0:0:
500,202,89431,1,2,3:2:0:0:
436,126,89774,2,0,B|381:116|381:116|352:90|346:52|346:52|280:34,1,198.000006042481,10|10,3:2|3:2,0:0:0:0:
207,101,90804,5,2,3:2:0:0:
128,40,91148,1,10,3:2:0:0:
14,202,91834,1,10,3:2:0:0:
55,291,92178,2,0,B|105:317|154:287|133:262|189:239|237:270,1,198.000006042481,2|2,3:2|3:2,0:0:0:0:
315,331,93208,1,10,3:2:0:0:
465,203,93894,6,0,P|476:106|407:32,1,198.000006042481,10|8,3:2|3:2,0:0:0:0:
314,31,94924,1,2,3:2:0:0:
238,95,95268,2,0,B|145:86|145:86|133:80|133:80|36:73,1,198.000006042481,10|10,3:2|3:2,0:0:0:0:
10,167,96298,5,2,3:2:0:0:
86,230,96641,1,10,3:2:0:0:
243,349,97328,1,10,3:2:0:0:
315,281,97672,2,0,B|359:191|359:191|317:101,1,198.000006042481,2|2,3:2|3:2,0:0:0:0:
243,36,98702,1,2,3:2:0:0:
147,61,99045,1,2,0:2:0:0:
