osu file format v14

[General]
AudioFilename: audio.mp3
AudioLeadIn: 0
PreviewTime: 62751
Countdown: 0
SampleSet: Soft
StackLeniency: 0.7
Mode: 0
LetterboxInBreaks: 0
EpilepsyWarning: 1
WidescreenStoryboard: 0

[Editor]
Bookmarks: 25089,50197,62751,87859,94136,112967
DistanceSpacing: 0.5
BeatDivisor: 4
GridSize: 4
TimelineZoom: 1.8

[Metadata]
Title:heal
TitleUnicode:heal
Artist:miraie
ArtistUnicode:miraie
Creator:we vibing
Version:tranquillity
Source:
Tags:yandere lovefelt glitch ambient pop hyperpop english we_vibing fa featured artist
BeatmapID:3482573
BeatmapSetID:1704371

[Difficulty]
HPDrainRate:5
CircleSize:4
OverallDifficulty:8
ApproachRate:8.5
SliderMultiplier:1.4
SliderTickRate:1

[Events]
//Background and Video events
0,0,"876243-1920x1080-[DesktopNexus.com].jpg",0,0
Video,0,"heal.mp4"
//Break Periods
2,50397,62076
2,88059,93461
//Storyboard Layer 0 (Background)
//Storyboard Layer 1 (Fail)
//Storyboard Layer 2 (Pass)
//Storyboard Layer 3 (Foreground)
//Storyboard Layer 4 (Overlay)
//Storyboard Sound Samples

[TimingPoints]
-18,392.310710082385,4,2,1,75,1,0
25089,-66.6666666666667,4,2,1,75,0,0
62751,-83.3333333333333,4,2,1,70,0,0
77561,-83.3333333333333,4,2,1,5,0,0
77659,-83.3333333333333,4,2,1,70,0,0
81484,-83.3333333333333,4,2,1,5,0,0
81582,-83.3333333333333,4,2,1,70,0,0
94136,-60.6060606060606,4,2,1,80,0,1
94430,-60.6060606060606,4,2,1,5,0,1
94528,-60.6060606060606,4,2,1,80,0,1
112967,-60.6060606060606,4,2,1,80,0,0

[Colours]
Combo1 : 171,177,92
Combo2 : 210,171,13
Combo3 : 250,134,5
Combo4 : 255,164,164

[HitObjects]
17,72,25089,6,0,B|68:37|128:77|91:107|150:154|197:115,1,210.000008010865,4|2,1:2|2:2,0:0:0:0:
197,115,25678,1,0,0:0:0:0:
392,64,25874,2,0,L|275:37,1,105.000004005432,8|0,2:2|0:0,0:0:0:0:
160,216,26266,2,0,L|276:189,1,105.000004005432,2|0,2:2|0:0,0:0:0:0:
262,192,26659,1,0,0:0:0:0:
289,40,27051,2,0,P|260:93|202:113,1,105.000004005432,2|0,1:2|0:0,0:0:0:0:
38,70,27443,2,0,P|98:67|144:107,1,105.000004005432,8|0,2:2|0:0,0:0:0:0:
47,227,27836,1,2,2:2:0:0:
205,264,28032,2,0,L|146:250,1,52.5000020027161
138,248,28228,6,0,L|254:221,1,105.000004005432,0|0,1:2|0:0,0:0:0:0:
387,169,28620,2,0,L|360:285,1,105.000004005432,2|0,2:2|0:0,0:0:0:0:
299,354,29012,2,0,L|292:324,7,26.2500010013581,8|0|0|0|0|0|0|0,2:2|0:0|0:0|0:0|0:0|0:0|0:0|0:0,0:0:0:0:
287,299,29405,1,2,1:2:0:0:
138,248,29601,2,0,B|189:283|255:237|221:223|279:188|333:229,1,210.000008010865,0|0,1:2|0:0,0:0:0:0:
487,145,30189,2,0,P|441:185|380:183,1,105.000004005432,2|0,1:2|0:0,0:0:0:0:
265,35,30582,2,0,L|333:51,2,70.0000026702882,8|8|8,2:2|0:1|0:1,0:0:0:0:
184,138,30974,2,0,L|115:154,2,70.0000026702882,2|8|8,2:2|0:1|0:1,0:0:0:0:
349,246,31366,6,0,P|421:228|427:108,1,210.000008010865,0|2,1:2|2:2,0:0:0:0:
184,138,32151,2,0,P|230:178|291:176,1,105.000004005432,10|0,2:2|0:0,0:0:0:0:
402,3,32543,2,0,P|344:22|315:76,1,105.000004005432,2|0,2:2|0:0,0:0:0:0:
319,56,32936,1,0,0:0:0:0:
108,180,33328,2,0,L|78:173,7,26.2500010013581,2|0|0|0|0|0|0|0,1:2|0:0|0:0|0:0|0:0|0:0|0:0|0:0,0:0:0:0:
53,169,33721,1,10,2:2:0:0:
216,267,33916,2,0,B|267:232|333:278|299:292|357:327|411:286,1,210.000008010865,0|0,1:2|0:0,0:0:0:0:
407,82,34505,6,0,L|380:198,1,105.000004005432,0|0,1:2|0:0,0:0:0:0:
216,267,34897,2,0,L|243:383,1,105.000004005432,2|0,2:2|0:0,0:0:0:0:
383,184,35289,1,10,2:2:0:0:
117,88,35682,2,0,L|100:156,2,70.0000026702882,2|8|8,1:2|0:1|0:1,0:0:0:0:
123,68,36074,2,0,P|169:108|230:106,1,105.000004005432
407,82,36466,2,0,L|380:198,1,105.000004005432,2|0,1:2|0:0,0:0:0:0:
292,298,36859,1,10,2:2:0:0:
211,111,37055,1,0,1:2:0:0:
383,273,37251,2,0,L|451:256,2,70.0000026702882,2|8|8,2:2|0:1|0:1,0:0:0:0:
330,364,37643,6,0,B|279:399|213:353|247:339|189:304|138:342,1,210.000008010865,4|2,1:2|2:2,0:0:0:0:
138,341,38232,1,0,0:0:0:0:
46,183,38428,2,0,L|73:299,1,105.000004005432,8|0,2:2|0:0,0:0:0:0:
223,160,38820,2,0,L|246:57,1,105.000004005432,2|0,2:2|0:0,0:0:0:0:
246,57,39213,1,0,0:0:0:0:
484,229,39605,2,0,P|438:189|377:191,1,105.000004005432,2|0,1:2|0:0,0:0:0:0:
248,338,39997,2,0,P|305:318|334:264,1,105.000004005432,8|0,2:2|0:0,0:0:0:0:
227,158,40390,1,2,2:2:0:0:
390,109,40586,2,0,L|449:95,1,52.5000020027161
457,93,40782,6,0,L|341:66,1,105.000004005432,4|0,1:2|0:0,0:0:0:0:
254,255,41174,2,0,L|335:168,1,105.000004005432,2|0,2:2|0:0,0:0:0:0:
210,39,41566,2,0,L|218:68,7,26.2500010013581,8|0|0|0|0|0|0|0,2:2|0:0|0:0|0:0|0:0|0:0|0:0|0:0,0:0:0:0:
223,93,41959,1,2,1:2:0:0:
42,190,42155,2,0,P|79:142|204:194,1,210.000008010865,0|0,1:2|0:0,0:0:0:0:
311,294,42743,2,0,P|266:333|204:331,1,105.000004005432,2|0,1:2|0:0,0:0:0:0:
121,223,43136,2,0,L|104:291,2,70.0000026702882,8|8|8,2:2|0:1|0:1,0:0:0:0:
249,166,43528,2,0,L|232:97,2,70.0000026702882,2|8|8,2:2|0:1|0:1,0:0:0:0:
383,241,43920,5,0,1:2:0:0:
489,89,44116,2,0,P|418:166|319:95,1,210.000008010865,0|0,1:2|0:0,0:0:0:0:
217,7,44705,2,0,P|268:14|304:50,1,105.000004005432,10|0,2:2|0:0,0:0:0:0:
339,227,45097,2,0,P|319:179|332:129,1,105.000004005432,2|0,2:2|0:0,0:0:0:0:
332,129,45490,1,0,0:0:0:0:
485,351,45882,2,0,L|455:344,7,26.2500010013581,2|0|0|0|0|0|0|0,1:2|0:0|0:0|0:0|0:0|0:0|0:0|0:0,0:0:0:0:
430,339,46275,1,10,2:2:0:0:
249,247,46470,2,0,B|216:228|192:229|192:229|244:206|297:261|350:216,1,210.000008010865,0|0,1:2|0:0,0:0:0:0:
466,158,47059,6,0,L|442:55,1,105.000004005432,4|0,1:2|0:0,0:0:0:0:
338,225,47451,2,0,L|315:328,1,105.000004005432,2|0,2:2|0:0,0:0:0:0:
251,115,47843,1,10,2:2:0:0:
78,258,48236,2,0,L|95:327,2,70.0000026702882,2|8|8,1:2|0:1|0:1,0:0:0:0:
72,237,48628,2,0,P|116:263|168:257,1,105.000004005432
163,80,49020,2,0,L|139:183,1,105.000004005432,2|0,1:2|0:0,0:0:0:0:
274,319,49413,1,10,2:2:0:0:
72,237,49609,1,0,1:2:0:0:
267,124,49805,2,0,L|326:138,1,52.5000020027161,2|0,2:2|2:2,2:2:0:0:
389,212,50001,2,0,L|330:226,1,52.5000020027161,0|0,1:2|2:2,2:2:0:0:
167,257,50197,5,4,2:2:0:0:
145,127,62751,6,0,P|199:126|257:215,1,167.999994873047,4|0,1:2|0:0,0:0:0:0:
163,217,63340,1,2,2:2:0:0:
56,91,63536,2,0,L|75:174,1,83.9999974365235,10|0,2:2|0:0,0:0:0:0:
144,298,63928,2,0,L|163:214,1,83.9999974365235,2|0,2:2|0:0,0:0:0:0:
56,91,64320,2,0,L|75:172,1,83.9999974365235,2|0,2:2|0:0,0:0:0:0:
10,318,64713,6,0,P|44:275|148:306,1,167.999994873047,2|10,1:2|2:2,0:0:0:0:
143,297,65301,1,0,0:0:0:0:
214,365,65497,2,0,L|295:345,1,83.9999974365235,2|0,2:2|0:0,0:0:0:0:
489,293,65890,2,0,B|448:323|402:295|429:284|377:248|336:275,1,167.999994873047,0|2,1:2|2:2,0:0:0:0:
370,347,66478,5,2,2:2:0:0:
463,223,66674,2,0,L|443:141,1,83.9999974365235,10|0,2:2|0:0,0:0:0:0:
337,13,67067,1,2,1:2:0:0:
483,74,67263,1,0,1:0:0:0:
362,145,67459,2,0,L|279:125,1,83.9999974365235,2|0,2:2|0:0,0:0:0:0:
195,15,67851,6,0,P|251:32|262:64,1,83.9999974365235,2|0,1:2|0:0,0:0:0:0:
281,126,68244,1,10,2:2:0:0:
344,251,68440,2,0,P|279:210|286:120,1,167.999994873047,0|0,1:2|0:0,0:0:0:0:
488,41,69028,6,0,L|441:227,1,167.999994873047,6|0,1:2|0:0,0:0:0:0:
344,251,69617,1,0,0:0:0:0:
255,171,69813,2,0,L|348:147,1,83.9999974365235,2|0,2:2|0:0,0:0:0:0:
274,299,70205,2,0,L|192:278,1,83.9999974365235,2|0,2:2|0:0,0:0:0:0:
189,134,70597,2,0,P|245:151|256:183,1,83.9999974365235,2|0,2:2|0:0,0:0:0:0:
214,379,70990,2,0,L|206:348,7,20.9999993591309,2|0|0|0|2|0|0|0,1:2|0:0|0:0|0:0|2:2|0:0|0:0|0:0,0:0:0:0:
204,335,71382,1,10,2:2:0:0:
30,289,71578,2,0,P|70:306|167:229,1,167.999994873047,0|0,1:2|0:0,0:0:0:0:
248,128,72167,6,0,L|82:167,1,167.999994873047,2|0,1:2|0:0,0:0:0:0:
320,78,72951,2,0,L|339:159,1,83.9999974365235,10|0,2:2|0:0,0:0:0:0:
453,298,73344,2,0,P|418:276|378:286,1,83.9999974365235,2|0,1:2|0:0,0:0:0:0:
290,312,73736,2,0,L|309:230,1,83.9999974365235,2|0,2:2|0:0,0:0:0:0:
169,91,74128,2,0,P|203:112|243:102,1,83.9999974365235,2|0,1:2|0:0,0:0:0:0:
354,41,74521,1,10,2:2:0:0:
488,101,74717,2,0,B|447:70|401:98|428:109|376:145|335:118,1,167.999994873047,0|0,1:2|1:2,0:0:0:0:
201,30,75305,6,0,P|133:22|111:122,1,167.999994873047,6|0,1:2|0:0,0:0:0:0:
100,102,75894,1,0,0:0:0:0:
51,192,76090,2,0,L|43:161,2,20.9999993591309,8|0|0,2:2|0:0|0:0,0:0:0:0:
137,326,76482,2,0,L|144:295,4,20.9999993591309
62,367,76874,1,0,0:0:0:0:
223,219,77267,6,0,P|278:225|316:284,1,125.999996154785,2|0,1:2|0:0,0:0:0:0:
321,291,77659,2,0,L|340:209,1,83.9999974365235,10|0,2:2|0:0,0:0:0:0:
416,181,78051,1,2,2:2:0:0:
257,101,78247,2,0,L|216:110,1,41.9999987182618
198,114,78444,2,0,B|238:83|284:111|257:122|309:158|350:131,1,167.999994873047,2|0,1:2|0:0,0:0:0:0:
351,131,79032,1,0,0:0:0:0:
492,34,79228,2,0,P|452:23|417:45,1,83.9999974365235,8|0,2:2|0:0,0:0:0:0:
456,166,79621,2,0,L|475:84,2,55.9999982910157,0|8|8,1:2|0:1|0:1,0:0:0:0:
446,179,80013,2,0,L|465:260,1,83.9999974365235
265,165,80405,6,0,L|347:185,1,83.9999974365235,2|0,1:2|0:0,0:0:0:0:
478,339,80798,1,2,2:2:0:0:
352,258,80994,1,0,1:0:0:0:
232,349,81190,2,0,L|109:320,1,125.999996154785,2|0,2:2|0:0,0:0:0:0:
90,315,81582,6,0,P|148:341|147:262,1,167.999994873047,6|0,1:2|0:0,0:0:0:0:
55,157,82367,2,0,P|3:194|72:232,1,167.999994873047,8|0,2:2|0:0,0:0:0:0:
69,234,82955,1,0,0:0:0:0:
147,179,83151,2,0,L|228:159,1,83.9999974365235
39,37,83544,2,0,L|31:67,7,20.9999993591309,0|0|0|0|0|0|0|0,1:2|0:0|0:0|0:0|0:0|0:0|0:0|0:0,0:0:0:0:
27,79,83937,1,8,2:2:0:0:
225,129,84132,2,0,P|218:64|114:63,1,167.999994873047,0|0,1:2|0:0,0:0:0:0:
6,185,84721,6,0,B|46:215|92:187|65:176|117:140|158:167,1,167.999994873047,2|2,1:2|2:2,0:0:0:0:
158,168,85309,1,0,0:0:0:0:
299,117,85505,2,0,P|259:106|224:128,1,83.9999974365235,10|0,2:2|0:0,0:0:0:0:
130,243,85898,2,0,L|149:324,1,83.9999974365235,2|0,1:2|0:0,0:0:0:0:
45,163,86290,2,0,L|64:81,1,83.9999974365235,2|0,2:2|0:0,0:0:0:0:
224,127,86682,6,0,L|142:146,1,83.9999974365235,2|0,1:2|0:0,0:0:0:0:
111,25,87074,1,10,2:2:0:0:
288,57,87271,2,0,L|369:76,1,83.9999974365235,0|2,1:2|2:2,0:0:0:0:
261,200,87663,1,0,1:2:0:0:
111,25,87859,5,6,1:2:0:0:
442,355,94136,6,0,B|365:303|383:222|416:196|448:274,1,173.250001652241,4|0,1:2|0:0,0:0:0:0:
435,258,94528,2,0,L|317:229,1,115.500001101494,2|0,2:2|0:0,0:0:0:0:
204,89,94921,2,0,P|263:109|277:169,1,115.500001101494,10|0,2:2|0:0,0:0:0:0:
190,311,95313,2,0,L|181:274,3,28.8750002753735,2|0|0|0,2:2|0:0|0:0|0:0,0:0:0:0:
177,251,95509,1,2,2:3:0:0:
52,191,95705,6,0,L|110:177,1,57.7500005507469
204,89,95901,2,0,L|145:75,1,57.7500005507469,2|0,2:3|0:0,0:0:0:0:
68,54,96098,1,2,1:2:0:0:
295,154,96294,1,8,2:2:0:0:
309,143,96392,1,8,2:2:0:0:
319,128,96490,2,0,P|324:68|290:24,1,115.500001101494,10|8,2:2|2:2,0:0:0:0:
183,195,96882,1,10,2:2:0:0:
205,200,96980,1,8,2:2:0:0:
227,206,97078,1,2,2:3:0:0:
502,51,97275,6,0,B|446:89|381:55|416:33|347:-14|291:26,1,231.000002202988,0|2,1:2|2:2,0:0:0:0:
291,25,97863,1,8,2:2:0:0:
436,207,98059,2,0,L|445:170,7,28.8750002753735,10|0|0|0|0|0|0|0,2:2|0:0|0:0|0:0|0:0|0:0|0:0|0:0,0:0:0:0:
452,148,98451,1,2,1:2:0:0:
320,258,98648,2,0,L|348:375,1,115.500001101494,2|0,1:3|0:0,0:0:0:0:
512,220,99040,5,2,2:3:0:0:
348,101,99236,2,0,P|279:90|233:136,1,115.500001101494,2|8,1:2|2:2,0:0:0:0:
166,313,99628,2,0,P|209:259|192:196,1,115.500001101494,10|8,2:2|1:2,0:0:0:0:
192,205,99923,1,8,2:2:0:0:
177,195,100021,2,0,L|59:223,1,115.500001101494,2|2,2:2|2:3,0:0:0:0:
300,16,100413,6,0,L|293:44,7,28.8750002753735,4|0|0|0|0|0|0|0,1:2|0:0|0:0|0:0|0:0|0:0|0:0|0:0,0:0:0:0:
286,75,100805,2,0,L|403:103,1,115.500001101494,2|0,2:2|0:0,0:0:0:0:
424,289,101198,2,0,P|380:235|397:172,1,115.500001101494,8|0,2:2|0:0,0:0:0:0:
474,62,101590,1,2,2:2:0:0:
304,154,101786,2,0,L|191:126,1,115.500001101494,2|0,2:3|0:0,0:0:0:0:
209,248,102178,1,2,2:3:0:0:
0,274,102375,6,0,B|55:312|121:278|86:256|154:208|210:249,1,231.000002202988,2|8,1:2|2:2,0:0:0:0:
360,364,102963,1,8,1:2:0:0:
338,359,103061,1,8,2:2:0:0:
316,353,103159,1,10,2:2:0:0:
163,318,103355,1,2,2:3:0:0:
371,206,103552,6,0,L|343:93,1,115.500001101494,0|0,1:2|0:0,0:0:0:0:
343,93,103944,2,0,L|399:106,1,57.7500005507469,2|0,2:2|0:0,0:0:0:0:
506,153,104140,2,0,L|449:166,1,57.7500005507469,8|0,2:2|0:0,0:0:0:0:
291,205,104336,2,0,L|281:168,7,28.8750002753735,8|0|0|0|0|0|0|0,2:2|0:0|0:0|0:0|0:0|0:0|0:0|0:0,0:0:0:0:
276,146,104728,1,2,1:2:0:0:
490,327,104925,2,0,P|419:236|327:293,1,231.000002202988,2|2,2:3|2:3,0:0:0:0:
117,334,105513,5,2,1:2:0:0:
279,360,105709,1,2,2:3:0:0:
186,208,105905,2,0,L|208:297,2,77.0000007343292,8|8|8,2:2|2:2|2:2,0:0:0:0:
178,185,106298,2,0,L|187:148,3,28.8750002753735,10|8|8|8,2:2|2:2|2:2|2:2,0:0:0:0:
191,125,106494,1,2,1:3:0:0:
6,77,106690,6,0,P|84:116|133:74,1,115.500001101494,4|2,1:2|2:3,0:0:0:0:
218,48,107082,1,2,0:0:0:0:
218,48,107180,1,2,0:0:0:0:
218,48,107278,2,0,L|274:34,1,57.7500005507469
381,14,107475,2,0,L|353:126,1,115.500001101494,10|0,2:2|0:0,0:0:0:0:
438,248,107867,2,0,L|447:284,3,28.8750002753735,2|0|0|0,2:2|0:0|0:0|0:0,0:0:0:0:
450,307,108063,2,0,L|337:279,1,115.500001101494,2|0,2:3|0:0,0:0:0:0:
200,294,108455,5,2,2:3:0:0:
127,104,108652,2,0,P|183:109|221:150,1,115.500001101494,2|8,1:2|2:2,0:0:0:0:
228,166,108946,1,8,2:2:0:0:
229,182,109044,2,0,L|201:294,1,115.500001101494,2|8,2:2|2:2,0:0:0:0:
3,237,109436,1,10,2:2:0:0:
25,232,109534,1,8,2:2:0:0:
47,226,109632,1,2,2:3:0:0:
289,99,109828,6,0,P|162:95|141:178,1,231.000002202988,4|2,1:2|2:2,0:0:0:0:
203,294,110417,1,2,2:3:0:0:
418,237,110613,2,0,L|305:209,1,115.500001101494,10|0,2:2|0:0,0:0:0:0:
140,176,111005,1,2,1:2:0:0:
35,334,111202,2,0,B|90:296|156:330|121:352|189:400|245:359,1,231.000002202988,2|2,1:3|2:3,0:0:0:0:
376,249,111790,6,0,P|322:293|259:276,1,115.500001101494,2|2,1:2|2:3,0:0:0:0:
132,211,112182,2,0,L|188:197,1,57.7500005507469,10|8,2:2|2:2,0:0:0:0:
286,147,112379,1,8,1:2:0:0:
291,169,112477,1,8,2:2:0:0:
297,191,112575,1,10,2:2:0:0:
153,88,112771,1,0,1:2:0:0:
430,88,112967,5,4,2:2:0:0:
