osu file format v14

[General]
AudioFilename: audio.mp3
AudioLeadIn: 0
PreviewTime: 62751
Countdown: 0
SampleSet: Soft
StackLeniency: 0.7
Mode: 0
LetterboxInBreaks: 0
EpilepsyWarning: 1
WidescreenStoryboard: 1

[Editor]
Bookmarks: 25089,50197,62751,87859,94136,112967
DistanceSpacing: 0.5
BeatDivisor: 4
GridSize: 4
TimelineZoom: 1.8

[Metadata]
Title:heal
TitleUnicode:heal
Artist:miraie
ArtistUnicode:miraie
Creator:we vibing
Version:normal
Source:
Tags:yandere lovefelt glitch ambient pop hyperpop english we_vibing fa featured artist
BeatmapID:3483991
BeatmapSetID:1704371

[Difficulty]
HPDrainRate:4
CircleSize:3.4
OverallDifficulty:5
ApproachRate:5.5
SliderMultiplier:1.4
SliderTickRate:1

[Events]
//Background and Video events
0,0,"876243-1920x1080-[DesktopNexus.com].jpg",0,0
Video,0,"heal.mp4"
//Break Periods
2,50397,61626
2,88059,93011
//Storyboard Layer 0 (Background)
//Storyboard Layer 1 (Fail)
//Storyboard Layer 2 (Pass)
//Storyboard Layer 3 (Foreground)
//Storyboard Layer 4 (Overlay)
//Storyboard Sound Samples

[TimingPoints]
-18,392.310710082385,4,2,1,70,1,0
25089,-100,4,2,1,70,0,0
62751,-111.111111111111,4,2,1,60,0,0
75403,-111.111111111111,4,2,1,55,0,0
81582,-111.111111111111,4,2,1,60,0,0
94136,-90.9090909090909,4,2,1,80,0,1
112967,-90.9090909090909,4,2,1,80,0,0

[Colours]
Combo1 : 171,177,92
Combo2 : 210,171,13
Combo3 : 250,134,5
Combo4 : 255,164,164

[HitObjects]
77,82,25089,6,0,P|161:46|213:83,1,140,4|2,1:2|2:2,0:0:0:0:
287,107,25874,1,8,2:2:0:0:
379,73,26266,2,0,L|396:148,1,70,2|0,2:2|0:0,0:0:0:0:
407,188,26659,1,0,0:0:0:0:
374,280,27051,2,0,L|299:297,1,70,2|0,1:2|0:0,0:0:0:0:
259,308,27444,1,8,2:2:0:0:
152,308,27836,2,0,L|136:239,1,70,2|0,2:2|0:0,0:0:0:0:
123,192,28228,6,0,L|157:43,1,140,0|2,1:2|2:2,0:0:0:0:
248,29,29012,1,8,2:2:0:0:
337,70,29405,1,2,1:2:0:0:
326,117,29601,2,0,L|294:253,1,140,0|0,1:2|0:0,0:0:0:0:
280,300,30189,2,0,P|236:304|202:271,1,70,2|0,1:2|0:0,0:0:0:0:
182,254,30582,1,8,2:2:0:0:
204,158,30974,2,0,L|219:89,1,70,2|0,2:2|0:0,0:0:0:0:
233,42,31366,6,0,P|177:18|91:60,1,140,0|2,1:2|2:2,0:0:0:0:
45,120,32151,1,10,2:2:0:0:
77,210,32543,2,0,L|145:225,1,70,2|0,2:2|0:0,0:0:0:0:
193,234,32935,1,0,0:0:0:0:
263,302,33328,2,0,L|331:287,1,70,2|0,1:2|0:0,0:0:0:0:
379,278,33720,1,10,2:2:0:0:
425,263,33916,2,0,L|393:126,1,140,0|0,1:2|0:0,0:0:0:0:
382,78,34505,6,0,P|317:47|252:93,1,140,0|2,1:2|2:2,0:0:0:0:
213,162,35289,1,10,2:2:0:0:
261,247,35682,2,0,L|330:263,1,70,2|0,1:2|0:0,0:0:0:0:
377,271,36074,1,0,0:0:0:0:
453,209,36466,2,0,P|466:139|415:74,1,140,2|10,1:2|2:2,0:0:0:0:
391,55,37055,1,0,1:2:0:0:
299,20,37447,1,0,1:2:0:0:
252,31,37643,6,0,L|116:62,1,140,4|2,1:2|2:2,0:0:0:0:
50,135,38428,1,8,2:2:0:0:
122,201,38820,2,0,L|106:270,1,70,2|0,2:2|0:0,0:0:0:0:
98,317,39212,1,0,0:0:0:0:
178,373,39605,2,0,P|216:375|247:357,1,70,2|0,1:2|0:0,0:0:0:0:
280,328,39997,1,8,2:2:0:0:
342,252,40390,2,0,P|380:250|411:268,1,70,2|0,2:2|0:0,0:0:0:0:
453,281,40782,6,0,P|488:223|460:162,1,140,4|2,1:2|2:2,0:0:0:0:
386,99,41566,1,8,2:2:0:0:
302,150,41959,1,2,1:2:0:0:
262,140,42155,2,0,L|193:124,1,70,0|0,1:2|0:0,0:0:0:0:
133,47,42743,2,0,P|87:55|65:82,1,70,2|0,1:2|0:0,0:0:0:0:
42,109,43136,1,8,2:2:0:0:
20,152,43332,2,0,L|52:288,1,140,0|0,1:0|1:2,0:0:0:0:
67,334,43920,5,0,1:2:0:0:
159,300,44313,2,0,L|191:164,2,140,2|10|2,0:0|2:2|2:2,0:0:0:0:
242,352,45490,1,0,0:0:0:0:
320,293,45882,2,0,L|389:277,1,70,2|0,1:2|0:0,0:0:0:0:
436,269,46274,1,10,2:2:0:0:
484,259,46470,2,0,P|501:187|452:118,1,140,0|0,1:2|0:0,0:0:0:0:
433,100,47059,5,4,1:2:0:0:
345,143,47451,2,0,L|209:111,2,140,2|10|2,2:2|2:2|1:2,0:0:0:0:
408,218,48628,1,0,0:0:0:0:
354,299,49020,2,0,P|304:306|279:292,1,70,2|0,1:2|0:0,0:0:0:0:
243,277,49413,1,10,2:2:0:0:
203,248,49609,2,0,P|128:232|67:280,1,140,0|0,1:2|1:2,0:0:0:0:
50,304,50197,5,4,0:0:0:0:
9,8,62751,6,0,L|41:145,1,125.999996154785,4|2,1:2|2:2,0:0:0:0:
51,172,63340,1,2,2:2:0:0:
64,213,63536,2,0,P|113:240|193:197,2,125.999996154785,10|2|2,2:2|2:2|2:2,0:0:0:0:
8,282,64713,1,2,1:2:0:0:
59,353,65105,2,0,L|196:321,1,125.999996154785,10|2,2:2|2:2,0:0:0:0:
229,250,65890,6,0,L|366:282,1,125.999996154785,0|2,1:2|2:2,0:0:0:0:
394,288,66479,1,2,2:2:0:0:
437,293,66675,2,0,P|464:243|421:163,2,125.999996154785,10|2|2,2:2|1:2|2:2,0:0:0:0:
386,365,67851,1,2,1:2:0:0:
307,323,68244,1,10,2:2:0:0:
296,280,68440,2,0,L|279:211,1,62.9999980773926,0|2,1:2|0:0,0:0:0:0:
271,175,68832,1,0,0:0:0:0:
262,131,69028,6,0,P|316:107|386:157,1,125.999996154785,6|2,1:2|2:2,0:0:0:0:
445,185,69813,1,10,2:2:0:0:
486,107,70205,2,0,L|470:38,1,62.9999980773926,2|0,2:2|0:0,0:0:0:0:
460,3,70597,1,2,2:2:0:0:
378,36,70990,1,2,1:2:0:0:
289,39,71382,1,10,2:2:0:0:
246,29,71578,2,0,L|109:-3,1,125.999996154785,0|0,1:2|0:0,0:0:0:0:
79,2,72167,6,0,P|46:54|83:127,1,125.999996154785,2|0,1:2|0:0,0:0:0:0:
119,180,72951,1,10,2:2:0:0:
75,257,73344,2,0,L|91:325,1,62.9999980773926,2|0,1:2|0:0,0:0:0:0:
102,360,73736,1,2,2:2:0:0:
184,329,74128,1,2,1:2:0:0:
265,362,74521,2,0,P|308:363|333:345,1,62.9999980773926,10|0,2:2|1:2,0:0:0:0:
360,328,74913,2,0,L|343:260,1,62.9999980773926,2|0,0:0|1:2,0:0:0:0:
324,228,75305,6,0,L|356:91,1,125.999996154785,6|0,1:2|0:0,0:0:0:0:
313,25,76090,2,0,P|245:1|186:37,1,125.999996154785,8|0,2:2|0:0,0:0:0:0:
133,80,76874,1,0,0:0:0:0:
193,143,77267,2,0,L|207:204,1,62.9999980773926,2|0,1:2|0:0,0:0:0:0:
217,247,77659,2,0,P|152:272|88:248,1,125.999996154785,10|2,2:2|2:2,0:0:0:0:
44,188,78444,6,0,P|63:105|119:103,1,125.999996154785,2|0,1:2|0:0,0:0:0:0:
180,96,79228,1,8,2:2:0:0:
253,144,79621,1,0,1:2:0:0:
297,136,79817,2,0,L|366:120,1,62.9999980773926,0|0,1:2|0:0,0:0:0:0:
439,92,80405,1,2,1:2:0:0:
505,149,80798,2,0,L|490:210,1,62.9999980773926,10|0,2:2|1:2,0:0:0:0:
483,254,81190,1,2,0:0:0:0:
455,337,81582,6,0,P|396:367|346:333,1,125.999996154785,6|0,1:2|0:0,0:0:0:0:
289,274,82367,1,8,2:2:0:0:
316,190,82759,2,0,L|301:128,1,62.9999980773926,2|2,2:2|2:2,0:0:0:0:
293,85,83151,1,2,2:2:0:0:
212,47,83544,1,0,1:2:0:0:
140,99,83936,2,0,P|97:100|72:82,1,62.9999980773926,8|0,2:2|1:2,0:0:0:0:
46,62,84328,1,2,2:2:0:0:
8,141,84721,6,0,L|36:263,1,125.999996154785,2|2,1:2|2:2,0:0:0:0:
85,336,85505,1,10,2:2:0:0:
168,307,85898,1,2,1:2:0:0:
246,346,86290,2,0,P|278:358|325:337,1,62.9999980773926,2|0,2:2|0:0,0:0:0:0:
347,339,86682,1,2,1:2:0:0:
404,271,87074,1,10,2:2:0:0:
393,228,87271,2,0,L|361:91,1,125.999996154785,0|0,1:2|1:2,0:0:0:0:
351,63,87859,5,6,1:2:0:0:
479,352,94136,6,0,P|437:364|403:345,1,77.0000023498536,4|0,1:2|0:0,0:0:0:0:
365,318,94528,2,0,P|323:306|289:325,1,77.0000023498536,2|0,2:2|0:0,0:0:0:0:
254,356,94921,1,10,2:2:0:0:
151,321,95313,1,2,2:2:0:0:
166,269,95509,2,0,L|202:113,1,154.000004699707,2|2,2:3|2:3,0:0:0:0:
219,68,96098,2,0,P|260:52|308:71,1,77.0000023498536,2|8,1:2|2:2,0:0:0:0:
336,88,96490,1,10,2:2:0:0:
411,165,96882,2,0,L|392:241,1,77.0000023498536,10|2,2:2|2:3,0:0:0:0:
378,292,97275,6,0,L|223:255,1,154.000004699707,0|2,1:2|2:2,0:0:0:0:
122,276,98059,2,0,P|74:211|93:135,1,154.000004699707,10|2,2:2|1:2,0:0:0:0:
118,99,98648,1,2,1:3:0:0:
209,42,99040,1,2,2:3:0:0:
253,12,99236,2,0,P|295:0|329:19,1,77.0000023498536,2|8,1:2|2:2,0:0:0:0:
366,46,99628,2,0,P|408:58|442:39,1,77.0000023498536,10|8,2:2|1:2,0:0:0:0:
481,14,100021,1,2,2:2:0:0:
507,118,100413,6,0,L|351:153,1,154.000004699707,4|2,1:2|2:2,0:0:0:0:
275,80,101198,2,0,L|120:113,1,154.000004699707,8|2,2:2|2:2,0:0:0:0:
73,129,101786,1,2,2:3:0:0:
13,210,102178,1,2,2:3:0:0:
64,226,102375,2,0,L|139:243,1,77.0000023498536,2|0,1:2|0:0,0:0:0:0:
179,279,102767,2,0,L|257:260,1,77.0000023498536,8|8,2:2|1:2,0:0:0:0:
305,246,103159,1,10,2:2:0:0:
407,278,103552,6,0,L|367:110,1,154.000004699707,0|2,1:2|2:2,0:0:0:0:
342,24,104336,1,8,2:2:0:0:
448,5,104728,2,0,L|465:79,1,77.0000023498536,2|2,1:2|2:3,0:0:0:0:
486,185,105317,1,0,2:3:0:0:
454,228,105513,2,0,P|412:240|378:221,1,77.0000023498536,2|2,1:2|2:3,0:0:0:0:
335,201,105905,2,0,P|293:189|259:208,1,77.0000023498536,0|0,2:2|1:0,0:0:0:0:
218,230,106298,2,0,P|176:242|142:223,1,77.0000023498536,10|2,2:2|1:3,0:0:0:0:
99,204,106690,6,0,L|134:52,1,154.000004699707,4|2,1:2|2:2,0:0:0:0:
228,0,107475,2,0,L|270:179,1,154.000004699707,10|2,2:2|2:2,0:0:0:0:
279,201,108063,1,2,2:3:0:0:
257,306,108455,1,2,2:3:0:0:
205,323,108652,2,0,L|129:340,1,77.0000023498536,2|8,1:2|2:2,0:0:0:0:
76,335,109044,2,0,L|93:258,1,77.0000023498536,2|8,2:2|2:2,0:0:0:0:
109,208,109436,1,10,2:2:0:0:
93,101,109828,6,0,P|144:48|228:90,1,154.000004699707,4|2,1:2|2:2,0:0:0:0:
312,111,110613,1,10,2:2:0:0:
407,58,111005,2,0,L|425:135,1,77.0000023498536,2|2,1:2|1:3,0:0:0:0:
508,200,111594,1,2,2:3:0:0:
494,252,111790,2,0,L|476:328,1,77.0000023498536,2|2,1:2|2:3,0:0:0:0:
441,367,112182,2,0,P|399:379|365:360,1,77.0000023498536,10|8,2:2|1:2,0:0:0:0:
322,341,112574,2,0,P|280:329|246:348,1,77.0000023498536,10|0,2:2|1:2,0:0:0:0:
210,377,112967,5,4,2:2:0:0:
