osu file format v14

[General]
AudioFilename: audio.mp3
AudioLeadIn: 0
PreviewTime: 62751
Countdown: 0
SampleSet: Soft
StackLeniency: 0.7
Mode: 0
LetterboxInBreaks: 0
EpilepsyWarning: 1
WidescreenStoryboard: 1

[Editor]
Bookmarks: 25089,50197,62751,87859,94136,112967
DistanceSpacing: 1.1
BeatDivisor: 4
GridSize: 4
TimelineZoom: 1.8

[Metadata]
Title:heal
TitleUnicode:heal
Artist:miraie
ArtistUnicode:miraie
Creator:we vibing
Version:hard
Source:
Tags:yandere lovefelt glitch ambient pop hyperpop english we_vibing fa featured artist
BeatmapID:3483896
BeatmapSetID:1704371

[Difficulty]
HPDrainRate:4.5
CircleSize:3.8
OverallDifficulty:6.5
ApproachRate:7.5
SliderMultiplier:1.4
SliderTickRate:1

[Events]
//Background and Video events
0,0,"876243-1920x1080-[DesktopNexus.com].jpg",0,0
Video,0,"heal.mp4"
//Break Periods
2,50397,61926
2,88059,93311
//Storyboard Layer 0 (Background)
//Storyboard Layer 1 (Fail)
//Storyboard Layer 2 (Pass)
//Storyboard Layer 3 (Foreground)
//Storyboard Layer 4 (Overlay)
//Storyboard Sound Samples

[TimingPoints]
-18,392.310710082385,4,2,1,70,1,0
25089,-90.9090909090909,4,2,1,70,0,0
62751,-100,4,2,1,60,0,0
75403,-100,4,2,1,55,0,0
81582,-100,4,2,1,60,0,0
94136,-80,4,2,1,80,0,1
94430,-80,4,2,1,5,0,1
94528,-80,4,2,1,80,0,1
106984,-80,4,2,1,5,0,1
107082,-80,4,2,1,80,0,1
112967,-80,4,2,1,80,0,0

[Colours]
Combo1 : 171,177,92
Combo2 : 210,171,13
Combo3 : 250,134,5
Combo4 : 255,164,164

[HitObjects]
106,93,25089,6,0,P|161:108|145:189,1,154.000004699707,4|2,1:2|0:0,0:0:0:0:
146,188,25678,1,0,0:0:0:0:
101,261,25874,2,0,L|190:280,1,77.0000023498536,8|0,2:2|0:0,0:0:0:0:
246,230,26266,2,0,L|335:209,1,77.0000023498536,2|0,2:2|0:0,0:0:0:0:
320,212,26659,1,0,0:0:0:0:
456,112,27051,2,0,B|415:138|368:114|393:98|344:64|304:93,1,154.000004699707,2|8,1:2|2:2,0:0:0:0:
233,66,27639,1,0,0:0:0:0:
242,150,27836,2,0,P|196:146|167:103,1,77.0000023498536,2|0,2:2|0:0,0:0:0:0:
116,64,28228,6,0,L|155:242,1,154.000004699707,0|2,1:2|2:2,0:0:0:0:
149,214,28816,1,0,0:0:0:0:
99,282,29012,2,0,L|58:272,3,38.5000011749268,8|0|0|0,2:2|0:0|0:0|0:0,0:0:0:0:
19,264,29405,1,2,1:2:0:0:
54,357,29601,2,0,P|94:371|142:349,1,77.0000023498536,0|0,1:2|0:0,0:0:0:0:
247,244,30189,2,0,P|287:229|335:251,1,77.0000023498536,2|0,1:2|0:0,0:0:0:0:
392,274,30582,6,0,L|405:215,2,51.3333348999024,8|8|8,2:2|2:1|2:1,0:0:0:0:
378,328,30974,2,0,L|391:385,2,51.3333348999024,2|8|8,2:2|2:1|2:1,0:0:0:0:
321,324,31366,6,0,B|280:297|233:321|258:337|209:371|169:342,1,154.000004699707,0|2,1:2|2:2,0:0:0:0:
42,249,32151,2,0,L|61:159,1,77.0000023498536,10|0,2:2|0:0,0:0:0:0:
135,139,32543,2,0,L|154:228,1,77.0000023498536,2|0,2:2|0:0,0:0:0:0:
151,214,32936,1,0,0:0:0:0:
300,135,33328,2,0,L|389:116,1,77.0000023498536,2|0,1:2|0:0,0:0:0:0:
458,101,33720,1,10,2:2:0:0:
471,184,33916,2,0,L|292:223,1,154.000004699707,0|0,1:2|0:0,0:0:0:0:
247,261,34505,6,0,P|268:294|307:307,1,77.0000023498536,0|0,1:2|0:0,0:0:0:0:
385,290,34897,2,0,L|475:271,1,77.0000023498536,2|0,2:2|0:0,0:0:0:0:
473,188,35289,2,0,L|453:98,1,77.0000023498536,10|0,2:2|0:0,0:0:0:0:
400,49,35682,6,0,L|457:35,2,51.3333348999024,2|8|8,1:2|2:1|2:1,0:0:0:0:
353,80,36074,2,0,P|314:92|275:77,1,77.0000023498536
212,32,36466,2,0,L|172:210,1,154.000004699707,2|10,1:2|2:2,0:0:0:0:
103,222,37055,1,0,1:2:0:0:
148,293,37251,6,0,L|134:350,2,51.3333348999024,2|8|8,2:2|2:1|2:1,0:0:0:0:
194,260,37643,6,0,B|234:233|281:257|256:273|305:307|345:278,1,154.000004699707,4|2,1:2|2:2,0:0:0:0:
334,284,38232,1,0,0:0:0:0:
384,215,38428,2,0,P|421:201|460:216,1,77.0000023498536,8|0,2:2|0:0,0:0:0:0:
505,280,38820,2,0,L|486:360,1,77.0000023498536,2|0,2:2|0:0,0:0:0:0:
487,354,39213,1,0,0:0:0:0:
334,284,39605,2,0,L|315:202,1,77.0000023498536,2|0,1:2|0:0,0:0:0:0:
277,133,39997,2,0,P|314:119|353:134,1,77.0000023498536,8|0,2:2|0:0,0:0:0:0:
348,130,40390,1,2,2:2:0:0:
412,75,40586,1,0,0:0:0:0:
352,16,40782,6,0,L|270:34,1,77.0000023498536,4|0,1:2|0:0,0:0:0:0:
208,83,41174,2,0,L|126:64,1,77.0000023498536,2|0,2:2|0:0,0:0:0:0:
68,11,41566,2,0,L|58:51,3,38.5000011749268,8|0|0|0,2:2|0:0|0:0|0:0,0:0:0:0:
47,89,41959,1,2,1:2:0:0:
94,152,42155,2,0,L|133:330,1,154.000004699707,0|0,1:2|0:0,0:0:0:0:
195,353,42743,2,0,L|213:271,1,77.0000023498536,2|0,1:2|0:0,0:0:0:0:
271,216,43136,6,0,L|257:157,2,51.3333348999024,8|8|8,2:2|2:1|2:1,0:0:0:0:
314,251,43528,2,0,L|300:308,2,51.3333348999024,2|8|8,2:2|2:1|2:1,0:0:0:0:
363,223,43920,5,0,1:2:0:0:
412,291,44116,2,0,P|439:251|381:142,1,154.000004699707,0|0,1:2|0:0,0:0:0:0:
341,105,44705,2,0,L|259:86,1,77.0000023498536,10|0,2:2|0:0,0:0:0:0:
292,7,45097,2,0,L|374:26,1,77.0000023498536,2|0,2:2|0:0,0:0:0:0:
367,25,45490,1,0,0:0:0:0:
198,36,45882,2,0,L|157:45,3,38.5000011749268,2|0|0|0,1:2|0:0|0:0|0:0,0:0:0:0:
119,55,46275,1,10,2:2:0:0:
52,106,46470,2,0,P|93:144|180:118,1,154.000004699707,0|0,1:2|0:0,0:0:0:0:
259,89,47059,6,0,L|277:170,1,77.0000023498536,4|0,1:2|0:0,0:0:0:0:
350,203,47451,2,0,L|331:284,1,77.0000023498536,2|0,2:2|0:0,0:0:0:0:
313,360,47843,1,10,2:2:0:0:
162,288,48236,6,0,L|215:275,2,51.3333348999024,2|8|8,1:2|2:1|2:1,0:0:0:0:
136,338,48628,2,0,P|97:350|59:336,1,77.0000023498536
8,274,49020,2,0,L|26:192,1,77.0000023498536,2|0,1:2|0:0,0:0:0:0:
25,199,49413,1,10,2:2:0:0:
96,153,49609,2,0,L|77:71,1,77.0000023498536,0|2,1:2|0:0,0:0:0:0:
141,20,50002,1,0,1:0:0:0:
210,67,50197,5,4,0:0:0:0:
494,17,62751,6,0,L|477:90,1,70,4|0,1:2|0:0,0:0:0:0:
426,142,63144,2,0,L|442:215,1,70,2|2,2:2|2:2,0:0:0:0:
475,278,63536,2,0,P|407:233|344:268,2,140,10|2|2,2:2|2:2|2:2,0:0:0:0:
335,344,64713,1,2,1:2:0:0:
335,344,65105,2,0,L|187:310,1,140,10|2,2:2|2:2,0:0:0:0:
198,313,65694,1,0,0:0:0:0:
140,363,65890,6,0,P|123:306|141:270,1,70,0|0,1:2|0:0,0:0:0:0:
175,238,66282,2,0,P|176:203|161:172,1,70,2|2,2:2|2:2,0:0:0:0:
90,140,66674,2,0,B|126:163|168:142|146:128|190:97|226:123,1,140,10|2,2:2|1:2,0:0:0:0:
265,179,67263,1,0,1:2:0:0:
340,165,67459,2,0,P|390:153|423:120,1,70,2|0,2:2|0:0,0:0:0:0:
388,61,67851,2,0,L|314:44,1,70,2|0,1:2|0:0,0:0:0:0:
254,3,68244,2,0,L|180:19,1,70,10|0,2:2|1:2,0:0:0:0:
145,83,68636,2,0,L|71:66,1,70,2|0,0:0|0:0,0:0:0:0:
4,33,69028,6,0,P|52:80|34:151,1,140,6|2,1:2|2:2,0:0:0:0:
38,145,69617,1,2,2:2:0:0:
1,213,69813,2,0,L|148:179,1,140,10|2,2:2|2:2,0:0:0:0:
166,110,70401,1,0,0:0:0:0:
223,161,70597,2,0,L|206:234,1,70,2|0,2:2|0:0,0:0:0:0:
144,273,70990,2,0,L|160:346,1,70,2|2,1:2|2:2,0:0:0:0:
159,341,71382,1,10,2:2:0:0:
237,377,71578,1,0,1:2:0:0:
286,310,71774,2,0,P|333:300|360:312,1,70,2|0,0:0|0:0,0:0:0:0:
419,351,72167,6,0,P|470:343|446:255,1,140,2|0,1:2|0:0,0:0:0:0:
511,118,72951,2,0,L|374:149,1,140,10|2,2:2|1:2,0:0:0:0:
288,21,73736,1,2,2:2:0:0:
201,142,74128,2,0,P|154:149|124:127,1,70,2|0,1:2|0:0,0:0:0:0:
67,102,74521,1,10,2:2:0:0:
36,31,74717,2,0,P|67:19|105:32,1,70,0|2,1:2|0:0,0:0:0:0:
171,62,75109,1,0,1:2:0:0:
231,13,75305,6,0,P|286:2|327:93,2,140,6|0|8,1:2|0:0|2:2,0:0:0:0:
111,110,76482,1,0,0:0:0:0:
111,110,76874,2,0,L|127:178,1,70
156,249,77267,2,0,P|101:260|60:169,2,140,2|10|2,1:2|2:2|2:2,0:0:0:0:
263,137,78444,6,0,B|313:104|372:134|341:153|404:197|454:160,1,210,2|0,1:2|0:0,0:0:0:0:
490,92,79228,2,0,L|422:76,1,70,8|0,2:2|0:0,0:0:0:0:
421,75,79621,1,0,1:2:0:0:
373,14,79817,2,0,L|237:45,1,140,0|0,1:2|0:0,0:0:0:0:
186,103,80405,2,0,P|151:104|120:88,1,70,2|0,1:2|0:0,0:0:0:0:
52,52,80798,2,0,L|36:120,1,70,10|0,2:2|1:2,0:0:0:0:
96,167,81190,2,0,L|112:235,1,70,2|0,0:0|0:0,0:0:0:0:
39,335,81582,6,0,P|86:311|164:383,1,140,6|0,1:2|0:0,0:0:0:0:
310,340,82367,2,0,P|265:311|277:224,1,140,8|2,2:2|2:2,0:0:0:0:
187,101,83151,2,0,P|184:153|161:175,1,70,2|0,2:2|0:0,0:0:0:0:
106,202,83544,2,0,L|75:66,1,140,0|8,1:2|2:2,0:0:0:0:
23,8,84132,2,0,L|159:39,1,140,0|0,1:2|0:0,0:0:0:0:
217,89,84721,6,0,P|270:113|346:64,1,140,2|2,1:2|0:0,0:0:0:0:
398,31,85309,1,0,0:0:0:0:
441,96,85505,2,0,L|425:164,1,70,10|0,2:2|0:0,0:0:0:0:
365,213,85898,2,0,L|381:281,1,70,2|0,1:2|0:0,0:0:0:0:
426,343,86290,2,0,P|381:360|338:342,1,70,2|0,2:2|0:0,0:0:0:0:
295,315,86682,2,0,B|261:291|219:320|239:333|200:353|166:331,1,140,2|10,1:2|2:2,0:0:0:0:
113,276,87271,2,0,L|129:208,1,70,0|2,1:2|2:2,0:0:0:0:
153,135,87663,1,0,1:2:0:0:
174,61,87859,5,6,1:2:0:0:
216,326,94136,6,0,B|183:303|144:330|164:342|127:360|95:340,1,131.25,4|0,1:2|0:0,0:0:0:0:
81,331,94528,2,0,L|103:234,1,87.5,2|0,2:2|0:0,0:0:0:0:
51,152,94921,2,0,L|147:174,1,87.5,10|0,2:2|0:0,0:0:0:0:
221,232,95313,2,0,L|317:210,1,87.5,2|2,2:2|2:3,0:0:0:0:
400,166,95705,2,0,P|457:197|454:253,1,87.5,0|2,0:0|2:3,0:0:0:0:
492,315,96098,1,2,1:2:0:0:
395,356,96294,2,0,L|384:308,2,43.75,8|8|10,2:2|2:2|2:2,0:0:0:0:
297,316,96686,1,8,2:2:0:0:
204,355,96882,1,10,2:2:0:0:
185,359,96980,1,8,2:2:0:0:
166,363,97078,1,2,2:3:0:0:
73,312,97275,6,0,P|116:302|117:188,1,175,0|2,1:2|2:2,0:0:0:0:
121,191,97863,1,8,2:2:0:0:
29,140,98059,2,0,P|20:94|51:44,1,87.5,10|0,2:2|0:0,0:0:0:0:
123,0,98451,1,2,1:2:0:0:
138,104,98648,2,0,L|234:82,1,87.5,2|0,1:3|0:0,0:0:0:0:
223,84,99040,1,2,2:3:0:0:
304,149,99236,2,0,L|400:171,1,87.5,2|8,1:2|2:2,0:0:0:0:
453,251,99628,1,10,2:2:0:0:
377,312,99825,1,8,1:2:0:0:
358,316,99923,1,8,2:2:0:0:
339,320,100021,2,0,L|243:342,1,87.5,2|2,2:2|2:3,0:0:0:0:
153,371,100413,6,0,P|88:355|94:238,1,175,4|2,1:2|2:2,0:0:0:0:
73,259,101002,1,0,0:0:0:0:
23,166,101198,2,0,P|79:147|128:182,1,87.5,8|0,2:2|0:0,0:0:0:0:
181,226,101590,1,2,2:2:0:0:
240,148,101786,2,0,L|336:170,1,87.5,2|0,2:3|0:0,0:0:0:0:
325,168,102178,1,2,2:3:0:0:
409,230,102375,2,0,L|428:145,1,87.5,2|0,1:2|0:0,0:0:0:0:
507,76,102767,1,8,2:2:0:0:
427,7,102963,1,8,1:2:0:0:
408,11,103061,1,8,2:2:0:0:
389,15,103159,1,10,2:2:0:0:
306,79,103355,1,2,2:3:0:0:
215,25,103552,6,0,B|172:-4|120:30|145:46|96:70|54:43,1,175,0|2,1:2|2:2,0:0:0:0:
54,43,104140,1,8,2:2:0:0:
11,139,104336,2,0,L|30:224,1,87.5,8|0,2:2|0:0,0:0:0:0:
48,327,104728,1,2,1:2:0:0:
124,253,104925,2,0,P|200:220|267:270,1,175,2|0,2:3|2:3,0:0:0:0:
306,367,105513,2,0,P|352:381|402:338,1,87.5,2|2,1:2|2:3,0:0:0:0:
438,282,105905,6,0,L|507:297,2,58.3333333333333,0|8|8,2:2|2:2|2:2,0:0:0:0:
395,249,106298,2,0,L|347:260,2,43.75,10|8|2,2:2|2:2|1:3,0:0:0:0:
445,157,106690,6,0,B|412:179|372:152|392:140|355:121|322:142,1,131.25,4|0,1:2|0:0,0:0:0:0:
312,152,107082,2,0,L|290:55,1,87.5,2|0,2:2|0:0,0:0:0:0:
189,87,107475,2,0,L|210:182,1,87.5,10|0,2:2|0:0,0:0:0:0:
207,172,107867,1,2,2:2:0:0:
109,211,108063,2,0,L|88:306,1,87.5,2|0,2:3|0:0,0:0:0:0:
152,380,108455,1,2,2:3:0:0:
201,286,108652,2,0,P|258:279|294:310,1,87.5,2|8,1:2|2:2,0:0:0:0:
291,308,108946,1,8,2:2:0:0:
300,322,109044,2,0,P|350:349|395:334,1,87.5,2|8,2:2|2:2,0:0:0:0:
448,266,109436,1,10,2:2:0:0:
444,247,109534,1,8,2:2:0:0:
440,228,109632,1,2,2:3:0:0:
494,133,109828,6,0,P|413:109|351:165,1,175,4|2,1:2|2:2,0:0:0:0:
351,165,110417,1,2,2:3:0:0:
314,253,110613,2,0,L|219:274,1,87.5,10|0,2:2|0:0,0:0:0:0:
148,218,111005,1,2,1:2:0:0:
175,134,111202,2,0,B|131:105|80:141|105:157|57:181|14:155,1,175,2|2,1:3|2:3,0:0:0:0:
43,54,111790,2,0,L|139:32,1,87.5,2|2,1:2|2:3,0:0:0:0:
219,63,112182,1,10,2:2:0:0:
308,25,112379,1,8,1:2:0:0:
311,44,112477,1,8,2:2:0:0:
315,63,112575,2,0,L|337:159,1,87.5,10|0,2:2|1:2,0:0:0:0:
352,242,112967,5,4,2:2:0:0:
