osu file format v14

[General]
AudioFilename: audio.mp3
AudioLeadIn: 0
PreviewTime: 117628
Countdown: 0
SampleSet: Soft
StackLeniency: 0.7
Mode: 3
LetterboxInBreaks: 0
SpecialStyle: 0
WidescreenStoryboard: 1

[Editor]
Bookmarks: 6794,29382,51970,74558,97146,116911,119735,142323,164911,187499,210088,229852,232676,255264
DistanceSpacing: 0.4
BeatDivisor: 4
GridSize: 32
TimelineZoom: 1.9

[Metadata]
Title:Solemnity
TitleUnicode:Solemnity
Artist:miraie & Milkoi
ArtistUnicode:miraie & Milkoi
Creator:Protastic101
Version:Insane
Source:
Tags:Electronic English FA Featured Artist mg mpg mappers' guild Somnolent edm chill midtempo orchestra orchestral rice stream quadstream jack minijack future bass instrumental
BeatmapID:3717539
BeatmapSetID:1808304

[Difficulty]
HPDrainRate:8.3
CircleSize:4
OverallDifficulty:8.3
ApproachRate:5
SliderMultiplier:1.4
SliderTickRate:1

[Events]
//Background and Video events
0,0,"Solemnity.jpg",0,0
//Break Periods
//Storyboard Layer 0 (Background)
//Storyboard Layer 1 (Fail)
//Storyboard Layer 2 (Pass)
//Storyboard Layer 3 (Foreground)
//Storyboard Layer 4 (Overlay)
//Storyboard Sound Samples
Sample,29746,0,"X_C#5.wav",30
Sample,30628,0,"X_F#5.wav",60
Sample,30805,0,"X_F#5.wav",50
Sample,31157,0,"X_C#5.wav",30
Sample,32569,0,"X_C#5.wav",30
Sample,33452,0,"X_F#5.wav",60
Sample,33628,0,"X_F#5.wav",50
Sample,33981,0,"X_C#5.wav",30
Sample,35393,0,"X_C#5.wav",30
Sample,36275,0,"X_F#5.wav",60
Sample,36452,0,"X_F#5.wav",50
Sample,36805,0,"X_C#5.wav",30
Sample,38216,0,"X_C#5.wav",30
Sample,39099,0,"X_F#5.wav",60
Sample,39275,0,"X_F#5.wav",50
Sample,39628,0,"X_C#5.wav",30
Sample,41040,0,"X_C#5.wav",30
Sample,41922,0,"X_F#5.wav",60
Sample,42099,0,"X_F#5.wav",50
Sample,42452,0,"X_C#5.wav",30
Sample,43157,0,"X_G#5.wav",50
Sample,43334,0,"X_F#5.wav",50
Sample,43863,0,"X_C#5.wav",30
Sample,44746,0,"X_F#5.wav",60
Sample,44922,0,"X_F#5.wav",50
Sample,45275,0,"X_C#5.wav",30
Sample,46687,0,"X_C#5.wav",30
Sample,47569,0,"X_F#5.wav",60
Sample,47746,0,"X_F#5.wav",50
Sample,48099,0,"X_C#5.wav",30
Sample,48805,0,"X_G#5.wav",50
Sample,48981,0,"X_F#5.wav",50
Sample,49510,0,"X_C#5.wav",30
Sample,50393,0,"X_F#5.wav",60
Sample,50569,0,"X_F#5.wav",50
Sample,50922,0,"X_C#5.wav",30
Sample,74922,0,"X_C#5.wav",30
Sample,76334,0,"X_C#5.wav",30
Sample,77746,0,"X_C#5.wav",30
Sample,79157,0,"X_C#5.wav",30
Sample,80569,0,"X_C#5.wav",30
Sample,81981,0,"X_C#5.wav",30
Sample,83393,0,"X_C#5.wav",30
Sample,84805,0,"X_C#5.wav",30
Sample,86216,0,"X_C#5.wav",30
Sample,87628,0,"X_C#5.wav",30
Sample,89040,0,"X_C#5.wav",30
Sample,90452,0,"X_C#5.wav",30
Sample,91863,0,"X_C#5.wav",30
Sample,92569,0,"X_G#5.wav",50
Sample,92746,0,"X_F#5.wav",50
Sample,93099,0,"X_F5.wav",60
Sample,93275,0,"X_C#5.wav",30
Sample,93275,0,"X_F#5.wav",50
Sample,199157,0,"X_C#5.wav",30
Sample,200569,0,"X_C#5.wav",30
Sample,201981,0,"X_C#5.wav",30
Sample,203393,0,"X_C#5.wav",30
Sample,204805,0,"X_C#5.wav",30
Sample,205510,0,"X_G#5.wav",50
Sample,205687,0,"X_F#5.wav",50
Sample,205863,0,"X_C#6.wav",50
Sample,206040,0,"X_F5.wav",60
Sample,206216,0,"X_F#5.wav",50
Sample,206216,0,"X_C#5.wav",30
Sample,207628,0,"X_C#5.wav",30
Sample,211863,0,"X_C#5.wav",30
Sample,214687,0,"X_C#5.wav",30
Sample,217510,0,"X_C#5.wav",30
Sample,220334,0,"X_F#5.wav",50
Sample,223157,0,"X_C#5.wav",30
Sample,224569,0,"X_C#5.wav",30
Sample,225981,0,"X_C#5.wav",30
Sample,228805,0,"X_C#5.wav",30
Sample,233040,0,"X_C#5.wav",30
Sample,234099,0,"X_F#5.wav",50
Sample,234452,0,"X_C#5.wav",30
Sample,238334,0,"X_F#5.wav",50
Sample,238687,0,"X_C#5.wav",30
Sample,239746,0,"X_F#5.wav",50
Sample,240099,0,"X_C#5.wav",30
Sample,242569,0,"X_F#5.wav",50
Sample,242922,0,"X_C#5.wav",30
Sample,244334,0,"X_C#5.wav",30
Sample,245393,0,"X_F#5.wav",50
Sample,245746,0,"X_C#5.wav",30
Sample,249628,0,"X_F#5.wav",50
Sample,249981,0,"X_C#5.wav",30
Sample,251040,0,"X_F#5.wav",50
Sample,251393,0,"X_C#5.wav",30
Sample,254216,0,"X_C#5.wav",30

[TimingPoints]
1158,352.941176470588,4,2,1,50,1,0
74569,-100,4,1,1,50,0,0
94334,-100,4,2,1,50,0,0
95746,-52.6315789473684,4,2,1,50,0,0
95768,-1000,4,2,1,50,0,0
95790,-52.6315789473684,4,2,1,50,0,0
95812,-1000,4,2,1,50,0,0
95834,-52.6315789473684,4,2,1,50,0,0
95856,-1000,4,2,1,50,0,0
95878,-52.6315789473684,4,2,1,50,0,0
95900,-1000,4,2,1,50,0,0
95922,-52.6315789473684,4,2,1,50,0,0
95944,-1000,4,2,1,50,0,0
95966,-52.6315789473684,4,2,1,50,0,0
95988,-1000,4,2,1,50,0,0
96010,-100,4,2,1,50,0,0
96099,-32.258064516129,4,2,1,50,0,0
96157,-333.333333333333,4,2,1,50,0,0
96334,-57.1428571428571,4,2,1,50,0,0
96363,-400,4,2,1,50,0,0
96393,-66.6666666666667,4,2,1,50,0,0
96422,-200,4,2,1,50,0,0
96452,-25,4,2,1,50,0,0
96481,-250,4,2,1,50,0,0
96628,-28.5714285714286,4,2,1,50,0,0
96657,-200,4,2,1,50,0,0
96805,-50,4,2,1,50,0,0
96834,-125,4,2,1,50,0,0
96981,-28.5714285714286,4,2,1,50,0,0
97010,-200,4,2,1,50,0,0
97157,-500,4,2,1,50,0,1
97202,-200,4,2,1,50,0,1
97246,-58.8235294117647,4,2,1,50,0,1
97290,-40,4,2,1,50,0,1
97334,-142.857142857143,4,2,1,50,0,1
97378,-250,4,2,1,50,0,1
97422,-100,4,2,1,50,0,1
97510,-500,4,2,1,50,0,1
97555,-200,4,2,1,50,0,1
97599,-58.8235294117647,4,2,1,50,0,1
97643,-40,4,2,1,50,0,1
97687,-142.857142857143,4,2,1,50,0,1
97731,-250,4,2,1,50,0,1
97775,-100,4,2,1,50,0,1
97863,-500,4,2,1,50,0,1
97908,-200,4,2,1,50,0,1
97952,-58.8235294117647,4,2,1,50,0,1
97996,-40,4,2,1,50,0,1
98040,-142.857142857143,4,2,1,50,0,1
98084,-250,4,2,1,50,0,1
98128,-100,4,2,1,50,0,1
98216,-500,4,2,1,50,0,1
98261,-200,4,2,1,50,0,1
98305,-58.8235294117647,4,2,1,50,0,1
98349,-40,4,2,1,50,0,1
98393,-142.857142857143,4,2,1,50,0,1
98437,-250,4,2,1,50,0,1
98481,-100,4,2,1,50,0,1
98569,-500,4,2,1,50,0,1
98614,-200,4,2,1,50,0,1
98658,-58.8235294117647,4,2,1,50,0,1
98702,-40,4,2,1,50,0,1
98746,-142.857142857143,4,2,1,50,0,1
98790,-250,4,2,1,50,0,1
98834,-100,4,2,1,50,0,1
98922,-500,4,2,1,50,0,1
98967,-200,4,2,1,50,0,1
99011,-58.8235294117647,4,2,1,50,0,1
99055,-40,4,2,1,50,0,1
99099,-142.857142857143,4,2,1,50,0,1
99143,-250,4,2,1,50,0,1
99187,-100,4,2,1,50,0,1
99275,-500,4,2,1,50,0,1
99320,-200,4,2,1,50,0,1
99364,-58.8235294117647,4,2,1,50,0,1
99408,-40,4,2,1,50,0,1
99452,-142.857142857143,4,2,1,50,0,1
99496,-250,4,2,1,50,0,1
99540,-100,4,2,1,50,0,1
99628,-500,4,2,1,50,0,1
99673,-200,4,2,1,50,0,1
99717,-58.8235294117647,4,2,1,50,0,1
99761,-40,4,2,1,50,0,1
99805,-142.857142857143,4,2,1,50,0,1
99849,-250,4,2,1,50,0,1
99893,-100,4,2,1,50,0,1
99981,-500,4,2,1,50,0,1
100026,-200,4,2,1,50,0,1
100070,-58.8235294117647,4,2,1,50,0,1
100114,-40,4,2,1,50,0,1
100158,-142.857142857143,4,2,1,50,0,1
100202,-250,4,2,1,50,0,1
100246,-100,4,2,1,50,0,1
100334,-500,4,2,1,50,0,1
100379,-200,4,2,1,50,0,1
100423,-58.8235294117647,4,2,1,50,0,1
100467,-40,4,2,1,50,0,1
100511,-142.857142857143,4,2,1,50,0,1
100555,-250,4,2,1,50,0,1
100599,-100,4,2,1,50,0,1
100687,-500,4,2,1,50,0,1
100732,-200,4,2,1,50,0,1
100776,-58.8235294117647,4,2,1,50,0,1
100820,-40,4,2,1,50,0,1
100864,-142.857142857143,4,2,1,50,0,1
100908,-250,4,2,1,50,0,1
100952,-100,4,2,1,50,0,1
101040,-500,4,2,1,50,0,1
101085,-200,4,2,1,50,0,1
101129,-58.8235294117647,4,2,1,50,0,1
101173,-40,4,2,1,50,0,1
101217,-142.857142857143,4,2,1,50,0,1
101261,-250,4,2,1,50,0,1
101305,-100,4,2,1,50,0,1
101393,-500,4,2,1,50,0,1
101438,-200,4,2,1,50,0,1
101482,-58.8235294117647,4,2,1,50,0,1
101526,-40,4,2,1,50,0,1
101570,-142.857142857143,4,2,1,50,0,1
101614,-250,4,2,1,50,0,1
101658,-100,4,2,1,50,0,1
101746,-500,4,2,1,50,0,1
101791,-200,4,2,1,50,0,1
101835,-58.8235294117647,4,2,1,50,0,1
101879,-40,4,2,1,50,0,1
101923,-142.857142857143,4,2,1,50,0,1
101967,-250,4,2,1,50,0,1
102011,-100,4,2,1,50,0,1
102099,-500,4,2,1,50,0,1
102144,-200,4,2,1,50,0,1
102188,-58.8235294117647,4,2,1,50,0,1
102232,-40,4,2,1,50,0,1
102276,-142.857142857143,4,2,1,50,0,1
102320,-250,4,2,1,50,0,1
102364,-100,4,2,1,50,0,1
102452,-500,4,2,1,50,0,1
102497,-200,4,2,1,50,0,1
102541,-58.8235294117647,4,2,1,50,0,1
102585,-40,4,2,1,50,0,1
102629,-142.857142857143,4,2,1,50,0,1
102673,-250,4,2,1,50,0,1
102717,-100,4,2,1,50,0,1
102805,-500,4,2,1,50,0,1
102850,-200,4,2,1,50,0,1
102894,-58.8235294117647,4,2,1,50,0,1
102938,-40,4,2,1,50,0,1
102982,-142.857142857143,4,2,1,50,0,1
103026,-250,4,2,1,50,0,1
103070,-100,4,2,1,50,0,1
103158,-500,4,2,1,50,0,1
103203,-200,4,2,1,50,0,1
103247,-58.8235294117647,4,2,1,50,0,1
103291,-40,4,2,1,50,0,1
103335,-142.857142857143,4,2,1,50,0,1
103379,-250,4,2,1,50,0,1
103423,-100,4,2,1,50,0,1
103511,-500,4,2,1,50,0,1
103556,-200,4,2,1,50,0,1
103600,-58.8235294117647,4,2,1,50,0,1
103644,-40,4,2,1,50,0,1
103688,-142.857142857143,4,2,1,50,0,1
103732,-250,4,2,1,50,0,1
103776,-100,4,2,1,50,0,1
103864,-500,4,2,1,50,0,1
103909,-200,4,2,1,50,0,1
103953,-58.8235294117647,4,2,1,50,0,1
103997,-40,4,2,1,50,0,1
104041,-142.857142857143,4,2,1,50,0,1
104085,-250,4,2,1,50,0,1
104129,-100,4,2,1,50,0,1
104217,-500,4,2,1,50,0,1
104262,-200,4,2,1,50,0,1
104306,-58.8235294117647,4,2,1,50,0,1
104350,-40,4,2,1,50,0,1
104394,-142.857142857143,4,2,1,50,0,1
104438,-250,4,2,1,50,0,1
104482,-100,4,2,1,50,0,1
104570,-500,4,2,1,50,0,1
104615,-200,4,2,1,50,0,1
104659,-58.8235294117647,4,2,1,50,0,1
104703,-40,4,2,1,50,0,1
104747,-142.857142857143,4,2,1,50,0,1
104791,-250,4,2,1,50,0,1
104835,-100,4,2,1,50,0,1
104923,-500,4,2,1,50,0,1
104968,-200,4,2,1,50,0,1
105012,-58.8235294117647,4,2,1,50,0,1
105056,-40,4,2,1,50,0,1
105100,-142.857142857143,4,2,1,50,0,1
105144,-250,4,2,1,50,0,1
105188,-100,4,2,1,50,0,1
105276,-500,4,2,1,50,0,1
105321,-200,4,2,1,50,0,1
105365,-58.8235294117647,4,2,1,50,0,1
105409,-40,4,2,1,50,0,1
105453,-142.857142857143,4,2,1,50,0,1
105497,-250,4,2,1,50,0,1
105541,-100,4,2,1,50,0,1
105629,-500,4,2,1,50,0,1
105674,-200,4,2,1,50,0,1
105718,-58.8235294117647,4,2,1,50,0,1
105762,-40,4,2,1,50,0,1
105806,-142.857142857143,4,2,1,50,0,1
105850,-250,4,2,1,50,0,1
105894,-100,4,2,1,50,0,1
105982,-500,4,2,1,50,0,1
106027,-200,4,2,1,50,0,1
106071,-58.8235294117647,4,2,1,50,0,1
106115,-40,4,2,1,50,0,1
106159,-142.857142857143,4,2,1,50,0,1
106203,-250,4,2,1,50,0,1
106247,-100,4,2,1,50,0,1
106335,-500,4,2,1,50,0,1
106380,-200,4,2,1,50,0,1
106424,-58.8235294117647,4,2,1,50,0,1
106468,-40,4,2,1,50,0,1
106512,-142.857142857143,4,2,1,50,0,1
106556,-250,4,2,1,50,0,1
106600,-100,4,2,1,50,0,1
106688,-500,4,2,1,50,0,1
106733,-200,4,2,1,50,0,1
106777,-58.8235294117647,4,2,1,50,0,1
106821,-40,4,2,1,50,0,1
106865,-142.857142857143,4,2,1,50,0,1
106909,-250,4,2,1,50,0,1
106953,-100,4,2,1,50,0,1
107041,-500,4,2,1,50,0,1
107086,-200,4,2,1,50,0,1
107130,-58.8235294117647,4,2,1,50,0,1
107174,-40,4,2,1,50,0,1
107218,-142.857142857143,4,2,1,50,0,1
107262,-250,4,2,1,50,0,1
107306,-100,4,2,1,50,0,1
107394,-500,4,2,1,50,0,1
107439,-200,4,2,1,50,0,1
107483,-58.8235294117647,4,2,1,50,0,1
107527,-40,4,2,1,50,0,1
107571,-142.857142857143,4,2,1,50,0,1
107615,-250,4,2,1,50,0,1
107659,-100,4,2,1,50,0,1
107747,-500,4,2,1,50,0,1
107792,-200,4,2,1,50,0,1
107836,-58.8235294117647,4,2,1,50,0,1
107880,-40,4,2,1,50,0,1
107924,-142.857142857143,4,2,1,50,0,1
107968,-250,4,2,1,50,0,1
108012,-100,4,2,1,50,0,1
108100,-500,4,2,1,50,0,1
108145,-200,4,2,1,50,0,1
108189,-58.8235294117647,4,2,1,50,0,1
108233,-40,4,2,1,50,0,1
108277,-142.857142857143,4,2,1,50,0,1
108321,-250,4,2,1,50,0,1
108365,-100,4,2,1,50,0,1
116922,-100,4,2,1,50,0,0
117010,-25,4,2,1,50,0,0
117032,-57.1428571428571,4,2,1,50,0,0
117055,-125,4,2,1,50,0,0
117077,-166.666666666667,4,2,1,50,0,0
117099,-250,4,2,1,50,0,0
117121,-500,4,2,1,50,0,0
117143,-666.666666666667,4,2,1,50,0,0
117165,-1000,4,2,1,50,0,0
117187,-100,4,2,1,50,0,0
119040,-25,4,2,1,50,0,0
119069,-250,4,2,1,50,0,0
119216,-50,4,2,1,50,0,0
119246,-125,4,2,1,50,0,0
119393,-50,4,2,1,50,0,0
119422,-125,4,2,1,50,0,0
119569,-50,4,2,1,50,0,0
119599,-125,4,2,1,50,0,0
119746,-100,4,2,1,50,0,1
139863,-500,4,2,1,50,0,1
139885,-285.714285714286,4,2,1,50,0,1
139907,-200,4,2,1,50,0,1
139930,-166.666666666667,4,2,1,50,0,1
139952,-142.857142857143,4,2,1,50,0,1
139974,-125,4,2,1,50,0,1
139996,-66.6666666666667,4,2,1,50,0,1
140018,-29.8507462686567,4,2,1,50,0,1
140039,-500,4,2,1,50,0,1
140061,-285.714285714286,4,2,1,50,0,1
140083,-200,4,2,1,50,0,1
140106,-166.666666666667,4,2,1,50,0,1
140128,-142.857142857143,4,2,1,50,0,1
140150,-125,4,2,1,50,0,1
140172,-66.6666666666667,4,2,1,50,0,1
140194,-29.8507462686567,4,2,1,50,0,1
140216,-333.333333333333,4,2,1,50,0,1
140260,-200,4,2,1,50,0,1
140305,-142.857142857143,4,2,1,50,0,1
140349,-133.333333333333,4,2,1,50,0,1
140393,-125,4,2,1,50,0,1
140437,-117.647058823529,4,2,1,50,0,1
140481,-62.5,4,2,1,50,0,1
140525,-40,4,2,1,50,0,1
140569,-500,4,2,1,50,0,1
140591,-285.714285714286,4,2,1,50,0,1
140613,-200,4,2,1,50,0,1
140636,-166.666666666667,4,2,1,50,0,1
140658,-142.857142857143,4,2,1,50,0,1
140680,-125,4,2,1,50,0,1
140702,-66.6666666666667,4,2,1,50,0,1
140724,-29.8507462686567,4,2,1,50,0,1
140745,-500,4,2,1,50,0,1
140767,-285.714285714286,4,2,1,50,0,1
140789,-200,4,2,1,50,0,1
140812,-166.666666666667,4,2,1,50,0,1
140834,-142.857142857143,4,2,1,50,0,1
140856,-125,4,2,1,50,0,1
140878,-66.6666666666667,4,2,1,50,0,1
140900,-29.8507462686567,4,2,1,50,0,1
140922,-500,4,2,1,50,0,1
140944,-285.714285714286,4,2,1,50,0,1
140966,-200,4,2,1,50,0,1
140989,-166.666666666667,4,2,1,50,0,1
141011,-142.857142857143,4,2,1,50,0,1
141033,-125,4,2,1,50,0,1
141055,-66.6666666666667,4,2,1,50,0,1
141077,-29.8507462686567,4,2,1,50,0,1
141098,-500,4,2,1,50,0,1
141120,-285.714285714286,4,2,1,50,0,1
141142,-200,4,2,1,50,0,1
141165,-166.666666666667,4,2,1,50,0,1
141187,-142.857142857143,4,2,1,50,0,1
141209,-125,4,2,1,50,0,1
141231,-66.6666666666667,4,2,1,50,0,1
141253,-29.8507462686567,4,2,1,50,0,1
141275,-333.333333333333,4,2,1,50,0,1
141319,-200,4,2,1,50,0,1
141364,-142.857142857143,4,2,1,50,0,1
141408,-133.333333333333,4,2,1,50,0,1
141452,-125,4,2,1,50,0,1
141496,-117.647058823529,4,2,1,50,0,1
141540,-62.5,4,2,1,50,0,1
141584,-40,4,2,1,50,0,1
141628,-333.333333333333,4,2,1,50,0,1
141672,-200,4,2,1,50,0,1
141717,-142.857142857143,4,2,1,50,0,1
141761,-133.333333333333,4,2,1,50,0,1
141805,-125,4,2,1,50,0,1
141849,-117.647058823529,4,2,1,50,0,1
141893,-62.5,4,2,1,50,0,1
141937,-40,4,2,1,50,0,1
141981,-500,4,2,1,50,0,1
142003,-285.714285714286,4,2,1,50,0,1
142025,-200,4,2,1,50,0,1
142048,-166.666666666667,4,2,1,50,0,1
142070,-142.857142857143,4,2,1,50,0,1
142092,-125,4,2,1,50,0,1
142114,-66.6666666666667,4,2,1,50,0,1
142136,-29.8507462686567,4,2,1,50,0,1
142157,-500,4,2,1,50,0,1
142179,-285.714285714286,4,2,1,50,0,1
142201,-200,4,2,1,50,0,1
142224,-166.666666666667,4,2,1,50,0,1
142246,-142.857142857143,4,2,1,50,0,1
142268,-125,4,2,1,50,0,1
142290,-66.6666666666667,4,2,1,50,0,1
142312,-29.8507462686567,4,2,1,50,0,1
142334,-100,4,2,1,50,0,0
193157,-100,4,1,1,50,0,0
207275,-100,4,2,1,50,0,0
208687,-52.6315789473684,4,2,1,50,0,0
208709,-1000,4,2,1,50,0,0
208731,-52.6315789473684,4,2,1,50,0,0
208753,-1000,4,2,1,50,0,0
208775,-52.6315789473684,4,2,1,50,0,0
208797,-1000,4,2,1,50,0,0
208819,-52.6315789473684,4,2,1,50,0,0
208841,-1000,4,2,1,50,0,0
208863,-52.6315789473684,4,2,1,50,0,0
208885,-1000,4,2,1,50,0,0
208907,-52.6315789473684,4,2,1,50,0,0
208930,-1000,4,2,1,50,0,0
208952,-100,4,2,1,50,0,0
209040,-32.258064516129,4,2,1,50,0,0
209099,-333.333333333333,4,2,1,50,0,0
209275,-57.1428571428571,4,2,1,50,0,0
209305,-400,4,2,1,50,0,0
209334,-66.6666666666667,4,2,1,50,0,0
209363,-200,4,2,1,50,0,0
209393,-25,4,2,1,50,0,0
209452,-250,4,2,1,50,0,0
209746,-28.5714285714286,4,2,1,50,0,0
209775,-200,4,2,1,50,0,0
209922,-28.5714285714286,4,2,1,50,0,0
209952,-200,4,2,1,50,0,0
210010,-100,4,2,1,50,0,0
210099,-500,4,2,1,50,0,1
210143,-200,4,2,1,50,0,1
210187,-58.8235294117647,4,2,1,50,0,1
210231,-40,4,2,1,50,0,1
210275,-142.857142857143,4,2,1,50,0,1
210319,-250,4,2,1,50,0,1
210363,-100,4,2,1,50,0,1
210452,-500,4,2,1,50,0,1
210463,-285.714285714286,4,2,1,50,0,1
210474,-200,4,2,1,50,0,1
210485,-166.666666666667,4,2,1,50,0,1
210496,-142.857142857143,4,2,1,50,0,1
210507,-125,4,2,1,50,0,1
210518,-66.6666666666667,4,2,1,50,0,1
210529,-29.8507462686567,4,2,1,50,0,1
210540,-100,4,2,1,50,0,1
210628,-500,4,2,1,50,0,1
210639,-285.714285714286,4,2,1,50,0,1
210650,-200,4,2,1,50,0,1
210661,-166.666666666667,4,2,1,50,0,1
210672,-142.857142857143,4,2,1,50,0,1
210683,-125,4,2,1,50,0,1
210694,-66.6666666666667,4,2,1,50,0,1
210705,-29.8507462686567,4,2,1,50,0,1
210716,-100,4,2,1,50,0,1
215040,-25,4,2,1,50,0,1
215069,-250,4,2,1,50,0,1
215216,-50,4,2,1,50,0,1
215246,-125,4,2,1,50,0,1
215393,-50,4,2,1,50,0,1
215422,-125,4,2,1,50,0,1
215569,-50,4,2,1,50,0,1
215599,-125,4,2,1,50,0,1
215746,-500,4,2,1,50,0,1
215790,-200,4,2,1,50,0,1
215834,-58.8235294117647,4,2,1,50,0,1
215878,-40,4,2,1,50,0,1
215922,-142.857142857143,4,2,1,50,0,1
215966,-250,4,2,1,50,0,1
216010,-100,4,2,1,50,0,1
216099,-500,4,2,1,50,0,1
216143,-200,4,2,1,50,0,1
216187,-58.8235294117647,4,2,1,50,0,1
216231,-40,4,2,1,50,0,1
216275,-142.857142857143,4,2,1,50,0,1
216319,-250,4,2,1,50,0,1
216363,-100,4,2,1,50,0,1
220510,-66.6666666666667,4,2,1,50,0,1
220540,-200,4,2,1,50,0,1
220569,-66.6666666666667,4,2,1,50,0,1
220599,-200,4,2,1,50,0,1
220628,-66.6666666666667,4,2,1,50,0,1
220657,-200,4,2,1,50,0,1
220687,-25,4,2,1,50,0,1
220716,-250,4,2,1,50,0,1
220863,-40,4,2,1,50,0,1
220885,-133.333333333333,4,2,1,50,0,1
220907,-200,4,2,1,50,0,1
220930,-400,4,2,1,50,0,1
220952,-100,4,2,1,50,0,1
221040,-28.5714285714286,4,2,1,50,0,1
221062,-400,4,2,1,50,0,1
221084,-666.666666666667,4,2,1,50,0,1
221106,-1000,4,2,1,50,0,1
221128,-100,4,2,1,50,0,1
221216,-25,4,2,1,50,0,1
221238,-57.1428571428571,4,2,1,50,0,1
221260,-125,4,2,1,50,0,1
221282,-166.666666666667,4,2,1,50,0,1
221305,-250,4,2,1,50,0,1
221327,-500,4,2,1,50,0,1
221349,-666.666666666667,4,2,1,50,0,1
221371,-1000,4,2,1,50,0,1
221393,-500,4,2,1,50,0,1
221437,-200,4,2,1,50,0,1
221481,-58.8235294117647,4,2,1,50,0,1
221525,-40,4,2,1,50,0,1
221569,-142.857142857143,4,2,1,50,0,1
221613,-250,4,2,1,50,0,1
221657,-100,4,2,1,50,0,1
221746,-500,4,2,1,50,0,1
221757,-285.714285714286,4,2,1,50,0,1
221768,-200,4,2,1,50,0,1
221779,-166.666666666667,4,2,1,50,0,1
221790,-142.857142857143,4,2,1,50,0,1
221801,-125,4,2,1,50,0,1
221812,-66.6666666666667,4,2,1,50,0,1
221823,-29.8507462686567,4,2,1,50,0,1
221834,-100,4,2,1,50,0,1
221922,-500,4,2,1,50,0,1
221933,-285.714285714286,4,2,1,50,0,1
221944,-200,4,2,1,50,0,1
221955,-166.666666666667,4,2,1,50,0,1
221966,-142.857142857143,4,2,1,50,0,1
221977,-125,4,2,1,50,0,1
221988,-66.6666666666667,4,2,1,50,0,1
221999,-29.8507462686567,4,2,1,50,0,1
222010,-100,4,2,1,50,0,1
226334,-500,4,2,1,50,0,1
226378,-200,4,2,1,50,0,1
226422,-58.8235294117647,4,2,1,50,0,1
226466,-40,4,2,1,50,0,1
226510,-142.857142857143,4,2,1,50,0,1
226555,-250,4,2,1,50,0,1
226599,-100,4,2,1,50,0,1
226687,-500,4,2,1,50,0,1
226731,-200,4,2,1,50,0,1
226775,-58.8235294117647,4,2,1,50,0,1
226819,-40,4,2,1,50,0,1
226863,-142.857142857143,4,2,1,50,0,1
226908,-250,4,2,1,50,0,1
226952,-100,4,2,1,50,0,1
227040,-500,4,2,1,50,0,1
227084,-200,4,2,1,50,0,1
227128,-58.8235294117647,4,2,1,50,0,1
227172,-40,4,2,1,50,0,1
227216,-142.857142857143,4,2,1,50,0,1
227261,-250,4,2,1,50,0,1
227305,-100,4,2,1,50,0,1
227393,-500,4,2,1,50,0,1
227437,-200,4,2,1,50,0,1
227481,-58.8235294117647,4,2,1,50,0,1
227525,-40,4,2,1,50,0,1
227569,-142.857142857143,4,2,1,50,0,1
227614,-250,4,2,1,50,0,1
227658,-100,4,2,1,50,0,1
229863,-100,4,2,1,50,0,0
231981,-25,4,2,1,50,0,0
232010,-250,4,2,1,50,0,0
232157,-50,4,2,1,50,0,0
232187,-125,4,2,1,50,0,0
232334,-50,4,2,1,50,0,0
232363,-125,4,2,1,50,0,0
232510,-50,4,2,1,50,0,0
232540,-125,4,2,1,50,0,0
232687,-100,4,2,1,50,0,1
255275,-100,4,2,1,25,0,0
263824,363.636363636363,4,2,1,25,1,0
263824,-97.0873786407767,4,2,1,25,0,0
266071,387.096774193548,4,2,1,25,1,0
266071,-90.9090909090909,4,2,1,25,0,0
266845,387.096774193548,4,2,1,25,1,0
266845,-90.9090909090909,4,2,1,25,0,0
270002,413.793103448276,4,2,1,25,1,0
270002,-85.4700854700855,4,2,1,25,0,0
273339,428.571428571429,4,2,1,25,1,0
273339,-82.6446280991736,4,2,1,25,0,0
276873,444.444444444445,4,2,1,25,1,0
276873,-79.3650793650794,4,2,1,25,0,0
277095,480.000000000001,4,2,1,25,1,0
277095,-73.5294117647059,4,2,1,25,0,0
277335,487.804878048781,4,2,1,25,1,0
277335,-72.463768115942,4,2,1,25,0,0
277837,495.867768595042,4,2,1,25,1,0
277837,-71.4285714285714,4,2,1,25,0,0
278370,571.428571428572,4,2,1,25,1,0
278370,-61.7283950617284,4,2,1,25,0,0

[HitObjects]
64,192,805,5,0,0:0:0:50:X_G#5.wav
192,192,981,1,0,0:0:0:50:X_F#5.wav
192,192,1158,1,0,0:0:0:50:X_F#5.wav
320,192,1334,1,0,0:0:0:50:X_C#6.wav
192,192,1510,1,0,0:0:0:50:X_A#5.wav
448,192,1510,1,0,0:0:0:30:X_C#5.wav
64,192,2216,1,0,0:0:0:50:X_G#5.wav
192,192,2393,1,0,0:0:0:50:X_F#5.wav
192,192,2569,1,0,0:0:0:50:X_F#5.wav
320,192,2746,1,0,0:0:0:50:X_C#6.wav
192,192,2922,1,0,0:0:0:50:X_A#5.wav
448,192,2922,1,0,0:0:0:30:X_C#5.wav
64,192,3628,1,0,0:0:0:50:X_G#5.wav
192,192,3805,1,0,0:0:0:50:X_F#5.wav
192,192,3981,1,0,0:0:0:50:X_F#5.wav
320,192,4157,1,0,0:0:0:50:X_C#6.wav
192,192,4334,1,0,0:0:0:50:X_A#5.wav
448,192,4334,1,0,0:0:0:30:X_C#5.wav
64,192,5040,1,0,0:0:0:50:X_G#5.wav
192,192,5216,1,0,0:0:0:50:X_F#5.wav
192,192,5393,1,0,0:0:0:50:X_F#5.wav
320,192,5569,1,0,0:0:0:50:X_C#6.wav
192,192,5746,1,0,0:0:0:50:X_A#5.wav
448,192,5746,1,0,0:0:0:30:X_C#5.wav
64,192,6452,1,0,0:0:0:50:X_G#5.wav
192,192,6628,1,0,0:0:0:50:X_F#5.wav
192,192,6805,128,0,6893:0:0:0:50:X_F#5.wav
448,192,6893,1,0,0:0:0:0:
320,192,6981,1,0,0:0:0:50:X_C#6.wav
64,192,7069,1,0,0:0:0:0:
192,192,7157,128,0,7246:0:0:0:50:X_A#5.wav
448,192,7157,1,0,0:0:0:30:X_C#5.wav
320,192,7246,1,0,0:0:0:0:
64,192,7334,1,0,0:0:0:0:
448,192,7422,1,0,0:0:0:0:
192,192,7510,128,0,7599:0:0:0:0:
320,192,7599,1,0,0:0:0:0:
64,192,7687,1,0,0:0:0:0:
448,192,7775,1,0,0:0:0:0:
192,192,7863,128,0,7952:0:0:0:50:X_G#5.wav
64,192,7952,1,0,0:0:0:0:
448,192,8040,1,0,0:0:0:50:X_F#5.wav
320,192,8128,1,0,0:0:0:0:
64,192,8216,128,0,8305:0:0:0:50:X_F#5.wav
192,192,8305,1,0,0:0:0:0:
320,192,8393,1,0,0:0:0:50:X_C#6.wav
448,192,8481,1,0,0:0:0:0:
64,192,8569,128,0,8657:0:0:0:50:X_A#5.wav
192,192,8569,1,0,0:0:0:30:X_C#5.wav
320,192,8657,1,0,0:0:0:0:
448,192,8746,1,0,0:0:0:0:
192,192,8834,1,0,0:0:0:0:
64,192,8922,128,0,9010:0:0:0:0:
448,192,9010,1,0,0:0:0:0:
320,192,9099,1,0,0:0:0:0:
192,192,9187,1,0,0:0:0:0:
64,192,9275,128,0,9363:0:0:0:50:X_G#5.wav
320,192,9363,1,0,0:0:0:0:
192,192,9452,1,0,0:0:0:50:X_F#5.wav
64,192,9540,1,0,0:0:0:0:
448,192,9628,128,0,9716:0:0:0:50:X_F#5.wav
320,192,9716,1,0,0:0:0:0:
64,192,9805,1,0,0:0:0:50:X_C#6.wav
192,192,9893,1,0,0:0:0:0:
320,192,9981,1,0,0:0:0:50:X_A#5.wav
448,192,9981,128,0,10069:0:0:0:30:X_C#5.wav
64,192,10069,1,0,0:0:0:0:
192,192,10157,1,0,0:0:0:0:
320,192,10246,1,0,0:0:0:0:
448,192,10334,128,0,10422:0:0:0:0:
320,192,10422,1,0,0:0:0:0:
192,192,10510,1,0,0:0:0:0:
64,192,10599,1,0,0:0:0:0:
448,192,10687,128,0,10775:0:0:0:50:X_G#5.wav
320,192,10775,1,0,0:0:0:0:
192,192,10863,1,0,0:0:0:50:X_F#5.wav
64,192,10952,1,0,0:0:0:0:
320,192,11040,128,0,11128:0:0:0:50:X_F#5.wav
192,192,11128,1,0,0:0:0:0:
448,192,11216,1,0,0:0:0:50:X_C#6.wav
64,192,11305,1,0,0:0:0:0:
192,192,11393,1,0,0:0:0:50:X_A#5.wav
320,192,11393,128,0,11481:0:0:0:30:X_C#5.wav
448,192,11481,1,0,0:0:0:0:
64,192,11569,1,0,0:0:0:0:
320,192,11657,1,0,0:0:0:0:
192,192,11746,128,0,11834:0:0:0:0:
448,192,11834,1,0,0:0:0:0:
320,192,11922,1,0,0:0:0:0:
64,192,12010,1,0,0:0:0:0:
192,192,12099,128,0,12187:0:0:0:50:X_G#5.wav
320,192,12187,1,0,0:0:0:0:
448,192,12275,1,0,0:0:0:50:X_F#5.wav
192,192,12363,1,0,0:0:0:0:
64,192,12452,128,0,12540:0:0:0:50:X_F#5.wav
320,192,12540,1,0,0:0:0:0:
192,192,12628,1,0,0:0:0:50:X_C#6.wav
448,192,12716,1,0,0:0:0:0:
64,192,12805,128,0,12893:0:0:0:50:X_A#5.wav
320,192,12805,1,0,0:0:0:30:X_C#5.wav
192,192,12893,1,0,0:0:0:0:
448,192,12981,1,0,0:0:0:0:
192,192,13069,1,0,0:0:0:0:
64,192,13157,128,0,13246:0:0:0:0:
320,192,13246,1,0,0:0:0:0:
448,192,13334,1,0,0:0:0:0:
192,192,13422,1,0,0:0:0:0:
64,192,13510,128,0,13599:0:0:0:50:X_G#5.wav
448,192,13599,1,0,0:0:0:0:
320,192,13687,1,0,0:0:0:50:X_F#5.wav
192,192,13775,1,0,0:0:0:0:
448,192,13863,128,0,13952:0:0:0:50:X_F#5.wav
64,192,13952,1,0,0:0:0:0:
192,192,14040,1,0,0:0:0:50:X_C#6.wav
320,192,14128,1,0,0:0:0:0:
64,192,14216,1,0,0:0:0:50:X_A#5.wav
448,192,14216,128,0,14305:0:0:0:30:X_C#5.wav
320,192,14305,1,0,0:0:0:0:
192,192,14393,1,0,0:0:0:0:
64,192,14481,1,0,0:0:0:0:
448,192,14569,128,0,14657:0:0:0:0:
320,192,14657,1,0,0:0:0:0:
192,192,14746,1,0,0:0:0:0:
320,192,14834,1,0,0:0:0:0:
448,192,14922,128,0,15010:0:0:0:50:X_G#5.wav
64,192,15010,1,0,0:0:0:0:
192,192,15099,1,0,0:0:0:50:X_F#5.wav
320,192,15187,1,0,0:0:0:0:
192,192,15275,128,0,15363:0:0:0:50:X_F#5.wav
64,192,15363,1,0,0:0:0:0:
448,192,15452,1,0,0:0:0:50:X_C#6.wav
320,192,15540,1,0,0:0:0:0:
64,192,15628,1,0,0:0:0:50:X_A#5.wav
192,192,15628,128,0,15716:0:0:0:30:X_C#5.wav
448,192,15716,1,0,0:0:0:0:
320,192,15805,1,0,0:0:0:0:
64,192,15893,1,0,0:0:0:0:
192,192,15981,128,0,16069:0:0:0:0:
320,192,16069,1,0,0:0:0:0:
448,192,16157,1,0,0:0:0:0:
64,192,16246,1,0,0:0:0:0:
192,192,16334,128,0,16422:0:0:0:50:X_G#5.wav
320,192,16422,1,0,0:0:0:0:
448,192,16510,1,0,0:0:0:50:X_F#5.wav
64,192,16599,1,0,0:0:0:0:
320,192,16687,128,0,16775:0:0:0:50:X_F#5.wav
192,192,16775,1,0,0:0:0:0:
64,192,16863,1,0,0:0:0:50:X_C#6.wav
448,192,16952,1,0,0:0:0:0:
192,192,17040,1,0,0:0:0:50:X_A#5.wav
320,192,17040,128,0,17128:0:0:0:30:X_C#5.wav
64,192,17128,1,0,0:0:0:0:
448,192,17216,1,0,0:0:0:0:
192,192,17305,1,0,0:0:0:0:
448,192,17393,128,0,17481:0:0:0:0:
320,192,17481,1,0,0:0:0:0:
192,192,17569,1,0,0:0:0:0:
64,192,17657,1,0,0:0:0:0:
448,192,17746,128,0,17834:0:0:0:50:X_G#5.wav
192,192,17834,1,0,0:0:0:0:
320,192,17922,1,0,0:0:0:50:X_F#5.wav
448,192,18010,1,0,0:0:0:0:
64,192,18099,128,0,18187:0:0:0:50:X_F#5.wav
448,192,18187,1,0,0:0:0:0:
320,192,18275,1,0,0:0:0:50:X_C#6.wav
192,192,18363,1,0,0:0:0:0:
64,192,18452,128,0,18540:0:0:0:50:X_A#5.wav
448,192,18452,1,0,0:0:0:30:X_C#5.wav
320,192,18540,1,0,0:0:0:0:
192,192,18628,1,0,0:0:0:0:
320,192,18716,1,0,0:0:0:0:
64,192,18805,128,0,18893:0:0:0:0:
448,192,18893,1,0,0:0:0:0:
192,192,18981,1,0,0:0:0:0:
320,192,19069,1,0,0:0:0:0:
64,192,19157,128,0,19246:0:0:0:50:X_G#5.wav
192,192,19246,1,0,0:0:0:0:
320,192,19334,1,0,0:0:0:50:X_F#5.wav
448,192,19422,1,0,0:0:0:0:
192,192,19510,128,0,19599:0:0:0:50:X_F#5.wav
64,192,19599,1,0,0:0:0:0:
448,192,19687,1,0,0:0:0:50:X_C#6.wav
320,192,19775,1,0,0:0:0:0:
64,192,19863,1,0,0:0:0:50:X_A#5.wav
192,192,19863,128,0,19952:0:0:0:30:X_C#5.wav
448,192,19952,1,0,0:0:0:0:
320,192,20040,1,0,0:0:0:0:
64,192,20128,1,0,0:0:0:0:
192,192,20216,128,0,20305:0:0:0:0:
448,192,20305,1,0,0:0:0:0:
320,192,20393,1,0,0:0:0:0:
64,192,20481,1,0,0:0:0:0:
192,192,20569,128,0,20657:0:0:0:50:X_G#5.wav
320,192,20657,1,0,0:0:0:0:
448,192,20746,1,0,0:0:0:50:X_F#5.wav
192,192,20834,1,0,0:0:0:0:
320,192,20922,128,0,21010:0:0:0:50:X_F#5.wav
64,192,21010,1,0,0:0:0:0:
192,192,21099,1,0,0:0:0:50:X_C#6.wav
448,192,21187,1,0,0:0:0:0:
64,192,21275,1,0,0:0:0:50:X_A#5.wav
320,192,21275,128,0,21363:0:0:0:30:X_C#5.wav
192,192,21363,1,0,0:0:0:0:
448,192,21452,1,0,0:0:0:0:
64,192,21540,1,0,0:0:0:0:
320,192,21628,128,0,21716:0:0:0:0:
448,192,21716,1,0,0:0:0:0:
192,192,21805,1,0,0:0:0:0:
64,192,21893,1,0,0:0:0:0:
320,192,21981,128,0,22069:0:0:0:50:X_G#5.wav
192,192,22069,1,0,0:0:0:0:
64,192,22157,1,0,0:0:0:50:X_F#5.wav
448,192,22246,1,0,0:0:0:0:
64,192,22334,128,0,22422:0:0:0:50:X_F#5.wav
320,192,22422,1,0,0:0:0:0:
192,192,22510,1,0,0:0:0:50:X_C#6.wav
320,192,22599,1,0,0:0:0:0:
64,192,22687,128,0,22775:0:0:0:50:X_A#5.wav
448,192,22687,1,0,0:0:0:30:X_C#5.wav
192,192,22775,1,0,0:0:0:0:
320,192,22863,1,0,0:0:0:0:
448,192,22952,1,0,0:0:0:0:
192,192,23040,128,0,23128:0:0:0:0:
64,192,23128,1,0,0:0:0:0:
320,192,23216,1,0,0:0:0:0:
448,192,23305,1,0,0:0:0:0:
192,192,23393,128,0,23481:0:0:0:50:X_G#5.wav
64,192,23481,1,0,0:0:0:0:
320,192,23569,1,0,0:0:0:50:X_F#5.wav
192,192,23657,1,0,0:0:0:0:
448,192,23746,128,0,23834:0:0:0:50:X_F#5.wav
64,192,23834,1,0,0:0:0:0:
320,192,23922,1,0,0:0:0:50:X_C#6.wav
192,192,24010,1,0,0:0:0:0:
320,192,24099,1,0,0:0:0:50:X_A#5.wav
448,192,24099,128,0,24187:0:0:0:30:X_C#5.wav
64,192,24187,1,0,0:0:0:0:
192,192,24275,1,0,0:0:0:0:
320,192,24363,1,0,0:0:0:0:
448,192,24452,128,0,24540:0:0:0:0:
64,192,24540,1,0,0:0:0:0:
320,192,24628,1,0,0:0:0:0:
192,192,24716,1,0,0:0:0:0:
448,192,24805,128,0,24893:0:0:0:50:X_G#5.wav
64,192,24893,1,0,0:0:0:0:
192,192,24981,1,0,0:0:0:50:X_F#5.wav
448,192,25069,1,0,0:0:0:0:
320,192,25157,128,0,25246:0:0:0:50:X_F#5.wav
64,192,25246,1,0,0:0:0:0:
192,192,25334,1,0,0:0:0:50:X_C#6.wav
448,192,25422,1,0,0:0:0:0:
64,192,25510,1,0,0:0:0:30:X_C#5.wav
320,192,25510,128,0,25599:0:0:0:50:X_A#5.wav
192,192,25599,1,0,0:0:0:0:
448,192,25687,1,0,0:0:0:0:
64,192,25775,1,0,0:0:0:0:
320,192,25863,128,0,25952:0:0:0:0:
448,192,25952,1,0,0:0:0:0:
192,192,26040,1,0,0:0:0:0:
64,192,26128,1,0,0:0:0:0:
320,192,26216,128,0,26305:0:0:0:50:X_G#5.wav
192,192,26305,1,0,0:0:0:0:
448,192,26393,1,0,0:0:0:50:X_F#5.wav
320,192,26481,1,0,0:0:0:0:
64,192,26569,128,0,26657:0:0:0:50:X_F#5.wav
192,192,26657,1,0,0:0:0:0:
320,192,26746,1,0,0:0:0:50:X_C#6.wav
448,192,26834,1,0,0:0:0:0:
64,192,26922,128,0,27010:0:0:0:50:X_A#5.wav
192,192,26922,1,0,0:0:0:30:X_C#5.wav
320,192,27010,1,0,0:0:0:0:
448,192,27099,1,0,0:0:0:0:
320,192,27187,1,0,0:0:0:0:
64,192,27275,128,0,27363:0:0:0:0:
192,192,27363,1,0,0:0:0:0:
320,192,27452,1,0,0:0:0:0:
448,192,27540,1,0,0:0:0:0:
64,192,27628,128,0,27716:0:0:0:50:X_G#5.wav
192,192,27716,1,0,0:0:0:0:
320,192,27805,1,0,0:0:0:50:X_F#5.wav
64,192,27893,1,0,0:0:0:0:
192,192,27981,128,0,28069:0:0:0:50:X_F#5.wav
448,192,28069,1,0,0:0:0:0:
320,192,28157,1,0,0:0:0:50:X_C#6.wav
64,192,28246,1,0,0:0:0:0:
192,192,28334,128,0,28422:0:0:0:50:X_A#5.wav
448,192,28334,1,0,0:0:0:30:X_C#5.wav
320,192,28422,1,0,0:0:0:0:
192,192,28510,1,0,0:0:0:0:
448,192,28599,1,0,0:0:0:0:
64,192,28687,128,0,29393:0:0:0:0:
320,192,28687,128,0,28775:0:0:0:0:
320,192,29040,128,0,29128:0:0:0:50:X_G#5.wav
192,192,29393,1,6,0:0:0:0:
448,192,29393,1,0,0:0:0:50:X_F#5.wav
320,192,29481,1,0,0:0:0:0:
64,192,29569,1,0,0:0:0:50:X_C#6.wav
320,192,29657,1,0,0:0:0:0:
192,192,29746,1,2,0:0:0:0:
448,192,29746,1,0,0:0:0:50:X_A#5.wav
64,192,29834,1,0,0:0:0:0:
320,192,29922,1,0,0:0:0:0:
192,192,30010,1,0,0:0:0:0:
320,192,30099,1,4,0:3:0:0:
448,192,30099,1,8,0:1:0:0:
64,192,30187,1,4,0:3:0:0:
192,192,30275,1,4,0:3:0:0:
320,192,30363,1,0,0:0:0:0:
64,192,30452,1,0,0:0:0:50:X_G#5.wav
192,192,30540,1,0,0:0:0:0:
320,192,30628,1,8,0:1:0:0:
448,192,30628,1,4,0:3:0:0:
64,192,30716,1,4,0:3:0:0:
448,192,30805,1,4,0:3:0:0:
320,192,30893,1,0,0:0:0:0:
192,192,30981,1,0,0:0:0:50:X_C#6.wav
320,192,31069,1,0,0:0:0:0:
64,192,31157,1,2,0:0:0:0:
192,192,31157,1,0,0:0:0:50:X_A#5.wav
448,192,31246,1,0,0:0:0:0:
192,192,31334,1,0,0:0:0:0:
320,192,31422,1,0,0:0:0:0:
64,192,31510,1,4,0:3:0:0:
448,192,31510,1,8,0:1:0:0:
192,192,31599,1,4,0:3:0:0:
320,192,31687,1,0,0:0:0:0:
64,192,31775,1,0,0:0:0:0:
448,192,31863,1,0,0:0:0:50:X_G#5.wav
320,192,31952,1,0,0:0:0:0:
64,192,32040,1,0,0:0:0:50:X_F#5.wav
192,192,32128,1,0,0:0:0:0:
320,192,32216,1,2,0:0:0:0:
448,192,32216,1,0,0:0:0:50:X_F#5.wav
64,192,32305,1,0,0:0:0:0:
320,192,32393,1,0,0:0:0:50:X_C#6.wav
192,192,32481,1,0,0:0:0:0:
448,192,32569,1,0,0:0:0:50:X_A#5.wav
320,192,32657,1,0,0:0:0:0:
64,192,32746,1,2,0:0:0:0:
448,192,32746,1,0,0:0:0:0:
192,192,32834,1,0,0:0:0:0:
64,192,32922,1,4,0:3:0:0:
320,192,32922,1,8,0:1:0:0:
448,192,33010,1,4,0:3:0:0:
192,192,33099,1,4,0:3:0:0:
64,192,33187,1,0,0:0:0:0:
320,192,33275,1,0,0:0:0:50:X_G#5.wav
448,192,33363,1,0,0:0:0:0:
64,192,33452,1,8,0:1:0:0:
192,192,33452,1,4,0:3:0:0:
320,192,33540,1,4,0:3:0:0:
192,192,33628,1,4,0:3:0:0:
64,192,33716,1,0,0:0:0:0:
320,192,33805,1,2,0:0:0:0:
448,192,33805,1,0,0:0:0:50:X_C#6.wav
192,192,33893,1,0,0:0:0:0:
320,192,33981,1,2,0:0:0:0:
448,192,33981,1,0,0:0:0:50:X_A#5.wav
64,192,34069,1,0,0:0:0:0:
192,192,34157,1,0,0:0:0:0:
320,192,34246,1,0,0:0:0:0:
64,192,34334,1,8,0:1:0:0:
448,192,34334,1,4,0:3:0:0:
192,192,34422,1,4,0:3:0:0:
320,192,34510,1,0,0:0:0:0:
192,192,34599,1,0,0:0:0:0:
448,192,34687,1,0,0:0:0:50:X_G#5.wav
64,192,34775,1,0,0:0:0:0:
192,192,34863,1,0,0:0:0:50:X_F#5.wav
320,192,34952,1,0,0:0:0:0:
192,192,35040,1,2,0:0:0:0:
448,192,35040,1,0,0:0:0:50:X_F#5.wav
64,192,35128,1,0,0:0:0:0:
320,192,35216,1,0,0:0:0:50:X_C#6.wav
64,192,35305,1,0,0:0:0:0:
192,192,35393,1,2,0:0:0:0:
448,192,35393,1,0,0:0:0:50:X_A#5.wav
320,192,35481,1,0,0:0:0:0:
448,192,35569,1,0,0:0:0:0:
64,192,35657,1,0,0:0:0:0:
192,192,35746,1,8,0:1:0:0:
320,192,35746,1,4,0:3:0:0:
448,192,35834,1,4,0:3:0:0:
64,192,35922,1,4,0:3:0:0:
320,192,36010,1,0,0:0:0:0:
192,192,36099,1,0,0:0:0:50:X_G#5.wav
448,192,36187,1,0,0:0:0:0:
192,192,36275,1,8,0:1:0:0:
320,192,36275,1,4,0:3:0:0:
64,192,36363,1,4,0:3:0:0:
448,192,36452,1,4,0:3:0:0:
192,192,36540,1,0,0:0:0:0:
320,192,36628,1,0,0:0:0:50:X_C#6.wav
192,192,36716,1,0,0:0:0:0:
64,192,36805,1,2,0:0:0:0:
448,192,36805,1,0,0:0:0:50:X_A#5.wav
320,192,36893,1,0,0:0:0:0:
192,192,36981,1,0,0:0:0:0:
320,192,37069,1,0,0:0:0:0:
192,192,37157,1,4,0:3:0:0:
448,192,37157,1,8,0:1:0:0:
64,192,37246,1,4,0:3:0:0:
320,192,37334,1,0,0:0:0:0:
192,192,37422,1,0,0:0:0:0:
64,192,37510,1,0,0:0:0:50:X_G#5.wav
320,192,37599,1,0,0:0:0:0:
448,192,37687,1,0,0:0:0:50:X_F#5.wav
192,192,37775,1,0,0:0:0:0:
320,192,37863,1,2,0:0:0:0:
448,192,37863,1,0,0:0:0:50:X_F#5.wav
64,192,37952,1,0,0:0:0:0:
320,192,38040,1,0,0:0:0:50:X_C#6.wav
192,192,38128,1,0,0:0:0:0:
448,192,38216,1,0,0:0:0:50:X_A#5.wav
64,192,38305,1,0,0:0:0:0:
192,192,38393,1,2,0:0:0:0:
320,192,38393,1,0,0:0:0:0:
448,192,38481,1,0,0:0:0:0:
64,192,38569,1,8,0:1:0:0:
192,192,38569,1,4,0:3:0:0:
320,192,38657,1,4,0:3:0:0:
64,192,38746,1,4,0:3:0:0:
192,192,38834,1,0,0:0:0:0:
448,192,38922,1,0,0:0:0:50:X_G#5.wav
320,192,39010,1,0,0:0:0:0:
64,192,39099,1,4,0:3:0:0:
192,192,39099,1,8,0:1:0:0:
320,192,39187,1,4,0:3:0:0:
192,192,39275,1,4,0:3:0:0:
64,192,39363,1,0,0:0:0:0:
320,192,39452,1,2,0:0:0:0:
448,192,39452,1,0,0:0:0:50:X_C#6.wav
192,192,39540,1,0,0:0:0:0:
320,192,39628,1,2,0:0:0:0:
448,192,39628,1,0,0:0:0:50:X_A#5.wav
64,192,39716,1,0,0:0:0:0:
192,192,39805,1,0,0:0:0:0:
320,192,39893,1,0,0:0:0:0:
64,192,39981,1,4,0:3:0:0:
192,192,39981,1,8,0:1:0:0:
448,192,40069,1,4,0:3:0:0:
320,192,40157,1,0,0:0:0:0:
64,192,40246,1,0,0:0:0:0:
448,192,40334,1,0,0:0:0:50:X_G#5.wav
320,192,40422,1,0,0:0:0:0:
192,192,40510,1,0,0:0:0:50:X_F#5.wav
320,192,40599,1,0,0:0:0:0:
64,192,40687,1,4,0:0:0:0:
192,192,40687,1,2,0:0:0:0:
448,192,40687,1,0,0:0:0:50:X_F#5.wav
320,192,40863,1,0,0:0:0:50:X_C#6.wav
64,192,41040,1,2,0:0:0:0:
192,192,41040,1,0,0:0:0:50:X_A#5.wav
320,192,41084,1,0,0:0:0:0:
448,192,41128,1,0,0:0:0:0:
64,192,41172,1,0,0:0:0:0:
192,192,41216,1,0,0:0:0:0:
448,192,41305,1,0,0:0:0:0:
64,192,41393,1,8,0:1:0:0:
320,192,41393,1,4,0:3:0:0:
192,192,41481,1,4,0:3:0:0:
448,192,41569,1,4,0:3:0:0:
320,192,41746,1,0,0:0:0:50:X_G#5.wav
192,192,41863,1,0,0:0:0:0:
64,192,41922,1,8,0:1:0:0:
320,192,41922,1,4,0:3:0:0:
448,192,41981,1,0,0:0:0:0:
64,192,42099,1,4,0:3:0:0:
320,192,42157,1,0,0:0:0:0:
192,192,42275,1,0,0:0:0:50:X_C#6.wav
320,192,42452,1,2,0:0:0:0:
448,192,42452,1,0,0:0:0:50:X_A#5.wav
64,192,42628,1,0,0:0:0:0:
192,192,42805,1,8,0:1:0:0:
448,192,42805,1,4,0:3:0:0:
320,192,42893,1,4,0:3:0:0:
64,192,42981,1,0,0:0:0:0:
192,192,43025,1,0,0:0:0:0:
320,192,43069,1,0,0:0:0:0:
448,192,43113,1,0,0:0:0:0:
64,192,43157,1,4,0:3:0:0:
320,192,43246,1,4,0:3:0:0:
192,192,43334,1,4,0:3:0:0:
64,192,43510,1,2,0:0:0:0:
192,192,43510,1,0,0:0:0:50:X_F#5.wav
320,192,43555,1,0,0:0:0:0:
448,192,43599,1,0,0:0:0:0:
64,192,43643,1,0,0:0:0:0:
192,192,43687,1,0,0:0:0:50:X_C#6.wav
320,192,43731,1,0,0:0:0:0:
448,192,43775,1,0,0:0:0:0:
64,192,43863,1,0,0:0:0:50:X_A#5.wav
192,192,43907,1,0,0:0:0:0:
320,192,43952,1,0,0:0:0:0:
448,192,43996,1,0,0:0:0:0:
64,192,44040,1,2,0:0:0:0:
192,192,44040,128,0,44216:0:0:0:0:
320,192,44216,1,4,0:3:0:0:
448,192,44216,1,8,0:1:0:0:
192,192,44305,1,4,0:3:0:0:
64,192,44393,1,4,0:3:0:0:
320,192,44481,1,0,0:0:0:0:
192,192,44569,1,0,0:0:0:50:X_G#5.wav
448,192,44687,1,0,0:0:0:0:
64,192,44746,1,8,0:1:0:0:
320,192,44746,1,4,0:3:0:0:
192,192,44834,1,4,0:3:0:0:
64,192,44922,1,4,0:3:0:0:
320,192,45010,1,0,0:0:0:0:
192,192,45099,1,2,0:0:0:0:
448,192,45099,1,0,0:0:0:50:X_C#6.wav
64,192,45275,1,2,0:0:0:0:
448,192,45275,1,0,0:0:0:50:X_A#5.wav
320,192,45319,1,0,0:0:0:0:
192,192,45363,1,0,0:0:0:0:
64,192,45407,1,0,0:0:0:0:
320,192,45452,1,0,0:0:0:0:
448,192,45496,1,0,0:0:0:0:
192,192,45540,1,0,0:0:0:0:
320,192,45628,1,8,0:1:0:0:
448,192,45628,1,4,0:3:0:0:
64,192,45716,1,4,0:3:0:0:
320,192,45805,1,4,0:3:0:0:
192,192,45981,1,0,0:0:0:50:X_G#5.wav
448,192,46157,1,0,0:0:0:50:X_F#5.wav
320,192,46334,1,2,0:0:0:0:
448,192,46334,1,0,0:0:0:50:X_F#5.wav
192,192,46510,1,0,0:0:0:50:X_C#6.wav
320,192,46687,1,2,0:0:0:0:
448,192,46687,1,0,0:0:0:50:X_A#5.wav
192,192,46731,1,0,0:0:0:0:
64,192,46775,1,0,0:0:0:0:
448,192,46819,1,0,0:0:0:0:
320,192,46863,128,0,47040:0:0:0:0:
64,192,47040,1,8,0:1:0:0:
192,192,47040,1,4,0:3:0:0:
448,192,47128,1,4,0:3:0:0:
320,192,47216,1,4,0:3:0:0:
64,192,47393,1,0,0:0:0:50:X_G#5.wav
320,192,47510,1,0,0:0:0:0:
192,192,47569,1,4,0:3:0:0:
448,192,47569,1,8,0:1:0:0:
64,192,47628,1,0,0:0:0:0:
192,192,47746,1,4,0:3:0:0:
320,192,47834,1,0,0:0:0:0:
448,192,47922,1,0,0:0:0:50:X_C#6.wav
64,192,48099,1,2,0:0:0:0:
320,192,48099,1,0,0:0:0:50:X_A#5.wav
192,192,48275,1,0,0:0:0:0:
64,192,48452,1,8,0:1:0:0:
448,192,48452,1,4,0:3:0:0:
320,192,48540,1,4,0:3:0:0:
64,192,48628,1,0,0:0:0:0:
192,192,48672,1,0,0:0:0:0:
320,192,48716,1,0,0:0:0:0:
448,192,48760,1,0,0:0:0:0:
64,192,48805,1,4,0:3:0:0:
320,192,48893,1,4,0:3:0:0:
192,192,48981,1,4,0:3:0:0:
320,192,49157,1,2,0:0:0:0:
448,192,49157,1,0,0:0:0:50:X_F#5.wav
64,192,49202,1,0,0:0:0:0:
192,192,49246,1,0,0:0:0:0:
320,192,49290,1,0,0:0:0:0:
448,192,49334,1,0,0:0:0:50:X_C#6.wav
64,192,49378,1,0,0:0:0:0:
192,192,49422,1,0,0:0:0:0:
448,192,49510,1,0,0:0:0:50:X_A#5.wav
320,192,49555,1,0,0:0:0:0:
192,192,49599,1,0,0:0:0:0:
64,192,49643,1,0,0:0:0:0:
320,192,49687,1,2,0:0:0:0:
448,192,49687,128,0,49863:0:0:0:0:
64,192,49863,1,4,0:3:0:0:
192,192,49863,1,8,0:1:0:0:
320,192,49952,1,4,0:3:0:0:
64,192,50040,1,4,0:3:0:0:
320,192,50128,1,0,0:0:0:0:
192,192,50216,1,0,0:0:0:50:X_G#5.wav
448,192,50334,1,0,0:0:0:0:
64,192,50393,1,4,0:3:0:0:
320,192,50393,1,8,0:1:0:0:
192,192,50510,1,0,0:0:0:0:
320,192,50569,1,4,0:3:0:0:
448,192,50657,1,0,0:0:0:0:
64,192,50746,1,2,0:0:0:0:
192,192,50746,1,0,0:0:0:50:X_C#6.wav
64,192,50922,1,2,0:0:0:0:
192,192,50922,1,0,0:0:0:50:X_A#5.wav
320,192,50966,1,0,0:0:0:0:
448,192,51010,1,0,0:0:0:0:
64,192,51055,1,0,0:0:0:0:
192,192,51099,1,0,0:0:0:0:
320,192,51143,1,0,0:0:0:0:
448,192,51187,1,0,0:0:0:0:
192,192,51275,1,4,0:3:0:0:
320,192,51275,1,8,0:1:0:0:
64,192,51363,1,4,0:3:0:0:
192,192,51452,1,4,0:3:0:0:
320,192,51628,1,0,0:0:0:50:X_G#5.wav
448,192,51805,1,0,0:0:0:50:X_F#5.wav
64,192,51981,128,0,52069:0:0:0:0:
64,192,52334,128,0,52422:0:0:0:0:
64,192,52687,128,0,52775:0:0:0:0:
64,192,53040,128,0,53128:0:0:0:0:
64,192,53393,128,0,53481:0:0:0:0:
64,192,53746,128,0,53834:0:0:0:0:
64,192,54099,128,0,54187:0:0:0:0:
64,192,54452,128,0,54540:0:0:0:0:
64,192,54805,128,0,54893:0:0:0:0:
64,192,55157,128,0,55246:0:0:0:0:
64,192,55510,128,0,55599:0:0:0:0:
64,192,55863,128,0,55952:0:0:0:0:
64,192,56216,128,0,56305:0:0:0:0:
64,192,56569,128,0,56657:0:0:0:0:
320,192,56922,128,0,57010:0:0:0:0:
320,192,57275,128,0,57363:0:0:0:0:
192,192,57628,128,0,57716:0:0:0:0:
192,192,57981,128,0,58069:0:0:0:0:
192,192,58334,128,0,58422:0:0:0:0:
192,192,58687,128,0,58775:0:0:0:0:
192,192,59040,128,0,59128:0:0:0:0:
192,192,59393,128,0,59481:0:0:0:0:
192,192,59746,128,0,59834:0:0:0:0:
192,192,60099,128,0,60187:0:0:0:0:
192,192,60452,128,0,60540:0:0:0:0:
192,192,60805,128,0,60893:0:0:0:0:
192,192,61157,128,0,61246:0:0:0:0:
192,192,61510,128,0,61599:0:0:0:0:
192,192,61863,128,0,61952:0:0:0:0:
192,192,62216,128,0,62305:0:0:0:0:
64,192,62569,128,0,62657:0:0:0:0:
64,192,62922,128,0,63010:0:0:0:0:
448,192,63275,128,0,63363:0:0:0:0:
448,192,63628,128,0,63716:0:0:0:0:
448,192,63981,128,0,64069:0:0:0:0:
448,192,64334,128,0,64422:0:0:0:0:
448,192,64687,128,0,64775:0:0:0:0:
448,192,65040,128,0,65128:0:0:0:0:
448,192,65393,128,0,65481:0:0:0:0:
448,192,65746,128,0,65834:0:0:0:0:
448,192,66099,128,0,66187:0:0:0:0:
448,192,66452,128,0,66540:0:0:0:0:
448,192,66805,128,0,66893:0:0:0:0:
448,192,67157,128,0,67246:0:0:0:0:
448,192,67510,128,0,67599:0:0:0:0:
448,192,67863,128,0,67952:0:0:0:0:
192,192,68216,128,0,68305:0:0:0:0:
192,192,68569,128,0,68657:0:0:0:0:
320,192,68922,128,0,69010:0:0:0:0:
320,192,69275,128,0,69363:0:0:0:0:
320,192,69628,128,0,69716:0:0:0:0:
320,192,69981,128,0,70069:0:0:0:0:
320,192,70334,128,0,70422:0:0:0:0:
320,192,70687,128,0,70775:0:0:0:0:
320,192,71040,128,0,71128:0:0:0:0:
320,192,71393,128,0,71481:0:0:0:0:
320,192,71746,128,0,71834:0:0:0:0:
320,192,72099,128,0,72187:0:0:0:0:
320,192,72452,128,0,72540:0:0:0:0:
320,192,72805,128,0,72893:0:0:0:0:
320,192,73157,128,0,73246:0:0:0:0:
320,192,73510,128,0,73599:0:0:0:0:
192,192,73863,128,0,73952:0:0:0:0:
64,192,74216,1,0,0:0:0:50:X_G#5.wav
192,192,74216,128,0,74305:0:0:0:0:
320,192,74393,1,0,0:0:0:50:X_F#5.wav
448,192,74393,1,0,0:0:0:0:
320,192,74569,1,2,0:0:0:0:
448,192,74569,1,0,0:0:0:50:X_F#5.wav
64,192,74746,1,0,0:0:0:50:X_C#6.wav
192,192,74746,1,0,0:0:0:0:
192,192,74922,1,2,0:0:0:0:
448,192,74922,1,0,0:0:0:50:X_A#5.wav
64,192,75275,1,2,0:0:0:0:
320,192,75275,1,0,0:0:0:0:
64,192,75628,1,2,0:0:0:0:
192,192,75628,1,0,0:0:0:50:X_G#5.wav
320,192,75805,1,0,0:0:0:50:X_F#5.wav
448,192,75805,1,0,0:0:0:0:
320,192,75981,1,2,0:0:0:0:
448,192,75981,1,0,0:0:0:50:X_F#5.wav
64,192,76157,1,0,0:0:0:50:X_C#6.wav
192,192,76157,1,0,0:0:0:0:
192,192,76334,1,2,0:0:0:0:
320,192,76334,1,0,0:0:0:50:X_A#5.wav
64,192,76687,1,2,0:0:0:0:
192,192,76687,1,0,0:0:0:0:
64,192,77040,1,2,0:0:0:0:
448,192,77040,1,0,0:0:0:50:X_G#5.wav
192,192,77216,1,0,0:0:0:50:X_F#5.wav
320,192,77216,1,0,0:0:0:0:
192,192,77393,1,2,0:0:0:0:
320,192,77393,1,0,0:0:0:50:X_F#5.wav
64,192,77569,1,0,0:0:0:50:X_C#6.wav
320,192,77569,1,0,0:0:0:0:
192,192,77746,1,2,0:0:0:0:
448,192,77746,1,0,0:0:0:50:X_A#5.wav
192,192,78099,1,2,0:0:0:0:
320,192,78099,1,0,0:0:0:0:
64,192,78452,1,2,0:0:0:0:
192,192,78452,1,0,0:0:0:50:X_G#5.wav
320,192,78628,1,0,0:0:0:50:X_F#5.wav
448,192,78628,1,0,0:0:0:0:
320,192,78805,1,2,0:0:0:0:
448,192,78805,1,0,0:0:0:50:X_F#5.wav
64,192,78981,1,0,0:0:0:50:X_C#6.wav
192,192,78981,1,0,0:0:0:0:
192,192,79157,1,2,0:0:0:0:
320,192,79157,1,0,0:0:0:50:X_A#5.wav
192,192,79510,1,2,0:0:0:0:
448,192,79510,1,0,0:0:0:0:
64,192,79863,1,2,0:0:0:0:
320,192,79863,1,0,0:0:0:50:X_G#5.wav
192,192,80040,1,0,0:0:0:50:X_F#5.wav
448,192,80040,1,0,0:0:0:0:
64,192,80216,1,2,0:0:0:0:
448,192,80216,1,0,0:0:0:50:X_C#6.wav
64,192,80393,1,0,0:0:0:50:X_F5.wav
320,192,80393,1,0,0:0:0:0:
192,192,80569,1,2,0:0:0:0:
448,192,80569,1,0,0:0:0:50:X_F#5.wav
64,192,80922,1,2,0:0:0:0:
192,192,80922,1,0,0:0:0:0:
64,192,81275,1,2,0:0:0:0:
320,192,81275,1,0,0:0:0:50:X_G#5.wav
192,192,81452,1,0,0:0:0:50:X_F#5.wav
448,192,81452,1,0,0:0:0:0:
64,192,81628,1,2,0:0:0:0:
448,192,81628,1,0,0:0:0:50:X_C#6.wav
64,192,81805,1,0,0:0:0:50:X_F5.wav
320,192,81805,1,0,0:0:0:0:
192,192,81981,1,2,0:0:0:0:
448,192,81981,1,0,0:0:0:50:X_F#5.wav
320,192,82334,1,2,0:0:0:0:
448,192,82334,1,0,0:0:0:0:
64,192,82687,1,2,0:0:0:0:
320,192,82687,1,0,0:0:0:50:X_G#5.wav
192,192,82863,1,0,0:0:0:50:X_F#5.wav
448,192,82863,1,0,0:0:0:0:
64,192,83040,1,2,0:0:0:0:
448,192,83040,1,0,0:0:0:50:X_C#6.wav
64,192,83216,1,0,0:0:0:50:X_F5.wav
320,192,83216,1,0,0:0:0:0:
192,192,83393,1,2,0:0:0:0:
448,192,83393,1,0,0:0:0:50:X_F#5.wav
64,192,83746,1,2,0:0:0:0:
192,192,83746,1,0,0:0:0:0:
64,192,84099,1,2,0:0:0:0:
320,192,84099,1,0,0:0:0:50:X_G#5.wav
192,192,84275,1,0,0:0:0:50:X_F#5.wav
448,192,84275,1,0,0:0:0:0:
64,192,84452,1,2,0:0:0:0:
448,192,84452,1,0,0:0:0:50:X_C#6.wav
64,192,84628,1,0,0:0:0:50:X_F5.wav
320,192,84628,1,0,0:0:0:0:
192,192,84805,1,2,0:0:0:0:
448,192,84805,1,0,0:0:0:50:X_F#5.wav
320,192,84981,1,0,0:0:0:50:X_F6.wav
64,192,85157,1,2,0:0:0:0:
448,192,85157,1,0,0:0:0:50:X_F#6.wav
192,192,85202,1,2,0:0:0:0:
320,192,85246,1,2,0:0:0:0:
448,192,85290,1,2,0:0:0:0:
64,192,85334,1,0,0:0:0:50:X_F6.wav
320,192,85510,1,2,0:0:0:0:
448,192,85510,1,0,0:0:0:50:X_C#6.wav
192,192,85555,1,2,0:0:0:0:
64,192,85687,1,2,0:0:0:0:
192,192,85687,1,0,0:0:0:50:X_G#5.wav
320,192,85731,1,2,0:0:0:0:
64,192,85863,1,2,0:0:0:0:
448,192,85863,1,0,0:0:0:50:X_F#5.wav
64,192,86040,1,2,0:0:0:0:
192,192,86040,1,0,0:0:0:50:X_C#6.wav
192,192,86216,1,2,0:0:0:0:
448,192,86216,1,0,0:0:0:50:X_A#5.wav
320,192,86393,1,2,0:0:0:0:
448,192,86393,1,0,0:0:0:0:
64,192,86569,1,2,0:0:0:0:
192,192,86569,1,0,0:0:0:0:
64,192,86746,1,2,0:0:0:0:
320,192,86746,1,0,0:0:0:0:
192,192,86922,1,2,0:0:0:0:
320,192,86922,1,0,0:0:0:50:X_G#5.wav
192,192,87099,1,2,0:0:0:0:
448,192,87099,1,0,0:0:0:50:X_F#5.wav
320,192,87275,1,2,0:0:0:0:
448,192,87275,1,0,0:0:0:50:X_F#5.wav
64,192,87452,1,2,0:0:0:0:
320,192,87452,1,0,0:0:0:50:X_C#6.wav
192,192,87628,1,2,0:0:0:0:
448,192,87628,1,0,0:0:0:50:X_A#5.wav
64,192,87805,1,2,0:0:0:0:
192,192,87805,1,0,0:0:0:0:
64,192,87981,1,2,0:0:0:0:
320,192,87981,1,0,0:0:0:0:
192,192,88157,1,2,0:0:0:0:
320,192,88157,1,0,0:0:0:0:
64,192,88334,1,2,0:0:0:0:
448,192,88334,1,0,0:0:0:50:X_G#5.wav
320,192,88510,1,2,0:0:0:0:
448,192,88510,1,0,0:0:0:50:X_F#5.wav
192,192,88687,1,2,0:0:0:0:
320,192,88687,1,0,0:0:0:50:X_F#5.wav
64,192,88863,1,2,0:0:0:0:
192,192,88863,1,0,0:0:0:50:X_C#6.wav
64,192,89040,1,2,0:0:0:0:
448,192,89040,1,0,0:0:0:50:X_A#5.wav
320,192,89216,1,2,0:0:0:0:
448,192,89216,1,0,0:0:0:0:
64,192,89393,1,2,0:0:0:0:
320,192,89393,1,0,0:0:0:0:
64,192,89569,1,2,0:0:0:0:
192,192,89569,1,0,0:0:0:0:
192,192,89746,1,2,0:0:0:0:
448,192,89746,1,0,0:0:0:50:X_G#5.wav
320,192,89922,1,2,0:0:0:0:
448,192,89922,1,0,0:0:0:50:X_F#5.wav
64,192,90099,1,2,0:0:0:0:
320,192,90099,1,0,0:0:0:50:X_F#5.wav
64,192,90275,1,2,0:0:0:0:
192,192,90275,1,0,0:0:0:50:X_C#6.wav
192,192,90452,1,2,0:0:0:0:
320,192,90452,1,0,0:0:0:50:X_A#5.wav
320,192,90628,1,2,0:0:0:0:
448,192,90628,1,0,0:0:0:0:
64,192,90805,1,2,0:0:0:0:
192,192,90805,1,0,0:0:0:0:
192,192,90981,1,2,0:0:0:0:
448,192,90981,1,0,0:0:0:0:
320,192,91157,1,2,0:0:0:0:
448,192,91157,1,0,0:0:0:50:X_G#5.wav
64,192,91334,1,2,0:0:0:0:
320,192,91334,1,0,0:0:0:50:X_F#5.wav
320,192,91510,1,2,0:0:0:0:
448,192,91510,1,0,0:0:0:50:X_C#6.wav
64,192,91599,1,2,0:0:0:0:
192,192,91599,1,0,0:0:0:0:
320,192,91687,1,2,0:0:0:0:
448,192,91687,1,0,0:0:0:50:X_F5.wav
64,192,91775,1,2,0:0:0:0:
192,192,91775,1,0,0:0:0:0:
320,192,91863,1,2,0:0:0:0:
448,192,91863,1,0,0:0:0:50:X_F#5.wav
64,192,91952,1,2,0:0:0:0:
192,192,91952,1,0,0:0:0:0:
320,192,92040,1,2,0:0:0:0:
448,192,92040,1,0,0:0:0:0:
64,192,92128,1,2,0:0:0:0:
192,192,92128,1,0,0:0:0:0:
320,192,92216,1,2,0:0:0:0:
448,192,92216,1,0,0:0:0:0:
64,192,92305,1,2,0:0:0:0:
192,192,92305,1,0,0:0:0:0:
320,192,92393,1,2,0:0:0:0:
448,192,92481,1,2,0:0:0:0:
192,192,92569,1,2,0:0:0:0:
320,192,92657,1,2,0:0:0:0:
448,192,92746,1,2,0:0:0:0:
64,192,92834,1,2,0:0:0:0:
192,192,92922,1,2,0:0:0:0:
320,192,92922,1,0,0:0:0:50:X_C#6.wav
448,192,93010,1,2,0:0:0:0:
192,192,93099,1,2,0:0:0:0:
448,192,93187,1,2,0:0:0:0:
192,192,93275,1,2,0:0:0:0:
320,192,93363,1,2,0:0:0:0:
64,192,93452,1,2,0:0:0:0:
320,192,93540,1,2,0:0:0:0:
64,192,93628,128,2,94334:0:0:0:0:
320,192,94334,128,2,95746:0:0:0:0:
192,192,95746,128,0,96010:0:0:0:0:
192,192,96099,1,0,0:0:0:0:
64,192,96334,1,2,0:1:0:0:
192,192,96393,1,2,0:1:0:0:
320,192,96452,1,2,0:1:0:0:
448,192,96452,1,0,0:0:0:0:
64,192,96628,1,8,0:3:0:0:
192,192,96628,1,0,0:0:0:0:
64,192,96805,1,2,0:3:0:0:
448,192,96805,1,0,0:0:0:0:
320,192,96981,1,2,0:3:0:0:
448,192,96981,1,0,0:0:0:0:
64,192,97157,128,4,97422:0:0:0:0:
192,192,97157,128,2,97422:0:0:0:0:
320,192,97157,1,0,0:0:0:0:
64,192,97510,128,0,97775:0:0:0:0:
192,192,97510,128,0,97775:0:0:0:0:
64,192,97863,1,2,0:0:0:0:
192,192,97863,128,8,98128:0:0:0:0:
448,192,97863,128,0,98128:0:0:0:0:
192,192,98216,128,0,98481:0:0:0:0:
448,192,98216,128,0,98481:0:0:0:0:
320,192,98569,128,2,98834:0:0:0:0:
448,192,98569,128,0,98834:0:0:0:0:
320,192,98922,128,0,99187:0:0:0:0:
448,192,98922,128,0,99187:0:0:0:0:
64,192,99275,128,2,99540:0:0:0:0:
192,192,99275,1,8,0:0:0:0:
320,192,99275,128,0,99540:0:0:0:0:
64,192,99628,128,0,99893:0:0:0:0:
320,192,99628,128,0,99893:0:0:0:0:
192,192,99981,128,2,100246:0:0:0:0:
320,192,99981,128,0,100246:0:0:0:0:
192,192,100334,128,0,100599:0:0:0:0:
320,192,100334,128,0,100599:0:0:0:0:
64,192,100687,128,2,100952:0:0:0:0:
192,192,100687,1,8,0:0:0:0:
448,192,100687,128,0,100952:0:0:0:0:
64,192,101040,128,0,101305:0:0:0:0:
448,192,101040,128,0,101305:0:0:0:0:
192,192,101393,128,2,101657:0:0:0:0:
448,192,101393,128,0,101657:0:0:0:0:
192,192,101746,128,0,102010:0:0:0:0:
448,192,101746,128,0,102010:0:0:0:0:
64,192,102099,128,8,102363:0:0:0:0:
192,192,102099,128,2,102363:0:0:0:0:
320,192,102099,1,0,0:0:0:0:
64,192,102452,128,0,102716:0:0:0:0:
192,192,102452,128,0,102716:0:0:0:0:
64,192,102805,128,2,103069:0:0:0:0:
320,192,102805,128,0,103069:0:0:0:0:
64,192,103157,128,0,103422:0:0:0:0:
320,192,103157,128,0,103422:0:0:0:0:
192,192,103510,1,8,0:0:0:0:
320,192,103510,128,2,103775:0:0:0:0:
448,192,103510,128,0,103775:0:0:0:0:
320,192,103863,128,0,104128:0:0:0:0:
448,192,103863,128,0,104128:0:0:0:0:
192,192,104216,128,2,104481:0:0:0:0:
320,192,104216,128,0,104481:0:0:0:0:
192,192,104569,128,0,104834:0:0:0:0:
320,192,104569,128,0,104834:0:0:0:0:
64,192,104922,128,8,105187:0:0:0:0:
192,192,104922,128,2,105187:0:0:0:0:
448,192,104922,1,0,0:0:0:0:
64,192,105275,128,0,105540:0:0:0:0:
192,192,105275,128,0,105540:0:0:0:0:
64,192,105628,128,2,105893:0:0:0:0:
448,192,105628,128,0,105893:0:0:0:0:
64,192,105981,128,0,106246:0:0:0:0:
448,192,105981,128,0,106246:0:0:0:0:
64,192,106334,1,8,0:0:0:0:
320,192,106334,128,2,106599:0:0:0:0:
448,192,106334,128,0,106599:0:0:0:0:
320,192,106687,128,0,106952:0:0:0:0:
448,192,106687,128,0,106952:0:0:0:0:
192,192,107040,128,2,107305:0:0:0:0:
320,192,107040,128,0,107305:0:0:0:0:
192,192,107393,128,0,107657:0:0:0:0:
320,192,107393,128,0,107657:0:0:0:0:
64,192,107746,128,8,108010:0:0:0:0:
192,192,107746,128,2,108010:0:0:0:0:
448,192,107746,1,0,0:0:0:0:
64,192,108099,128,0,108363:0:0:0:0:
192,192,108099,128,0,108363:0:0:0:0:
64,192,108452,1,2,0:0:0:0:
320,192,108452,1,4,0:0:0:0:
448,192,108452,1,0,0:0:0:0:
192,192,108540,1,0,0:0:0:0:
320,192,108628,1,0,0:0:0:0:
448,192,108716,1,0,0:0:0:0:
64,192,108805,1,0,0:0:0:0:
192,192,108805,1,0,0:0:0:0:
320,192,108893,1,0,0:0:0:0:
64,192,108981,1,0,0:0:0:0:
192,192,109069,1,0,0:0:0:0:
64,192,109157,1,8,0:0:0:0:
320,192,109157,1,2,0:0:0:0:
448,192,109157,1,0,0:0:0:0:
192,192,109246,1,0,0:0:0:0:
448,192,109334,1,0,0:0:0:0:
320,192,109422,1,0,0:0:0:0:
64,192,109510,1,0,0:0:0:0:
192,192,109510,1,0,0:0:0:0:
448,192,109599,1,0,0:0:0:0:
320,192,109687,1,0,0:0:0:0:
192,192,109775,1,0,0:0:0:0:
64,192,109863,1,2,0:0:0:0:
320,192,109863,1,0,0:0:0:0:
448,192,109952,1,0,0:0:0:0:
192,192,110040,1,0,0:0:0:0:
448,192,110128,1,0,0:0:0:0:
192,192,110216,1,0,0:0:0:0:
320,192,110216,1,0,0:0:0:0:
64,192,110305,1,0,0:0:0:0:
320,192,110393,1,0,0:0:0:0:
192,192,110481,1,0,0:0:0:0:
64,192,110569,1,2,0:0:0:0:
320,192,110569,1,8,0:0:0:0:
448,192,110569,1,0,0:0:0:0:
192,192,110657,1,0,0:0:0:0:
448,192,110746,1,0,0:0:0:0:
320,192,110834,1,0,0:0:0:0:
64,192,110922,1,0,0:0:0:0:
192,192,110922,1,0,0:0:0:0:
320,192,111010,1,0,0:0:0:0:
192,192,111099,1,0,0:0:0:0:
320,192,111187,1,0,0:0:0:0:
64,192,111275,1,2,0:0:0:0:
448,192,111275,1,0,0:0:0:0:
192,192,111363,1,0,0:0:0:0:
64,192,111452,1,0,0:0:0:0:
320,192,111540,1,0,0:0:0:0:
192,192,111628,1,0,0:0:0:0:
448,192,111628,1,0,0:0:0:0:
64,192,111716,1,0,0:0:0:0:
320,192,111805,1,0,0:0:0:0:
64,192,111893,1,0,0:0:0:0:
192,192,111981,1,8,0:0:0:0:
320,192,111981,1,2,0:0:0:0:
448,192,111981,1,0,0:0:0:0:
64,192,112069,1,0,0:0:0:0:
448,192,112157,1,0,0:0:0:0:
192,192,112246,1,0,0:0:0:0:
320,192,112334,1,0,0:0:0:0:
448,192,112334,1,0,0:0:0:0:
64,192,112422,1,0,0:0:0:0:
320,192,112510,1,0,0:0:0:0:
192,192,112599,1,0,0:0:0:0:
64,192,112687,1,2,0:0:0:0:
448,192,112687,1,0,0:0:0:0:
320,192,112775,1,0,0:0:0:0:
448,192,112863,1,0,0:0:0:0:
192,192,112952,1,0,0:0:0:0:
64,192,113040,1,0,0:0:0:0:
320,192,113040,1,0,0:0:0:0:
192,192,113128,1,0,0:0:0:0:
448,192,113216,1,0,0:0:0:0:
320,192,113305,1,0,0:0:0:0:
64,192,113393,1,8,0:0:0:0:
192,192,113393,1,2,0:0:0:0:
448,192,113393,1,0,0:0:0:0:
320,192,113481,1,0,0:0:0:0:
64,192,113569,1,0,0:0:0:0:
192,192,113657,1,0,0:0:0:0:
320,192,113746,1,0,0:0:0:0:
448,192,113746,1,0,0:0:0:0:
64,192,113834,1,0,0:0:0:0:
448,192,113922,1,0,0:0:0:0:
320,192,114010,1,0,0:0:0:0:
64,192,114099,1,2,0:0:0:0:
192,192,114099,1,0,0:0:0:0:
448,192,114187,1,0,0:0:0:0:
192,192,114275,1,0,0:0:0:0:
320,192,114363,1,0,0:0:0:0:
64,192,114452,1,0,0:0:0:0:
448,192,114452,1,0,0:0:0:0:
192,192,114540,1,0,0:0:0:0:
320,192,114628,1,0,0:0:0:0:
64,192,114716,1,0,0:0:0:0:
192,192,114805,1,8,0:0:0:0:
320,192,114805,1,2,0:0:0:0:
448,192,114805,1,0,0:0:0:0:
64,192,114893,1,0,0:0:0:0:
448,192,114981,1,0,0:0:0:0:
192,192,115069,1,0,0:0:0:0:
64,192,115157,1,0,0:0:0:0:
320,192,115157,1,0,0:0:0:0:
448,192,115246,1,0,0:0:0:0:
192,192,115334,1,0,0:0:0:0:
320,192,115422,1,0,0:0:0:0:
64,192,115510,1,2,0:0:0:0:
448,192,115510,1,0,0:0:0:0:
192,192,115599,1,0,0:0:0:0:
448,192,115687,1,0,0:0:0:0:
320,192,115775,1,0,0:0:0:0:
64,192,115863,1,0,0:0:0:0:
192,192,115863,1,0,0:0:0:0:
320,192,115952,1,0,0:0:0:0:
64,192,116040,1,0,0:0:0:0:
192,192,116128,1,0,0:0:0:0:
64,192,116216,1,8,0:0:0:0:
320,192,116216,1,2,0:0:0:0:
448,192,116216,1,0,0:0:0:0:
192,192,116305,1,0,0:0:0:0:
448,192,116393,1,0,0:0:0:0:
320,192,116481,1,0,0:0:0:0:
192,192,116569,1,0,0:0:0:0:
448,192,116569,1,0,0:0:0:0:
64,192,116657,1,0,0:0:0:0:
320,192,116746,1,0,0:0:0:0:
192,192,116834,1,0,0:0:0:0:
64,192,116922,1,2,0:0:0:0:
320,192,116922,1,0,0:0:0:0:
448,192,117010,128,0,117187:0:0:0:0:
320,192,117628,1,0,0:0:0:60:P_F#7.wav
64,192,117981,1,0,0:0:0:60:P_F7.wav
192,192,118687,1,0,0:0:0:60:P_C#7.wav
64,192,119040,1,8,0:0:0:0:
320,192,119040,1,0,0:0:0:0:
448,192,119040,1,0,0:0:0:0:
64,192,119216,1,8,0:3:0:0:
192,192,119216,1,0,0:0:0:0:
192,192,119393,1,2,0:3:0:0:
448,192,119393,1,0,0:0:0:0:
320,192,119569,1,2,0:3:0:0:
448,192,119569,1,0,0:0:0:0:
64,192,119746,1,2,0:0:0:0:
192,192,119746,1,4,0:0:0:0:
320,192,119746,1,0,0:0:0:0:
448,192,119834,1,0,0:0:0:0:
64,192,119922,1,0,0:0:0:0:
320,192,120010,1,0,0:0:0:0:
64,192,120099,1,0,0:0:0:60:P_C#6.wav
192,192,120099,1,0,0:0:0:0:
448,192,120187,1,0,0:0:0:0:
64,192,120275,1,0,0:0:0:0:
192,192,120275,1,0,0:0:0:0:
320,192,120363,1,0,0:0:0:0:
64,192,120452,1,10,0:0:0:0:
192,192,120452,1,0,0:0:0:60:P_A#6.wav
448,192,120452,1,0,0:0:0:60:P_G#6.wav
320,192,120540,1,0,0:0:0:0:
448,192,120628,1,0,0:0:0:0:
192,192,120716,1,0,0:0:0:0:
64,192,120805,1,0,0:0:0:60:P_A#6.wav
320,192,120805,1,0,0:0:0:0:
448,192,120893,1,0,0:0:0:0:
64,192,120981,1,0,0:0:0:0:
320,192,120981,1,0,0:0:0:0:
192,192,121069,1,0,0:0:0:0:
64,192,121157,1,2,0:0:0:0:
320,192,121157,1,0,0:0:0:60:P_C#7.wav
448,192,121246,1,0,0:0:0:0:
192,192,121334,1,0,0:0:0:0:
320,192,121334,1,0,0:0:0:0:
64,192,121422,1,0,0:0:0:0:
192,192,121510,1,0,0:0:0:60:P_F#7.wav
320,192,121510,1,0,0:0:0:0:
448,192,121599,1,0,0:0:0:0:
192,192,121687,1,0,0:0:0:0:
320,192,121775,1,0,0:0:0:0:
64,192,121863,1,8,0:0:0:0:
192,192,121863,1,2,0:0:0:0:
448,192,121863,1,0,0:0:0:60:P_F7.wav
320,192,121952,1,0,0:0:0:0:
64,192,122040,1,0,0:0:0:0:
192,192,122128,1,0,0:0:0:0:
320,192,122216,1,0,0:0:0:0:
448,192,122216,1,0,0:0:0:0:
64,192,122305,1,0,0:0:0:0:
320,192,122393,1,0,0:0:0:60:P_A#7.wav
448,192,122393,1,0,0:0:0:0:
192,192,122481,1,0,0:0:0:0:
320,192,122569,1,2,0:0:0:0:
448,192,122569,1,0,0:0:0:0:
64,192,122657,1,0,0:0:0:0:
192,192,122746,1,0,0:0:0:0:
320,192,122834,1,0,0:0:0:0:
64,192,122922,1,0,0:0:0:0:
448,192,122922,1,0,0:0:0:0:
192,192,123010,1,0,0:0:0:0:
64,192,123099,1,0,0:0:0:0:
448,192,123099,1,0,0:0:0:0:
320,192,123187,1,0,0:0:0:0:
64,192,123275,1,8,0:0:0:0:
192,192,123275,1,2,0:0:0:0:
448,192,123275,1,0,0:0:0:0:
320,192,123363,1,0,0:0:0:0:
192,192,123452,1,0,0:0:0:0:
448,192,123540,1,0,0:0:0:0:
64,192,123628,1,0,0:0:0:0:
320,192,123628,1,0,0:0:0:0:
192,192,123716,1,0,0:0:0:0:
64,192,123805,1,0,0:0:0:0:
320,192,123805,1,0,0:0:0:0:
192,192,123893,1,0,0:0:0:0:
64,192,123981,1,2,0:0:0:0:
320,192,123981,1,0,0:0:0:0:
448,192,124069,1,0,0:0:0:0:
64,192,124157,1,0,0:0:0:0:
192,192,124157,1,0,0:0:0:0:
320,192,124246,1,0,0:0:0:0:
64,192,124334,1,0,0:0:0:0:
192,192,124334,1,0,0:0:0:0:
448,192,124422,1,0,0:0:0:0:
320,192,124510,1,0,0:0:0:0:
192,192,124599,1,0,0:0:0:0:
64,192,124687,1,2,0:0:0:0:
320,192,124687,1,8,0:0:0:0:
448,192,124687,1,0,0:0:0:0:
192,192,124775,1,0,0:0:0:0:
64,192,124863,1,0,0:0:0:60:P_F#7.wav
448,192,124863,1,0,0:0:0:0:
320,192,124952,1,0,0:0:0:0:
192,192,125040,1,0,0:0:0:60:P_F7.wav
448,192,125040,1,0,0:0:0:0:
64,192,125128,1,0,0:0:0:0:
192,192,125216,1,0,0:0:0:60:P_C#7.wav
448,192,125216,1,0,0:0:0:0:
320,192,125305,1,0,0:0:0:0:
192,192,125393,1,2,0:0:0:0:
448,192,125393,1,0,0:0:0:60:P_F#6.wav
64,192,125481,1,0,0:0:0:0:
320,192,125569,1,0,0:0:0:60:P_G#6.wav
448,192,125569,1,0,0:0:0:0:
192,192,125657,1,0,0:0:0:0:
64,192,125746,1,0,0:0:0:60:P_A#6.wav
448,192,125746,1,0,0:0:0:0:
320,192,125834,1,0,0:0:0:0:
64,192,125922,1,0,0:0:0:0:
448,192,125922,1,0,0:0:0:0:
192,192,126010,1,0,0:0:0:0:
64,192,126099,1,8,0:0:0:0:
320,192,126099,1,2,0:0:0:0:
448,192,126099,1,0,0:0:0:60:P_F7.wav
192,192,126187,1,0,0:0:0:0:
320,192,126275,1,0,0:0:0:0:
64,192,126363,1,0,0:0:0:0:
320,192,126452,1,0,0:0:0:60:P_F#6.wav
448,192,126452,1,0,0:0:0:0:
192,192,126540,1,0,0:0:0:0:
320,192,126628,1,0,0:0:0:60:P_G#6.wav
448,192,126628,1,0,0:0:0:0:
64,192,126716,1,0,0:0:0:0:
320,192,126805,1,2,0:0:0:0:
448,192,126805,1,0,0:0:0:60:P_A#6.wav
192,192,126893,1,0,0:0:0:0:
64,192,126981,1,0,0:0:0:0:
448,192,126981,1,0,0:0:0:0:
320,192,127069,1,0,0:0:0:0:
64,192,127157,1,0,0:0:0:60:P_F7.wav
448,192,127157,1,0,0:0:0:0:
192,192,127246,1,0,0:0:0:0:
320,192,127334,1,0,0:0:0:0:
64,192,127422,1,0,0:0:0:0:
192,192,127510,1,8,0:0:0:0:
320,192,127510,1,2,0:0:0:0:
448,192,127510,1,0,0:0:0:60:P_F#6.wav
64,192,127599,1,0,0:0:0:0:
448,192,127687,1,0,0:0:0:0:
320,192,127775,1,0,0:0:0:0:
64,192,127863,1,0,0:0:0:0:
192,192,127863,1,0,0:0:0:0:
448,192,127952,1,0,0:0:0:0:
64,192,128040,1,0,0:0:0:60:P_F7.wav
192,192,128040,1,0,0:0:0:0:
320,192,128128,1,0,0:0:0:0:
64,192,128216,1,2,0:0:0:0:
192,192,128216,1,0,0:0:0:0:
448,192,128305,1,0,0:0:0:0:
192,192,128393,1,0,0:0:0:0:
320,192,128481,1,0,0:0:0:0:
64,192,128569,1,0,0:0:0:0:
448,192,128569,1,0,0:0:0:0:
192,192,128657,1,0,0:0:0:0:
64,192,128746,1,0,0:0:0:0:
448,192,128746,1,0,0:0:0:0:
320,192,128834,1,0,0:0:0:0:
64,192,128922,1,2,0:0:0:0:
192,192,128922,1,8,0:0:0:0:
448,192,128922,1,0,0:0:0:0:
320,192,129010,1,0,0:0:0:0:
192,192,129099,1,0,0:0:0:0:
448,192,129187,1,0,0:0:0:0:
64,192,129275,1,0,0:0:0:0:
320,192,129275,1,0,0:0:0:0:
192,192,129363,1,0,0:0:0:0:
64,192,129452,1,0,0:0:0:0:
320,192,129452,1,0,0:0:0:0:
192,192,129540,1,0,0:0:0:0:
64,192,129628,1,2,0:0:0:0:
320,192,129628,1,0,0:0:0:60:P_F#7.wav
448,192,129716,1,0,0:0:0:0:
64,192,129805,1,0,0:0:0:60:P_F7.wav
192,192,129805,1,0,0:0:0:0:
320,192,129893,1,0,0:0:0:0:
64,192,129981,1,0,0:0:0:60:P_C#7.wav
192,192,129981,1,0,0:0:0:0:
448,192,130069,1,0,0:0:0:0:
320,192,130157,1,0,0:0:0:0:
64,192,130246,1,0,0:0:0:0:
192,192,130334,1,8,0:0:0:0:
320,192,130334,1,2,0:0:0:0:
448,192,130334,1,0,0:0:0:0:
64,192,130422,1,0,0:0:0:0:
448,192,130510,1,0,0:0:0:0:
192,192,130599,1,0,0:0:0:0:
320,192,130687,1,0,0:0:0:0:
448,192,130687,1,0,0:0:0:0:
64,192,130775,1,0,0:0:0:0:
320,192,130863,1,0,0:0:0:0:
448,192,130863,1,0,0:0:0:0:
192,192,130952,1,0,0:0:0:0:
64,192,131040,1,2,0:0:0:0:
320,192,131040,1,4,0:0:0:0:
448,192,131040,1,0,0:0:0:0:
192,192,131128,1,0,0:0:0:0:
64,192,131216,1,0,0:0:0:0:
320,192,131305,1,0,0:0:0:0:
192,192,131393,1,0,0:0:0:60:P_C#6.wav
448,192,131393,1,0,0:0:0:0:
320,192,131481,1,0,0:0:0:0:
192,192,131569,1,0,0:0:0:0:
448,192,131569,1,0,0:0:0:0:
320,192,131657,1,0,0:0:0:0:
64,192,131746,1,10,0:0:0:0:
192,192,131746,1,0,0:0:0:60:P_A#6.wav
448,192,131746,1,0,0:0:0:60:P_G#6.wav
320,192,131834,1,0,0:0:0:0:
64,192,131922,1,0,0:0:0:0:
192,192,132010,1,0,0:0:0:0:
320,192,132099,1,0,0:0:0:60:P_A#6.wav
448,192,132099,1,0,0:0:0:0:
64,192,132187,1,0,0:0:0:0:
320,192,132275,1,0,0:0:0:0:
448,192,132275,1,0,0:0:0:0:
192,192,132363,1,0,0:0:0:0:
320,192,132452,1,2,0:0:0:0:
448,192,132452,1,0,0:0:0:60:P_C#7.wav
192,192,132540,1,0,0:0:0:0:
64,192,132628,1,0,0:0:0:0:
448,192,132628,1,0,0:0:0:0:
320,192,132716,1,0,0:0:0:0:
64,192,132805,1,0,0:0:0:60:P_F#7.wav
448,192,132805,1,0,0:0:0:0:
192,192,132893,1,0,0:0:0:0:
320,192,132981,1,0,0:0:0:0:
192,192,133069,1,0,0:0:0:0:
64,192,133157,1,2,0:0:0:0:
320,192,133157,1,8,0:0:0:0:
448,192,133157,1,0,0:0:0:0:
192,192,133246,1,0,0:0:0:0:
64,192,133334,1,0,0:0:0:60:P_F7.wav
448,192,133334,1,0,0:0:0:0:
320,192,133422,1,0,0:0:0:0:
64,192,133510,1,0,0:0:0:60:P_A#6.wav
192,192,133510,1,0,0:0:0:0:
448,192,133599,1,0,0:0:0:0:
64,192,133687,1,0,0:0:0:0:
192,192,133687,1,0,0:0:0:0:
320,192,133775,1,0,0:0:0:0:
64,192,133863,1,2,0:0:0:0:
192,192,133863,1,0,0:0:0:0:
448,192,133952,1,0,0:0:0:0:
320,192,134040,1,0,0:0:0:0:
64,192,134128,1,0,0:0:0:0:
192,192,134216,1,0,0:0:0:0:
320,192,134216,1,0,0:0:0:0:
64,192,134305,1,0,0:0:0:0:
192,192,134393,1,0,0:0:0:0:
320,192,134393,1,0,0:0:0:0:
64,192,134481,1,0,0:0:0:0:
192,192,134569,1,2,0:0:0:0:
320,192,134569,1,8,0:0:0:0:
448,192,134569,1,0,0:0:0:0:
64,192,134657,1,0,0:0:0:0:
192,192,134746,1,0,0:0:0:60:P_C#6.wav
448,192,134746,1,0,0:0:0:0:
64,192,134834,1,0,0:0:0:0:
320,192,134922,1,0,0:0:0:60:P_F#6.wav
448,192,134922,1,0,0:0:0:0:
192,192,135010,1,0,0:0:0:60:P_G#6.wav
320,192,135099,1,0,0:0:0:60:P_F#6.wav
448,192,135099,1,0,0:0:0:0:
64,192,135187,1,0,0:0:0:0:
320,192,135275,1,2,0:0:0:0:
448,192,135275,1,0,0:0:0:0:
64,192,135363,1,0,0:0:0:0:
192,192,135452,1,0,0:0:0:0:
320,192,135452,1,0,0:0:0:0:
64,192,135540,1,0,0:0:0:0:
192,192,135628,1,0,0:0:0:0:
320,192,135628,1,0,0:0:0:0:
448,192,135716,1,0,0:0:0:0:
64,192,135805,1,0,0:0:0:0:
320,192,135893,1,0,0:0:0:0:
64,192,135981,1,2,0:0:0:0:
192,192,135981,1,8,0:0:0:0:
448,192,135981,1,0,0:0:0:0:
320,192,136069,1,0,0:0:0:0:
64,192,136157,1,0,0:0:0:60:P_F#7.wav
192,192,136157,1,0,0:0:0:0:
448,192,136246,1,0,0:0:0:0:
64,192,136334,1,0,0:0:0:60:P_F7.wav
320,192,136334,1,0,0:0:0:0:
192,192,136422,1,0,0:0:0:0:
64,192,136510,1,0,0:0:0:60:P_C#7.wav
320,192,136510,1,0,0:0:0:0:
192,192,136599,1,0,0:0:0:0:
64,192,136687,1,2,0:0:0:0:
320,192,136687,1,0,0:0:0:60:P_F#6.wav
448,192,136775,1,0,0:0:0:0:
192,192,136863,1,0,0:0:0:60:P_G#6.wav
320,192,136863,1,0,0:0:0:0:
64,192,136952,1,0,0:0:0:0:
320,192,137040,1,0,0:0:0:60:P_A#6.wav
448,192,137040,1,0,0:0:0:0:
192,192,137128,1,0,0:0:0:0:
320,192,137216,1,0,0:0:0:0:
448,192,137216,1,0,0:0:0:0:
64,192,137305,1,0,0:0:0:0:
192,192,137393,1,2,0:0:0:0:
320,192,137393,1,8,0:0:0:0:
448,192,137393,1,0,0:0:0:60:P_F7.wav
64,192,137481,1,0,0:0:0:0:
320,192,137569,1,0,0:0:0:0:
192,192,137657,1,0,0:0:0:0:
64,192,137746,1,0,0:0:0:60:P_F#6.wav
448,192,137746,1,0,0:0:0:0:
320,192,137834,1,0,0:0:0:0:
64,192,137922,1,0,0:0:0:60:P_G#6.wav
448,192,137922,1,0,0:0:0:0:
192,192,138010,1,0,0:0:0:0:
320,192,138099,1,2,0:0:0:0:
448,192,138099,1,0,0:0:0:60:P_A#6.wav
192,192,138187,1,0,0:0:0:0:
64,192,138275,1,0,0:0:0:0:
320,192,138275,1,0,0:0:0:0:
192,192,138363,1,0,0:0:0:0:
64,192,138452,1,0,0:0:0:60:P_F7.wav
320,192,138452,1,0,0:0:0:0:
448,192,138540,1,0,0:0:0:0:
192,192,138628,1,0,0:0:0:0:
448,192,138716,1,0,0:0:0:0:
64,192,138805,1,2,0:0:0:0:
192,192,138805,1,8,0:0:0:0:
320,192,138805,1,0,0:0:0:60:P_F#6.wav
448,192,138893,1,0,0:0:0:0:
64,192,138981,1,0,0:0:0:0:
320,192,139069,1,0,0:0:0:0:
64,192,139157,1,0,0:0:0:0:
192,192,139157,1,0,0:0:0:0:
448,192,139246,1,0,0:0:0:0:
64,192,139334,1,0,0:0:0:60:P_F6.wav
192,192,139334,1,0,0:0:0:0:
320,192,139422,1,0,0:0:0:0:
64,192,139510,1,2,0:0:0:0:
192,192,139510,1,0,0:0:0:0:
64,192,139863,1,0,0:0:0:0:
448,192,139863,1,0,0:0:0:0:
64,192,140040,1,0,0:0:0:0:
448,192,140040,1,0,0:0:0:0:
64,192,140216,1,0,0:0:0:0:
448,192,140216,1,0,0:0:0:0:
64,192,140569,1,0,0:0:0:0:
448,192,140569,1,0,0:0:0:0:
64,192,140746,1,0,0:0:0:0:
448,192,140746,1,0,0:0:0:0:
64,192,140922,1,0,0:0:0:60:P_F#7.wav
448,192,140922,1,0,0:0:0:0:
64,192,141099,1,0,0:0:0:60:P_F7.wav
448,192,141099,1,0,0:0:0:0:
64,192,141275,1,0,0:0:0:60:P_C#7.wav
320,192,141275,1,0,0:0:0:0:
64,192,141628,1,0,0:0:0:0:
320,192,141628,1,0,0:0:0:0:
64,192,141981,1,0,0:0:0:0:
448,192,141981,1,0,0:0:0:0:
64,192,142157,1,0,0:0:0:0:
448,192,142157,1,0,0:0:0:0:
192,192,142334,1,4,0:0:0:0:
320,192,142334,1,2,0:0:0:0:
448,192,142334,1,0,0:0:0:0:
320,192,142510,1,0,0:0:0:0:
320,192,142687,1,0,0:0:0:0:
320,192,142863,1,0,0:0:0:0:
64,192,143040,1,8,0:0:0:0:
192,192,143040,1,0,0:0:0:0:
320,192,143040,1,0,0:0:0:0:
320,192,143216,1,0,0:0:0:0:
320,192,143393,1,0,0:0:0:0:
320,192,143569,1,0,0:0:0:0:
192,192,143746,1,2,0:0:0:0:
320,192,143746,1,0,0:0:0:0:
320,192,143922,1,0,0:0:0:0:
320,192,144099,1,0,0:0:0:0:
320,192,144275,1,0,0:0:0:0:
64,192,144452,1,8,0:0:0:0:
192,192,144452,1,0,0:0:0:0:
320,192,144452,1,0,0:0:0:0:
320,192,144628,1,0,0:0:0:0:
320,192,144805,1,0,0:0:0:0:
320,192,144981,1,0,0:0:0:0:
64,192,145157,1,2,0:0:0:0:
448,192,145157,1,0,0:0:0:0:
64,192,145334,1,0,0:0:0:0:
64,192,145510,1,0,0:0:0:0:
64,192,145687,1,0,0:0:0:0:
64,192,145863,1,8,0:0:0:0:
320,192,145863,1,0,0:0:0:0:
448,192,145863,1,0,0:0:0:0:
64,192,146040,1,0,0:0:0:0:
64,192,146216,1,0,0:0:0:0:
64,192,146393,1,0,0:0:0:0:
64,192,146569,1,2,0:0:0:0:
320,192,146569,1,0,0:0:0:0:
64,192,146746,1,0,0:0:0:0:
64,192,146922,1,0,0:0:0:0:
64,192,147099,1,0,0:0:0:0:
64,192,147275,1,8,0:0:0:0:
320,192,147275,1,0,0:0:0:0:
448,192,147275,1,0,0:0:0:0:
448,192,147452,1,0,0:0:0:0:
448,192,147628,1,0,0:0:0:0:
448,192,147805,1,0,0:0:0:0:
192,192,147981,1,2,0:0:0:0:
448,192,147981,1,0,0:0:0:0:
192,192,148157,1,0,0:0:0:0:
192,192,148334,1,0,0:0:0:0:
192,192,148510,1,0,0:0:0:0:
192,192,148687,1,8,0:0:0:0:
320,192,148687,1,0,0:0:0:0:
448,192,148687,1,0,0:0:0:0:
192,192,148863,1,0,0:0:0:0:
192,192,149040,1,0,0:0:0:0:
192,192,149216,1,0,0:0:0:0:
192,192,149393,1,2,0:0:0:0:
448,192,149393,1,0,0:0:0:0:
192,192,149569,1,0,0:0:0:0:
192,192,149746,1,0,0:0:0:0:
192,192,149922,1,0,0:0:0:0:
192,192,150099,1,8,0:0:0:0:
320,192,150099,1,0,0:0:0:0:
448,192,150099,1,0,0:0:0:0:
192,192,150275,1,0,0:0:0:0:
192,192,150452,1,0,0:0:0:0:
192,192,150628,1,0,0:0:0:0:
448,192,150805,1,2,0:0:0:0:
320,192,150805,1,0,0:0:0:0:
320,192,150981,1,0,0:0:0:0:
320,192,151157,1,0,0:0:0:0:
320,192,151334,1,0,0:0:0:0:
64,192,151510,1,8,0:0:0:0:
192,192,151510,1,0,0:0:0:0:
320,192,151510,1,0,0:0:0:0:
320,192,151687,1,0,0:0:0:0:
320,192,151863,1,0,0:0:0:0:
320,192,152040,1,0,0:0:0:0:
192,192,152216,1,2,0:0:0:0:
320,192,152216,1,0,0:0:0:0:
320,192,152393,1,0,0:0:0:0:
320,192,152569,1,0,0:0:0:0:
320,192,152746,1,0,0:0:0:0:
64,192,152922,1,8,0:0:0:0:
192,192,152922,1,0,0:0:0:0:
320,192,152922,1,0,0:0:0:0:
64,192,153099,1,0,0:0:0:0:
64,192,153275,1,0,0:0:0:0:
64,192,153452,1,0,0:0:0:0:
64,192,153628,128,2,154157:0:0:0:0:
192,192,153628,128,4,154157:0:0:0:0:
448,192,153628,1,0,0:0:0:0:
448,192,153805,1,0,0:0:0:0:
448,192,153981,1,0,0:0:0:0:
448,192,154157,1,0,0:0:0:0:
64,192,154334,1,8,0:0:0:0:
192,192,154334,1,0,0:0:0:0:
448,192,154334,1,0,0:0:0:0:
448,192,154510,1,0,0:0:0:0:
448,192,154687,1,0,0:0:0:0:
448,192,154863,1,0,0:0:0:0:
192,192,155040,1,2,0:0:0:0:
448,192,155040,1,0,0:0:0:0:
448,192,155216,1,0,0:0:0:0:
448,192,155393,1,0,0:0:0:0:
448,192,155569,1,0,0:0:0:0:
64,192,155746,1,8,0:0:0:0:
192,192,155746,1,0,0:0:0:0:
448,192,155746,1,0,0:0:0:0:
448,192,155922,1,0,0:0:0:0:
448,192,156099,1,0,0:0:0:0:
448,192,156275,1,0,0:0:0:0:
64,192,156452,1,2,0:0:0:0:
192,192,156452,1,0,0:0:0:0:
64,192,156628,1,0,0:0:0:0:
64,192,156805,1,0,0:0:0:0:
64,192,156981,1,0,0:0:0:0:
64,192,157157,1,8,0:0:0:0:
192,192,157157,1,0,0:0:0:0:
320,192,157157,1,0,0:0:0:0:
64,192,157334,1,0,0:0:0:0:
64,192,157510,1,0,0:0:0:0:
64,192,157687,1,0,0:0:0:0:
64,192,157863,1,2,0:0:0:0:
448,192,157863,1,0,0:0:0:0:
64,192,158040,1,0,0:0:0:0:
64,192,158216,1,0,0:0:0:0:
64,192,158393,1,0,0:0:0:0:
64,192,158569,1,8,0:0:0:0:
320,192,158569,1,0,0:0:0:0:
448,192,158569,1,0,0:0:0:0:
320,192,158746,1,0,0:0:0:0:
320,192,158922,1,0,0:0:0:0:
320,192,159099,1,0,0:0:0:0:
192,192,159275,1,2,0:0:0:0:
320,192,159275,1,0,0:0:0:0:
192,192,159452,1,0,0:0:0:0:
192,192,159628,1,0,0:0:0:0:
192,192,159805,1,0,0:0:0:0:
192,192,159981,1,8,0:0:0:0:
320,192,159981,1,0,0:0:0:0:
448,192,159981,1,0,0:0:0:0:
192,192,160157,1,0,0:0:0:0:
192,192,160334,1,0,0:0:0:0:
192,192,160510,1,0,0:0:0:0:
192,192,160687,1,2,0:0:0:0:
320,192,160687,1,0,0:0:0:0:
192,192,160863,1,0,0:0:0:0:
192,192,161040,1,0,0:0:0:0:
192,192,161216,1,0,0:0:0:0:
192,192,161393,1,8,0:0:0:0:
320,192,161393,1,0,0:0:0:0:
448,192,161393,1,0,0:0:0:0:
192,192,161569,1,0,0:0:0:0:
192,192,161746,1,0,0:0:0:0:
192,192,161922,1,0,0:0:0:0:
320,192,162099,1,2,0:0:0:0:
448,192,162099,1,0,0:0:0:0:
448,192,162275,1,0,0:0:0:0:
448,192,162452,1,0,0:0:0:0:
448,192,162628,1,0,0:0:0:0:
64,192,162805,1,8,0:0:0:0:
192,192,162805,1,0,0:0:0:0:
448,192,162805,1,0,0:0:0:0:
448,192,162981,1,0,0:0:0:0:
448,192,163157,1,0,0:0:0:0:
448,192,163334,1,0,0:0:0:0:
192,192,163510,1,2,0:0:0:0:
448,192,163510,1,0,0:0:0:0:
448,192,163687,1,0,0:0:0:0:
448,192,163863,1,0,0:0:0:0:
448,192,164040,1,0,0:0:0:0:
64,192,164216,1,8,0:0:0:0:
192,192,164216,1,0,0:0:0:0:
448,192,164216,1,0,0:0:0:0:
64,192,164393,1,0,0:0:0:0:
64,192,164569,1,0,0:0:0:0:
64,192,164746,1,0,0:0:0:0:
64,192,164922,128,2,165452:0:0:0:0:
192,192,164922,1,4,0:0:0:0:
320,192,164922,1,0,0:0:0:50:X_F#5.wav
192,192,165099,1,0,0:0:0:50:X_C#6.wav
320,192,165099,1,0,0:0:0:0:
320,192,165275,1,0,0:0:0:50:X_A#5.wav
448,192,165275,1,0,0:0:0:30:X_C#5.wav
320,192,165452,1,0,0:0:0:0:
64,192,165628,1,8,0:0:0:0:
192,192,165628,1,0,0:0:0:0:
320,192,165628,1,0,0:0:0:0:
320,192,165805,1,0,0:0:0:0:
64,192,165981,1,0,0:0:0:50:X_G#5.wav
320,192,165981,1,0,0:0:0:0:
192,192,166157,1,0,0:0:0:50:X_F#5.wav
320,192,166157,1,0,0:0:0:0:
192,192,166334,1,2,0:0:0:0:
320,192,166334,1,0,0:0:0:50:X_F#5.wav
64,192,166510,1,0,0:0:0:50:X_C#6.wav
192,192,166510,1,0,0:0:0:0:
192,192,166687,1,0,0:0:0:50:X_A#5.wav
448,192,166687,1,0,0:0:0:30:X_C#5.wav
192,192,166863,1,0,0:0:0:0:
64,192,167040,1,8,0:0:0:0:
192,192,167040,1,0,0:0:0:0:
320,192,167040,1,0,0:0:0:0:
192,192,167216,1,0,0:0:0:0:
64,192,167393,1,0,0:0:0:50:X_G#5.wav
192,192,167393,1,0,0:0:0:0:
192,192,167569,1,0,0:0:0:50:X_F#5.wav
320,192,167569,1,0,0:0:0:0:
192,192,167746,1,2,0:0:0:0:
320,192,167746,1,0,0:0:0:50:X_F#5.wav
320,192,167922,1,0,0:0:0:50:X_C#6.wav
448,192,167922,1,0,0:0:0:0:
64,192,168099,1,0,0:0:0:50:X_A#5.wav
320,192,168099,1,0,0:0:0:30:X_C#5.wav
320,192,168275,1,0,0:0:0:0:
192,192,168452,1,8,0:0:0:0:
320,192,168452,1,0,0:0:0:0:
64,192,168452,1,0,0:0:0:0:
320,192,168628,1,0,0:0:0:0:
64,192,168805,1,0,0:0:0:50:X_G#5.wav
320,192,168805,1,0,0:0:0:0:
320,192,168981,1,0,0:0:0:50:X_F#5.wav
448,192,168981,1,0,0:0:0:0:
320,192,169157,1,2,0:0:0:0:
448,192,169157,1,0,0:0:0:50:X_F#5.wav
192,192,169334,1,0,0:0:0:50:X_C#6.wav
448,192,169334,1,0,0:0:0:0:
64,192,169510,1,0,0:0:0:50:X_A#5.wav
448,192,169510,1,0,0:0:0:30:X_C#5.wav
448,192,169687,1,0,0:0:0:0:
64,192,169863,1,8,0:0:0:0:
192,192,169863,1,0,0:0:0:0:
448,192,169863,1,0,0:0:0:0:
192,192,170040,1,0,0:0:0:0:
320,192,170216,1,0,0:0:0:50:X_G#5.wav
192,192,170216,1,0,0:0:0:0:
448,192,170393,1,0,0:0:0:50:X_F#5.wav
192,192,170393,1,0,0:0:0:0:
192,192,170569,1,2,0:0:0:0:
320,192,170569,1,0,0:0:0:50:X_C#6.wav
64,192,170746,1,0,0:0:0:50:X_F5.wav
320,192,170746,1,0,0:0:0:0:
320,192,170922,1,0,0:0:0:50:X_F#5.wav
448,192,170922,1,0,0:0:0:30:X_C#5.wav
320,192,171099,1,0,0:0:0:0:
64,192,171275,1,8,0:0:0:0:
192,192,171275,1,0,0:0:0:0:
320,192,171275,1,0,0:0:0:0:
320,192,171452,1,0,0:0:0:0:
320,192,171628,1,0,0:0:0:50:X_G#5.wav
448,192,171628,1,0,0:0:0:0:
64,192,171805,1,0,0:0:0:50:X_F#5.wav
320,192,171805,1,0,0:0:0:0:
64,192,171981,1,2,0:0:0:0:
320,192,171981,1,0,0:0:0:50:X_C#6.wav
192,192,172157,1,0,0:0:0:50:X_F5.wav
448,192,172157,1,0,0:0:0:0:
192,192,172334,1,0,0:0:0:50:X_F#5.wav
320,192,172334,1,0,0:0:0:30:X_C#5.wav
192,192,172510,1,0,0:0:0:0:
64,192,172687,1,8,0:0:0:0:
192,192,172687,1,0,0:0:0:0:
448,192,172687,1,0,0:0:0:0:
192,192,172863,1,0,0:0:0:0:
192,192,173040,1,0,0:0:0:50:X_G#5.wav
320,192,173040,1,0,0:0:0:0:
192,192,173216,1,0,0:0:0:50:X_F#5.wav
448,192,173216,1,0,0:0:0:0:
64,192,173393,1,2,0:0:0:0:
192,192,173393,1,0,0:0:0:50:X_C#6.wav
64,192,173569,1,0,0:0:0:50:X_F5.wav
192,192,173569,1,0,0:0:0:0:
64,192,173746,1,0,0:0:0:50:X_F#5.wav
320,192,173746,1,0,0:0:0:30:X_C#5.wav
64,192,173922,1,0,0:0:0:0:
64,192,174099,1,8,0:0:0:0:
320,192,174099,1,0,0:0:0:0:
448,192,174099,1,0,0:0:0:0:
64,192,174275,1,0,0:0:0:0:
64,192,174452,1,0,0:0:0:50:X_G#5.wav
192,192,174452,1,0,0:0:0:0:
64,192,174628,1,0,0:0:0:50:X_F#5.wav
448,192,174628,1,0,0:0:0:0:
64,192,174805,1,2,0:0:0:0:
448,192,174805,1,0,0:0:0:50:X_C#6.wav
448,192,174981,1,0,0:0:0:50:X_F5.wav
320,192,174981,1,0,0:0:0:0:
64,192,175157,1,0,0:0:0:50:X_F#5.wav
448,192,175157,1,0,0:0:0:30:X_C#5.wav
320,192,175334,1,0,0:0:0:50:X_F6.wav
448,192,175334,1,0,0:0:0:0:
64,192,175510,1,8,0:0:0:0:
192,192,175510,1,0,0:0:0:50:X_F#6.wav
320,192,175510,1,0,0:0:0:0:
192,192,175687,1,0,0:0:0:50:X_F6.wav
448,192,175687,1,0,0:0:0:0:
192,192,175863,1,0,0:0:0:50:X_C#6.wav
320,192,175863,1,0,0:0:0:0:
64,192,176040,1,0,0:0:0:50:X_G#5.wav
192,192,176040,1,0,0:0:0:0:
64,192,176216,128,2,176746:0:0:0:0:
320,192,176216,1,4,0:0:0:0:
448,192,176216,1,0,0:0:0:50:X_F#5.wav
192,192,176393,1,0,0:0:0:50:X_C#6.wav
448,192,176393,1,0,0:0:0:0:
320,192,176569,1,0,0:0:0:50:X_A#5.wav
448,192,176569,1,0,0:0:0:30:X_C#5.wav
448,192,176746,1,0,0:0:0:0:
64,192,176922,1,8,0:0:0:0:
192,192,176922,1,0,0:0:0:0:
448,192,176922,1,0,0:0:0:0:
448,192,177099,1,0,0:0:0:0:
320,192,177275,1,0,0:0:0:50:X_G#5.wav
448,192,177275,1,0,0:0:0:0:
192,192,177452,1,0,0:0:0:50:X_F#5.wav
448,192,177452,1,0,0:0:0:0:
192,192,177628,1,2,0:0:0:0:
448,192,177628,1,0,0:0:0:50:X_F#5.wav
320,192,177805,1,0,0:0:0:50:X_C#6.wav
192,192,177805,1,0,0:0:0:0:
448,192,177981,1,0,0:0:0:50:X_A#5.wav
192,192,177981,1,0,0:0:0:30:X_C#5.wav
192,192,178157,1,0,0:0:0:0:
64,192,178334,1,8,0:0:0:0:
192,192,178334,1,0,0:0:0:0:
448,192,178334,1,0,0:0:0:0:
192,192,178510,1,0,0:0:0:0:
192,192,178687,1,0,0:0:0:50:X_G#5.wav
448,192,178687,1,0,0:0:0:0:
192,192,178863,1,0,0:0:0:50:X_F#5.wav
320,192,178863,1,0,0:0:0:0:
192,192,179040,1,2,0:0:0:0:
320,192,179040,1,0,0:0:0:50:X_F#5.wav
64,192,179216,1,0,0:0:0:50:X_C#6.wav
320,192,179216,1,0,0:0:0:0:
320,192,179393,1,0,0:0:0:50:X_A#5.wav
448,192,179393,1,0,0:0:0:30:X_C#5.wav
320,192,179569,1,0,0:0:0:0:
64,192,179746,1,8,0:0:0:0:
192,192,179746,1,0,0:0:0:0:
320,192,179746,1,0,0:0:0:0:
320,192,179922,1,0,0:0:0:0:
64,192,180099,1,0,0:0:0:50:X_G#5.wav
320,192,180099,1,0,0:0:0:0:
320,192,180275,1,0,0:0:0:50:X_F#5.wav
448,192,180275,1,0,0:0:0:0:
320,192,180452,1,2,0:0:0:0:
448,192,180452,1,0,0:0:0:50:X_F#5.wav
192,192,180628,1,0,0:0:0:50:X_C#6.wav
448,192,180628,1,0,0:0:0:0:
64,192,180805,1,0,0:0:0:50:X_A#5.wav
448,192,180805,1,0,0:0:0:30:X_C#5.wav
448,192,180981,1,0,0:0:0:0:
64,192,181157,1,8,0:0:0:0:
192,192,181157,1,0,0:0:0:0:
448,192,181157,1,0,0:0:0:0:
192,192,181334,1,0,0:0:0:0:
192,192,181510,1,0,0:0:0:50:X_G#5.wav
320,192,181510,1,0,0:0:0:0:
192,192,181687,1,0,0:0:0:50:X_F#5.wav
448,192,181687,1,0,0:0:0:0:
64,192,181863,1,2,0:0:0:0:
320,192,181863,1,0,0:0:0:50:X_C#6.wav
64,192,182040,1,0,0:0:0:50:X_F5.wav
192,192,182040,1,0,0:0:0:0:
64,192,182216,1,0,0:0:0:50:X_F#5.wav
448,192,182216,1,0,0:0:0:30:X_C#5.wav
64,192,182393,1,0,0:0:0:0:
64,192,182569,1,8,0:0:0:0:
192,192,182569,1,0,0:0:0:0:
320,192,182569,1,0,0:0:0:0:
64,192,182746,1,0,0:0:0:0:
64,192,182922,1,0,0:0:0:50:X_G#5.wav
320,192,182922,1,0,0:0:0:0:
64,192,183099,1,0,0:0:0:50:X_F#5.wav
448,192,183099,1,0,0:0:0:0:
64,192,183275,1,2,0:0:0:0:
320,192,183275,1,0,0:0:0:50:X_C#6.wav
320,192,183452,1,0,0:0:0:50:X_F5.wav
192,192,183452,1,0,0:0:0:0:
64,192,183628,1,0,0:0:0:50:X_F#5.wav
320,192,183628,1,0,0:0:0:30:X_C#5.wav
320,192,183805,1,0,0:0:0:0:
64,192,183981,1,8,0:0:0:0:
192,192,183981,1,0,0:0:0:0:
320,192,183981,1,0,0:0:0:0:
320,192,184157,1,0,0:0:0:0:
64,192,184334,1,0,0:0:0:50:X_G#5.wav
320,192,184334,1,0,0:0:0:0:
320,192,184510,1,0,0:0:0:50:X_F#5.wav
192,192,184510,1,0,0:0:0:0:
64,192,184687,1,2,0:0:0:0:
448,192,184687,1,0,0:0:0:50:X_C#6.wav
192,192,184863,1,0,0:0:0:50:X_F5.wav
448,192,184863,1,0,0:0:0:0:
320,192,185040,1,0,0:0:0:50:X_F#5.wav
448,192,185040,1,0,0:0:0:30:X_C#5.wav
448,192,185216,1,0,0:0:0:0:
64,192,185393,1,8,0:0:0:0:
192,192,185393,1,0,0:0:0:0:
448,192,185393,1,0,0:0:0:0:
448,192,185569,1,0,0:0:0:0:
320,192,185746,1,0,0:0:0:50:X_G#5.wav
448,192,185746,1,0,0:0:0:0:
64,192,185922,1,0,0:0:0:50:X_F#5.wav
448,192,185922,1,0,0:0:0:0:
64,192,186099,1,2,0:0:0:0:
448,192,186099,1,0,0:0:0:50:X_C#6.wav
192,192,186275,1,0,0:0:0:50:X_F5.wav
448,192,186275,1,0,0:0:0:0:
320,192,186452,1,0,0:0:0:50:X_F#5.wav
192,192,186452,1,0,0:0:0:30:X_C#5.wav
192,192,186628,1,0,0:0:0:0:
64,192,186805,1,8,0:0:0:0:
192,192,186805,1,0,0:0:0:0:
448,192,186805,1,0,0:0:0:0:
192,192,186981,1,0,0:0:0:0:
192,192,187157,1,0,0:0:0:50:X_G#5.wav
320,192,187157,1,0,0:0:0:0:
192,192,187334,1,0,0:0:0:50:X_F#5.wav
448,192,187334,1,0,0:0:0:0:
64,192,187510,1,0,0:0:0:50:X_F#5.wav
448,192,187510,1,0,0:0:0:0:
64,192,187687,1,0,0:0:0:50:X_C#6.wav
320,192,187687,1,0,0:0:0:0:
64,192,187863,1,0,0:0:0:50:X_A#5.wav
192,192,187863,1,0,0:0:0:30:X_C#5.wav
64,192,188040,1,0,0:0:0:0:
64,192,188216,1,0,0:0:0:0:
64,192,188393,1,0,0:0:0:0:
64,192,188569,1,0,0:0:0:50:X_G#5.wav
320,192,188569,1,0,0:0:0:0:
64,192,188746,1,0,0:0:0:50:X_F#5.wav
448,192,188746,1,0,0:0:0:0:
64,192,188922,1,0,0:0:0:50:X_F#5.wav
448,192,188922,1,0,0:0:0:0:
64,192,189099,1,0,0:0:0:50:X_C#6.wav
192,192,189099,1,0,0:0:0:0:
64,192,189275,1,0,0:0:0:50:X_A#5.wav
320,192,189275,1,0,0:0:0:30:X_C#5.wav
64,192,189452,1,0,0:0:0:0:
64,192,189628,1,0,0:0:0:0:
64,192,189805,1,0,0:0:0:0:
64,192,189981,1,0,0:0:0:50:X_G#5.wav
320,192,189981,1,0,0:0:0:0:
64,192,190157,1,0,0:0:0:50:X_F#5.wav
448,192,190157,1,0,0:0:0:0:
64,192,190334,1,0,0:0:0:50:X_F#5.wav
448,192,190334,1,0,0:0:0:0:
64,192,190510,1,0,0:0:0:50:X_C#6.wav
192,192,190510,1,0,0:0:0:0:
64,192,190687,1,0,0:0:0:50:X_A#5.wav
320,192,190687,1,0,0:0:0:30:X_C#5.wav
64,192,190863,1,0,0:0:0:0:
64,192,191040,1,0,0:0:0:0:
64,192,191216,1,0,0:0:0:0:
64,192,191393,1,0,0:0:0:50:X_G#5.wav
320,192,191393,1,0,0:0:0:0:
64,192,191569,1,0,0:0:0:50:X_F#5.wav
448,192,191569,1,0,0:0:0:0:
64,192,191746,1,0,0:0:0:50:X_F#5.wav
448,192,191746,1,0,0:0:0:0:
64,192,191922,1,0,0:0:0:50:X_C#6.wav
192,192,191922,1,0,0:0:0:0:
64,192,192099,1,0,0:0:0:50:X_A#5.wav
320,192,192099,1,0,0:0:0:30:X_C#5.wav
64,192,192275,1,0,0:0:0:0:
448,192,192452,1,0,0:0:0:0:
448,192,192628,1,0,0:0:0:0:
64,192,192805,1,0,0:0:0:50:X_G#5.wav
448,192,192805,1,0,0:0:0:0:
192,192,192981,1,0,0:0:0:50:X_F#5.wav
448,192,192981,1,0,0:0:0:0:
64,192,193157,1,2,0:0:0:0:
320,192,193157,1,0,0:0:0:50:X_C#6.wav
64,192,193334,1,0,0:0:0:50:X_F5.wav
448,192,193334,1,0,0:0:0:0:
64,192,193510,1,2,0:0:0:0:
320,192,193510,1,0,0:0:0:50:X_F#5.wav
64,192,193687,1,0,0:0:0:0:
192,192,193863,1,2,0:0:0:0:
320,192,193863,1,0,0:0:0:0:
320,192,194040,1,0,0:0:0:0:
64,192,194216,1,2,0:0:0:0:
320,192,194216,1,0,0:0:0:50:X_G#5.wav
320,192,194393,1,0,0:0:0:50:X_F#5.wav
448,192,194393,1,0,0:0:0:0:
64,192,194569,1,2,0:0:0:0:
192,192,194569,1,0,0:0:0:50:X_C#6.wav
192,192,194746,1,0,0:0:0:50:X_F5.wav
320,192,194746,1,0,0:0:0:0:
192,192,194922,1,2,0:0:0:0:
448,192,194922,1,0,0:0:0:50:X_F#5.wav
192,192,195099,1,0,0:0:0:0:
320,192,195275,1,2,0:0:0:0:
448,192,195275,1,0,0:0:0:0:
448,192,195452,1,0,0:0:0:0:
64,192,195628,1,2,0:0:0:0:
448,192,195628,1,0,0:0:0:50:X_G#5.wav
320,192,195805,1,0,0:0:0:50:X_F#5.wav
448,192,195805,1,0,0:0:0:0:
64,192,195981,1,2,0:0:0:0:
192,192,195981,1,0,0:0:0:50:X_C#6.wav
64,192,196157,1,0,0:0:0:50:X_F5.wav
448,192,196157,1,0,0:0:0:0:
64,192,196334,1,2,0:0:0:0:
320,192,196334,1,0,0:0:0:50:X_F#5.wav
64,192,196510,1,0,0:0:0:0:
192,192,196687,1,2,0:0:0:0:
320,192,196687,1,0,0:0:0:0:
192,192,196863,1,0,0:0:0:0:
192,192,197040,1,2,0:0:0:0:
448,192,197040,1,0,0:0:0:50:X_G#5.wav
192,192,197216,1,0,0:0:0:50:X_F#5.wav
320,192,197216,1,0,0:0:0:0:
64,192,197393,1,2,0:0:0:0:
448,192,197393,1,0,0:0:0:50:X_C#6.wav
192,192,197569,1,0,0:0:0:50:X_F5.wav
448,192,197569,1,0,0:0:0:0:
320,192,197746,1,2,0:0:0:0:
448,192,197746,1,0,0:0:0:50:X_F#5.wav
448,192,197922,1,0,0:0:0:0:
64,192,198099,1,2,0:0:0:0:
320,192,198099,1,0,0:0:0:0:
192,192,198143,1,2,0:0:0:0:
448,192,198187,1,2,0:0:0:0:
320,192,198231,1,2,0:0:0:0:
192,192,198275,1,0,0:0:0:0:
320,192,198452,1,2,0:0:0:0:
448,192,198452,1,0,0:0:0:50:X_G#5.wav
192,192,198496,1,2,0:0:0:0:
64,192,198628,1,2,0:0:0:0:
320,192,198628,1,0,0:0:0:50:X_F#5.wav
448,192,198672,1,2,0:0:0:0:
64,192,198805,1,2,0:0:0:0:
192,192,198805,1,0,0:0:0:50:X_F#5.wav
192,192,198981,1,2,0:0:0:0:
448,192,198981,1,0,0:0:0:50:X_C#6.wav
64,192,199157,1,2,0:0:0:0:
320,192,199157,1,0,0:0:0:50:X_A#5.wav
192,192,199334,1,2,0:0:0:0:
320,192,199334,1,0,0:0:0:0:
192,192,199510,1,2,0:0:0:0:
448,192,199510,1,0,0:0:0:0:
320,192,199687,1,2,0:0:0:0:
448,192,199687,1,0,0:0:0:0:
64,192,199863,1,2,0:0:0:0:
192,192,199863,1,0,0:0:0:50:X_G#5.wav
192,192,200040,1,2,0:0:0:0:
448,192,200040,1,0,0:0:0:50:X_F#5.wav
64,192,200216,1,2,0:0:0:0:
320,192,200216,1,0,0:0:0:50:X_F#5.wav
192,192,200393,1,2,0:0:0:0:
320,192,200393,1,0,0:0:0:50:X_C#6.wav
64,192,200569,1,2,0:0:0:0:
448,192,200569,1,0,0:0:0:50:X_A#5.wav
64,192,200746,1,2,0:0:0:0:
192,192,200746,1,0,0:0:0:0:
192,192,200922,1,2,0:0:0:0:
448,192,200922,1,0,0:0:0:0:
320,192,201099,1,2,0:0:0:0:
448,192,201099,1,0,0:0:0:0:
64,192,201275,1,2,0:0:0:0:
320,192,201275,1,0,0:0:0:50:X_G#5.wav
64,192,201452,1,2,0:0:0:0:
192,192,201452,1,0,0:0:0:50:X_F#5.wav
320,192,201628,1,2,0:0:0:0:
448,192,201628,1,0,0:0:0:50:X_F#5.wav
192,192,201805,1,2,0:0:0:0:
320,192,201805,1,0,0:0:0:50:X_C#6.wav
64,192,201981,1,2,0:0:0:0:
192,192,201981,1,0,0:0:0:50:X_A#5.wav
64,192,202157,1,2,0:0:0:0:
448,192,202157,1,0,0:0:0:0:
192,192,202334,1,2,0:0:0:0:
320,192,202334,1,0,0:0:0:0:
192,192,202510,1,2,0:0:0:0:
448,192,202510,1,0,0:0:0:0:
320,192,202687,1,2,0:0:0:0:
448,192,202687,1,0,0:0:0:50:X_G#5.wav
64,192,202863,1,2,0:0:0:0:
320,192,202863,1,0,0:0:0:50:X_F#5.wav
64,192,203040,1,2,0:0:0:0:
192,192,203040,1,0,0:0:0:50:X_F#5.wav
192,192,203216,1,2,0:0:0:0:
448,192,203216,1,0,0:0:0:50:X_C#6.wav
320,192,203393,1,2,0:0:0:0:
448,192,203393,1,0,0:0:0:50:X_A#5.wav
64,192,203569,1,2,0:0:0:0:
320,192,203569,1,0,0:0:0:0:
64,192,203746,1,2,0:0:0:0:
192,192,203746,1,0,0:0:0:0:
320,192,203922,1,2,0:0:0:0:
448,192,203922,1,0,0:0:0:0:
64,192,204099,1,2,0:0:0:0:
320,192,204099,1,0,0:0:0:50:X_G#5.wav
64,192,204275,1,2,0:0:0:0:
192,192,204275,1,0,0:0:0:50:X_F#5.wav
320,192,204452,1,2,0:0:0:0:
448,192,204452,1,0,0:0:0:50:X_C#6.wav
64,192,204540,1,2,0:0:0:0:
192,192,204540,1,0,0:0:0:0:
320,192,204628,1,2,0:0:0:0:
448,192,204628,1,0,0:0:0:50:X_F5.wav
64,192,204716,1,2,0:0:0:0:
192,192,204716,1,0,0:0:0:0:
320,192,204805,1,2,0:0:0:0:
448,192,204805,1,0,0:0:0:50:X_F#5.wav
64,192,204893,1,2,0:0:0:0:
192,192,204893,1,0,0:0:0:0:
320,192,204981,1,2,0:0:0:0:
448,192,204981,1,0,0:0:0:0:
64,192,205069,1,2,0:0:0:0:
192,192,205069,1,0,0:0:0:0:
320,192,205157,1,2,0:0:0:0:
448,192,205157,1,0,0:0:0:0:
192,192,205246,1,2,0:0:0:0:
64,192,205334,1,2,0:0:0:0:
320,192,205422,1,2,0:0:0:0:
192,192,205510,1,2,0:0:0:0:
448,192,205599,1,2,0:0:0:0:
64,192,205687,1,2,0:0:0:0:
192,192,205775,1,2,0:0:0:0:
320,192,205863,1,2,0:0:0:0:
448,192,205952,1,2,0:0:0:0:
192,192,206040,1,2,0:0:0:0:
64,192,206128,1,2,0:0:0:0:
320,192,206216,1,2,0:0:0:0:
192,192,206305,1,2,0:0:0:0:
448,192,206393,1,2,0:0:0:0:
320,192,206481,1,2,0:0:0:0:
64,192,206569,128,2,208687:0:1:0:0:
192,192,207628,128,0,208687:0:0:0:50:X_F#5.wav
320,192,208687,128,0,208952:0:0:0:0:
320,192,209040,1,0,0:0:0:0:
192,192,209275,1,2,0:1:0:0:
320,192,209334,1,2,0:1:0:0:
64,192,209393,1,2,0:1:0:0:
448,192,209393,1,0,0:0:0:0:
192,192,209746,1,8,0:3:0:0:
448,192,209746,1,0,0:0:0:0:
64,192,209922,1,2,0:3:0:0:
320,192,209922,1,0,0:0:0:0:
192,192,210099,1,4,0:0:0:0:
320,192,210099,128,2,210363:0:0:0:0:
448,192,210099,128,0,210363:0:0:0:0:
320,192,210452,128,0,210540:0:0:0:0:
448,192,210452,128,0,210540:0:0:0:0:
320,192,210628,128,0,210716:0:0:0:0:
448,192,210628,128,0,210716:0:0:0:0:
64,192,210805,1,8,0:0:0:0:
320,192,210805,1,2,0:0:0:0:
448,192,210805,1,0,0:0:0:0:
192,192,210893,1,0,0:0:0:0:
320,192,210981,1,0,0:0:0:0:
64,192,211069,1,0,0:0:0:0:
192,192,211157,1,0,0:0:0:50:X_G#5.wav
448,192,211157,1,0,0:0:0:0:
320,192,211246,1,0,0:0:0:0:
64,192,211334,1,0,0:0:0:50:X_F#5.wav
192,192,211334,1,0,0:0:0:0:
448,192,211422,1,0,0:0:0:0:
64,192,211510,1,0,0:0:0:50:X_F#5.wav
320,192,211510,1,0,0:0:0:0:
192,192,211599,1,0,0:0:0:0:
320,192,211687,1,0,0:0:0:50:X_C#6.wav
448,192,211687,1,0,0:0:0:0:
64,192,211775,1,0,0:0:0:0:
192,192,211863,1,2,0:0:0:0:
320,192,211863,1,0,0:0:0:50:X_A#5.wav
448,192,211952,1,0,0:0:0:0:
64,192,212040,1,0,0:0:0:0:
320,192,212128,1,0,0:0:0:0:
64,192,212216,1,8,0:0:0:0:
192,192,212216,1,2,0:0:0:0:
448,192,212216,1,0,0:0:0:0:
320,192,212305,1,0,0:0:0:0:
192,192,212393,1,0,0:0:0:0:
448,192,212481,1,0,0:0:0:0:
64,192,212569,1,0,0:0:0:50:X_G#5.wav
320,192,212569,1,0,0:0:0:0:
192,192,212657,1,0,0:0:0:0:
64,192,212746,1,0,0:0:0:50:X_F#5.wav
448,192,212746,1,0,0:0:0:0:
320,192,212834,1,0,0:0:0:0:
64,192,212922,1,2,0:0:0:0:
192,192,212922,1,0,0:0:0:50:X_F#5.wav
448,192,213010,1,0,0:0:0:0:
192,192,213099,1,0,0:0:0:50:X_C#6.wav
320,192,213099,1,0,0:0:0:0:
64,192,213187,1,0,0:0:0:0:
320,192,213275,1,0,0:0:0:50:X_A#5.wav
448,192,213275,1,0,0:0:0:30:X_C#5.wav
192,192,213363,1,0,0:0:0:0:
320,192,213452,1,0,0:0:0:0:
64,192,213540,1,0,0:0:0:0:
192,192,213628,1,2,0:0:0:0:
320,192,213628,1,8,0:0:0:0:
448,192,213628,1,0,0:0:0:0:
64,192,213716,1,0,0:0:0:0:
448,192,213805,1,0,0:0:0:0:
320,192,213893,1,0,0:0:0:0:
64,192,213981,1,2,0:0:0:0:
192,192,213981,1,0,0:0:0:50:X_G#5.wav
448,192,214069,1,0,0:0:0:0:
64,192,214157,1,0,0:0:0:50:X_F#5.wav
320,192,214157,1,0,0:0:0:0:
192,192,214246,1,0,0:0:0:0:
320,192,214334,1,0,0:0:0:50:X_F#5.wav
448,192,214334,1,0,0:0:0:0:
192,192,214422,1,0,0:0:0:0:
64,192,214510,1,0,0:0:0:50:X_C#6.wav
448,192,214510,1,0,0:0:0:0:
320,192,214599,1,0,0:0:0:0:
64,192,214687,1,2,0:0:0:0:
192,192,214687,1,0,0:0:0:50:X_A#5.wav
448,192,214775,1,0,0:0:0:0:
192,192,214863,1,0,0:0:0:0:
320,192,214952,1,0,0:0:0:0:
64,192,215040,1,8,0:0:0:0:
192,192,215040,1,2,0:0:0:0:
448,192,215040,1,0,0:0:0:0:
320,192,215216,1,8,0:3:0:0:
448,192,215216,1,0,0:0:0:0:
192,192,215393,1,2,0:3:0:0:
448,192,215393,1,0,0:0:0:0:
64,192,215569,1,2,0:3:0:0:
448,192,215569,1,0,0:0:0:0:
192,192,215746,128,2,216010:0:0:0:0:
320,192,215746,128,0,216010:0:0:0:0:
192,192,216099,128,0,216363:0:0:0:0:
320,192,216099,128,0,216363:0:0:0:0:
192,192,216452,1,8,0:0:0:0:
320,192,216452,1,2,0:0:0:0:
448,192,216452,1,0,0:0:0:0:
64,192,216540,1,0,0:0:0:0:
448,192,216628,1,0,0:0:0:0:
320,192,216716,1,0,0:0:0:0:
192,192,216805,1,0,0:0:0:50:X_G#5.wav
448,192,216805,1,0,0:0:0:0:
64,192,216893,1,0,0:0:0:0:
192,192,216981,1,0,0:0:0:50:X_F#5.wav
320,192,216981,1,0,0:0:0:0:
448,192,217069,1,0,0:0:0:0:
64,192,217157,1,0,0:0:0:50:X_F#5.wav
320,192,217157,1,0,0:0:0:0:
192,192,217246,1,0,0:0:0:0:
320,192,217334,1,0,0:0:0:50:X_C#6.wav
448,192,217334,1,0,0:0:0:0:
192,192,217422,1,0,0:0:0:0:
64,192,217510,1,2,0:0:0:0:
448,192,217510,1,0,0:0:0:50:X_A#5.wav
320,192,217599,1,0,0:0:0:0:
192,192,217687,1,0,0:0:0:0:
320,192,217775,1,0,0:0:0:0:
64,192,217863,1,2,0:0:0:0:
192,192,217863,1,8,0:0:0:0:
448,192,217863,1,0,0:0:0:0:
320,192,217952,1,0,0:0:0:0:
64,192,218040,1,0,0:0:0:0:
192,192,218128,1,0,0:0:0:0:
320,192,218216,1,0,0:0:0:50:X_G#5.wav
448,192,218216,1,0,0:0:0:0:
192,192,218305,1,0,0:0:0:0:
64,192,218393,1,0,0:0:0:50:X_F#5.wav
448,192,218393,1,0,0:0:0:0:
320,192,218481,1,0,0:0:0:0:
192,192,218569,1,2,0:0:0:0:
448,192,218569,1,0,0:0:0:50:X_C#6.wav
64,192,218657,1,0,0:0:0:0:
192,192,218746,1,0,0:0:0:50:X_F5.wav
320,192,218746,1,0,0:0:0:0:
448,192,218834,1,0,0:0:0:0:
64,192,218922,1,0,0:0:0:50:X_F#5.wav
320,192,218922,1,0,0:0:0:30:X_C#5.wav
192,192,219010,1,0,0:0:0:0:
448,192,219099,1,0,0:0:0:0:
64,192,219187,1,0,0:0:0:0:
192,192,219275,1,2,0:0:0:0:
320,192,219275,1,8,0:0:0:0:
448,192,219275,1,0,0:0:0:0:
64,192,219363,1,0,0:0:0:0:
192,192,219452,1,0,0:0:0:0:
448,192,219540,1,0,0:0:0:0:
64,192,219628,1,2,0:0:0:0:
320,192,219628,1,0,0:0:0:50:X_G#5.wav
192,192,219716,1,0,0:0:0:0:
64,192,219805,1,0,0:0:0:50:X_F#5.wav
448,192,219805,1,0,0:0:0:0:
320,192,219893,1,0,0:0:0:0:
192,192,219981,1,0,0:0:0:50:X_C#6.wav
448,192,219981,1,0,0:0:0:0:
64,192,220069,1,0,0:0:0:0:
320,192,220157,1,0,0:0:0:50:X_F5.wav
448,192,220157,1,0,0:0:0:0:
192,192,220246,1,0,0:0:0:0:
64,192,220334,1,2,0:0:0:0:
320,192,220334,1,0,0:0:0:30:X_C#5.wav
192,192,220510,1,0,0:0:0:0:
320,192,220569,1,0,0:0:0:0:
192,192,220628,1,0,0:0:0:0:
64,192,220687,1,8,0:0:0:0:
320,192,220687,1,0,0:0:0:0:
448,192,220687,1,0,0:0:0:0:
192,192,220863,1,0,0:0:0:0:
320,192,221040,1,2,0:1:0:0:
448,192,221040,1,0,0:0:0:0:
64,192,221216,128,0,221393:0:0:0:0:
192,192,221393,128,4,221657:0:0:0:0:
448,192,221393,128,2,221657:0:0:0:0:
192,192,221746,128,0,221834:0:0:0:0:
448,192,221746,128,0,221834:0:0:0:0:
192,192,221922,128,0,222010:0:0:0:0:
448,192,221922,128,0,222010:0:0:0:0:
64,192,222099,1,2,0:0:0:0:
192,192,222099,1,8,0:0:0:0:
448,192,222099,1,0,0:0:0:0:
320,192,222187,1,4,0:3:0:0:
64,192,222275,1,4,0:3:0:0:
320,192,222363,1,4,0:3:0:0:
64,192,222452,1,4,0:3:0:0:
192,192,222452,1,0,0:0:0:50:X_G#5.wav
448,192,222540,1,4,0:3:0:0:
64,192,222628,1,4,0:3:0:0:
320,192,222628,1,0,0:0:0:50:X_F#5.wav
448,192,222716,1,4,0:3:0:0:
192,192,222805,1,4,0:3:0:0:
320,192,222805,1,0,0:0:0:50:X_F#5.wav
448,192,222893,1,4,0:3:0:0:
64,192,222981,1,4,0:3:0:0:
320,192,222981,1,0,0:0:0:50:X_C#6.wav
192,192,223069,1,4,0:3:0:0:
64,192,223157,1,2,0:0:0:0:
448,192,223157,1,0,0:0:0:50:X_A#5.wav
192,192,223246,1,4,0:3:0:0:
64,192,223334,1,4,0:3:0:0:
448,192,223422,1,4,0:3:0:0:
64,192,223510,1,8,0:0:0:0:
192,192,223510,1,2,0:0:0:0:
320,192,223510,1,0,0:0:0:0:
192,192,223863,1,0,0:0:0:50:X_G#5.wav
320,192,223863,1,0,0:0:0:0:
448,192,223952,1,0,0:0:0:0:
64,192,224040,1,0,0:0:0:50:X_F#5.wav
192,192,224040,1,0,0:0:0:0:
320,192,224128,1,0,0:0:0:0:
192,192,224216,1,2,0:0:0:0:
448,192,224216,1,0,0:0:0:50:X_F#5.wav
64,192,224305,1,4,0:3:0:0:
320,192,224393,1,4,0:3:0:0:
448,192,224393,1,0,0:0:0:50:X_C#6.wav
64,192,224481,1,4,0:3:0:0:
192,192,224569,1,4,0:3:0:0:
320,192,224569,1,0,0:0:0:50:X_A#5.wav
448,192,224657,1,4,0:3:0:0:
192,192,224746,1,4,0:3:0:0:
448,192,224834,1,4,0:3:0:0:
64,192,224922,1,2,0:0:0:0:
192,192,224922,1,8,0:0:0:0:
320,192,224922,1,0,0:0:0:0:
448,192,225010,1,4,0:3:0:0:
64,192,225099,1,4,0:3:0:0:
320,192,225187,1,4,0:3:0:0:
64,192,225275,1,2,0:0:0:0:
192,192,225275,1,0,0:0:0:50:X_G#5.wav
320,192,225363,1,4,0:3:0:0:
64,192,225452,1,4,0:3:0:0:
448,192,225452,1,0,0:0:0:50:X_F#5.wav
192,192,225540,1,4,0:3:0:0:
320,192,225628,1,4,0:3:0:0:
448,192,225628,1,0,0:0:0:50:X_F#5.wav
192,192,225716,1,4,0:3:0:0:
64,192,225805,1,4,0:3:0:0:
448,192,225805,1,0,0:0:0:50:X_C#6.wav
192,192,225893,1,4,0:3:0:0:
320,192,225981,1,2,0:0:0:0:
448,192,225981,1,0,0:0:0:50:X_A#5.wav
192,192,226069,1,4,0:3:0:0:
320,192,226157,1,4,0:3:0:0:
192,192,226246,1,4,0:3:0:0:
64,192,226334,128,8,226599:0:0:0:0:
320,192,226334,1,2,0:0:0:0:
448,192,226334,128,0,226599:0:0:0:0:
64,192,226687,128,0,226952:0:0:0:0:
448,192,226687,128,0,226952:0:0:0:0:
64,192,227040,128,2,227305:0:0:0:0:
448,192,227040,128,0,227305:0:0:0:0:
64,192,227393,128,0,227657:0:0:0:0:
448,192,227393,128,0,227657:0:0:0:0:
64,192,227746,1,8,0:0:0:0:
320,192,227746,1,2,0:0:0:0:
448,192,227746,1,0,0:0:0:0:
192,192,227834,1,4,0:3:0:0:
320,192,227922,1,4,0:3:0:0:
192,192,228010,1,4,0:3:0:0:
64,192,228099,1,4,0:3:0:0:
320,192,228099,1,0,0:0:0:50:X_G#5.wav
448,192,228187,1,4,0:3:0:0:
192,192,228275,1,4,0:3:0:0:
320,192,228275,1,0,0:0:0:50:X_F#5.wav
448,192,228363,1,4,0:3:0:0:
64,192,228452,1,4,0:3:0:0:
320,192,228452,1,0,0:0:0:50:X_F#5.wav
192,192,228540,1,4,0:3:0:0:
64,192,228628,1,4,0:3:0:0:
448,192,228628,1,0,0:0:0:50:X_C#6.wav
192,192,228716,1,4,0:3:0:0:
64,192,228805,1,2,0:0:0:0:
320,192,228805,1,0,0:0:0:50:X_A#5.wav
448,192,228893,1,4,0:3:0:0:
64,192,228981,1,4,0:3:0:0:
448,192,229069,1,4,0:3:0:0:
64,192,229157,1,2,0:0:0:0:
192,192,229157,1,8,0:0:0:0:
320,192,229157,1,0,0:0:0:0:
448,192,229246,1,4,0:3:0:0:
192,192,229334,1,4,0:3:0:0:
448,192,229422,1,4,0:3:0:0:
192,192,229510,1,4,0:3:0:0:
320,192,229510,1,0,0:0:0:50:X_G#5.wav
64,192,229599,1,4,0:3:0:0:
320,192,229687,1,4,0:3:0:0:
448,192,229687,1,0,0:0:0:50:X_F#5.wav
64,192,229775,1,4,0:3:0:0:
192,192,229863,1,2,0:0:0:0:
320,192,229863,1,0,0:0:0:50:X_F#5.wav
64,192,230040,1,0,0:0:0:50:X_C#6.wav
448,192,230040,1,0,0:0:0:0:
192,192,230216,1,0,0:0:0:50:X_A#5.wav
448,192,230216,1,0,0:0:0:30:X_C#5.wav
64,192,230922,1,0,0:0:0:50:X_G#5.wav
320,192,230922,1,0,0:0:0:0:
192,192,231099,1,0,0:0:0:50:X_F#5.wav
320,192,231099,1,0,0:0:0:0:
192,192,231275,1,0,0:0:0:50:X_F#5.wav
320,192,231275,1,0,0:0:0:0:
64,192,231452,1,0,0:0:0:50:X_C#6.wav
448,192,231452,1,0,0:0:0:0:
192,192,231628,1,0,0:0:0:50:X_A#5.wav
448,192,231628,1,0,0:0:0:30:X_C#5.wav
64,192,231981,1,8,0:0:0:0:
192,192,231981,1,2,0:0:0:0:
448,192,231981,1,0,0:0:0:0:
64,192,232157,1,8,0:3:0:0:
320,192,232157,1,0,0:0:0:0:
64,192,232334,1,2,0:3:0:0:
192,192,232334,1,0,0:0:0:50:X_G#5.wav
64,192,232510,1,2,0:3:0:0:
448,192,232510,1,0,0:0:0:50:X_F#5.wav
192,192,232687,1,2,0:0:0:0:
320,192,232687,1,4,0:0:0:0:
448,192,232687,1,0,0:0:0:50:X_F#5.wav
64,192,232775,1,0,0:0:0:0:
320,192,232863,1,0,0:0:0:50:X_C#6.wav
448,192,232863,1,0,0:0:0:0:
192,192,232952,1,0,0:0:0:0:
64,192,233040,1,0,0:0:0:60:P_C#6.wav
448,192,233040,1,0,0:0:0:50:X_A#5.wav
320,192,233128,1,0,0:0:0:0:
64,192,233216,1,0,0:0:0:0:
448,192,233216,1,0,0:0:0:0:
192,192,233305,1,0,0:0:0:0:
64,192,233393,1,10,0:0:0:0:
320,192,233393,1,0,0:0:0:60:P_A#6.wav
448,192,233393,1,0,0:0:0:60:P_G#6.wav
192,192,233481,1,0,0:0:0:0:
448,192,233569,1,0,0:0:0:0:
320,192,233657,1,0,0:0:0:0:
64,192,233746,1,0,0:0:0:60:P_A#6.wav
192,192,233746,1,0,0:0:0:50:X_G#5.wav
448,192,233834,1,0,0:0:0:0:
64,192,233922,1,0,0:0:0:50:X_F#5.wav
320,192,233922,1,0,0:0:0:0:
448,192,234010,1,0,0:0:0:0:
64,192,234099,1,2,0:0:0:0:
192,192,234099,1,0,0:0:0:60:P_C#7.wav
320,192,234187,1,0,0:0:0:0:
192,192,234275,1,0,0:0:0:50:X_C#6.wav
448,192,234275,1,0,0:0:0:0:
320,192,234363,1,0,0:0:0:0:
64,192,234452,1,0,0:0:0:60:P_F#7.wav
192,192,234452,1,0,0:0:0:50:X_A#5.wav
448,192,234540,1,0,0:0:0:0:
320,192,234628,1,0,0:0:0:0:
64,192,234716,1,0,0:0:0:0:
192,192,234805,1,8,0:0:0:0:
320,192,234805,1,2,0:0:0:0:
448,192,234805,1,0,0:0:0:60:P_F7.wav
64,192,234893,1,0,0:0:0:0:
448,192,234981,1,0,0:0:0:0:
192,192,235069,1,0,0:0:0:0:
320,192,235157,1,0,0:0:0:50:X_G#5.wav
448,192,235157,1,0,0:0:0:0:
64,192,235246,1,0,0:0:0:0:
192,192,235334,1,0,0:0:0:60:P_A#7.wav
448,192,235334,1,0,0:0:0:50:X_F#5.wav
64,192,235422,1,0,0:0:0:0:
320,192,235510,1,2,0:0:0:0:
448,192,235510,1,0,0:0:0:50:X_F#5.wav
192,192,235599,1,0,0:0:0:0:
64,192,235687,1,0,0:0:0:50:X_C#6.wav
320,192,235687,1,0,0:0:0:0:
192,192,235775,1,0,0:0:0:0:
320,192,235863,1,0,0:0:0:50:X_A#5.wav
448,192,235863,1,0,0:0:0:30:X_C#5.wav
64,192,235952,1,0,0:0:0:0:
448,192,236040,1,0,0:0:0:0:
320,192,236128,1,0,0:0:0:0:
64,192,236216,1,2,0:0:0:0:
192,192,236216,1,8,0:0:0:0:
448,192,236216,1,0,0:0:0:0:
320,192,236305,1,0,0:0:0:0:
64,192,236393,1,0,0:0:0:0:
192,192,236481,1,0,0:0:0:0:
64,192,236569,1,0,0:0:0:50:X_G#5.wav
448,192,236569,1,0,0:0:0:0:
320,192,236657,1,0,0:0:0:0:
192,192,236746,1,0,0:0:0:50:X_F#5.wav
448,192,236746,1,0,0:0:0:0:
320,192,236834,1,0,0:0:0:0:
64,192,236922,1,2,0:0:0:0:
448,192,236922,1,0,0:0:0:50:X_F#5.wav
192,192,237010,1,0,0:0:0:0:
64,192,237099,1,0,0:0:0:50:X_C#6.wav
320,192,237099,1,0,0:0:0:0:
192,192,237187,1,0,0:0:0:0:
64,192,237275,1,0,0:0:0:50:X_A#5.wav
448,192,237275,1,0,0:0:0:30:X_C#5.wav
320,192,237363,1,0,0:0:0:0:
192,192,237452,1,0,0:0:0:0:
320,192,237540,1,0,0:0:0:0:
64,192,237628,1,2,0:0:0:0:
192,192,237628,1,8,0:0:0:0:
448,192,237628,1,0,0:0:0:0:
320,192,237716,1,0,0:0:0:0:
64,192,237805,1,0,0:0:0:60:P_F#7.wav
192,192,237805,1,0,0:0:0:0:
448,192,237893,1,0,0:0:0:0:
64,192,237981,1,0,0:0:0:60:P_F7.wav
320,192,237981,1,0,0:0:0:50:X_G#5.wav
192,192,238069,1,0,0:0:0:0:
320,192,238157,1,0,0:0:0:60:P_C#7.wav
448,192,238157,1,0,0:0:0:50:X_F#5.wav
192,192,238246,1,0,0:0:0:0:
64,192,238334,1,2,0:0:0:0:
320,192,238334,1,0,0:0:0:60:P_F#6.wav
448,192,238422,1,0,0:0:0:0:
64,192,238510,1,0,0:0:0:60:P_G#6.wav
192,192,238510,1,0,0:0:0:50:X_C#6.wav
448,192,238599,1,0,0:0:0:0:
64,192,238687,1,0,0:0:0:60:P_A#6.wav
320,192,238687,1,0,0:0:0:50:X_A#5.wav
192,192,238775,1,0,0:0:0:0:
320,192,238863,1,0,0:0:0:0:
192,192,238952,1,0,0:0:0:0:
64,192,239040,1,8,0:0:0:0:
320,192,239040,1,2,0:0:0:0:
448,192,239040,1,0,0:0:0:60:P_F7.wav
192,192,239128,1,0,0:0:0:0:
64,192,239216,1,0,0:0:0:0:
320,192,239305,1,0,0:0:0:0:
192,192,239393,1,0,0:0:0:60:P_F#6.wav
448,192,239393,1,0,0:0:0:50:X_G#5.wav
64,192,239481,1,0,0:0:0:0:
320,192,239569,1,0,0:0:0:60:P_G#6.wav
448,192,239569,1,0,0:0:0:50:X_F#5.wav
64,192,239657,1,0,0:0:0:0:
192,192,239746,1,2,0:0:0:0:
448,192,239746,1,0,0:0:0:60:P_A#6.wav
320,192,239834,1,0,0:0:0:0:
64,192,239922,1,0,0:0:0:50:X_C#6.wav
448,192,239922,1,0,0:0:0:0:
192,192,240010,1,0,0:0:0:0:
64,192,240099,1,0,0:0:0:60:P_F7.wav
320,192,240099,1,0,0:0:0:50:X_A#5.wav
448,192,240187,1,0,0:0:0:0:
192,192,240275,1,0,0:0:0:0:
320,192,240363,1,0,0:0:0:0:
64,192,240452,1,8,0:0:0:0:
192,192,240452,1,2,0:0:0:0:
448,192,240452,1,0,0:0:0:60:P_F#6.wav
320,192,240540,1,0,0:0:0:0:
64,192,240628,1,0,0:0:0:0:
448,192,240716,1,0,0:0:0:0:
64,192,240805,1,0,0:0:0:50:X_G#5.wav
192,192,240805,1,0,0:0:0:0:
320,192,240893,1,0,0:0:0:0:
64,192,240981,1,0,0:0:0:60:P_F7.wav
448,192,240981,1,0,0:0:0:50:X_F#5.wav
320,192,241069,1,0,0:0:0:0:
64,192,241157,1,2,0:0:0:0:
192,192,241157,1,0,0:0:0:50:X_F#5.wav
448,192,241246,1,0,0:0:0:0:
192,192,241334,1,0,0:0:0:50:X_C#6.wav
320,192,241334,1,0,0:0:0:0:
448,192,241422,1,0,0:0:0:0:
64,192,241510,1,0,0:0:0:50:X_A#5.wav
192,192,241510,1,0,0:0:0:30:X_C#5.wav
320,192,241599,1,0,0:0:0:0:
64,192,241687,1,0,0:0:0:0:
320,192,241775,1,0,0:0:0:0:
64,192,241863,1,8,0:0:0:0:
192,192,241863,1,2,0:0:0:0:
448,192,241863,1,0,0:0:0:0:
320,192,241952,1,0,0:0:0:0:
448,192,242040,1,0,0:0:0:0:
192,192,242128,1,0,0:0:0:0:
64,192,242216,1,0,0:0:0:50:X_G#5.wav
320,192,242216,1,0,0:0:0:0:
448,192,242305,1,0,0:0:0:0:
64,192,242393,1,0,0:0:0:50:X_F#5.wav
192,192,242393,1,0,0:0:0:0:
320,192,242481,1,0,0:0:0:0:
192,192,242569,1,2,0:0:0:0:
448,192,242569,1,0,0:0:0:60:P_F#7.wav
320,192,242657,1,0,0:0:0:0:
64,192,242746,1,0,0:0:0:60:P_F7.wav
448,192,242746,1,0,0:0:0:50:X_C#6.wav
320,192,242834,1,0,0:0:0:0:
192,192,242922,1,0,0:0:0:60:P_C#7.wav
448,192,242922,1,0,0:0:0:50:X_A#5.wav
64,192,243010,1,0,0:0:0:0:
320,192,243099,1,0,0:0:0:0:
64,192,243187,1,0,0:0:0:0:
192,192,243275,1,8,0:0:0:0:
320,192,243275,1,2,0:0:0:0:
448,192,243275,1,0,0:0:0:0:
64,192,243363,1,0,0:0:0:0:
448,192,243452,1,0,0:0:0:0:
320,192,243540,1,0,0:0:0:0:
64,192,243628,1,0,0:0:0:50:X_G#5.wav
192,192,243628,1,0,0:0:0:0:
448,192,243716,1,0,0:0:0:0:
64,192,243805,1,0,0:0:0:50:X_F#5.wav
320,192,243805,1,0,0:0:0:0:
192,192,243893,1,0,0:0:0:0:
64,192,243981,1,2,0:0:0:0:
320,192,243981,1,4,0:0:0:0:
448,192,243981,1,0,0:0:0:50:X_F#5.wav
192,192,244069,1,0,0:0:0:0:
320,192,244157,1,0,0:0:0:50:X_C#6.wav
448,192,244157,1,0,0:0:0:0:
192,192,244246,1,0,0:0:0:0:
64,192,244334,1,0,0:0:0:60:P_C#6.wav
448,192,244334,1,0,0:0:0:50:X_A#5.wav
320,192,244422,1,0,0:0:0:0:
64,192,244510,1,0,0:0:0:0:
192,192,244510,1,0,0:0:0:0:
320,192,244599,1,0,0:0:0:0:
64,192,244687,1,10,0:0:0:0:
192,192,244687,1,0,0:0:0:60:P_A#6.wav
448,192,244687,1,0,0:0:0:60:P_G#6.wav
320,192,244775,1,0,0:0:0:0:
192,192,244863,1,0,0:0:0:0:
320,192,244952,1,0,0:0:0:0:
64,192,245040,1,0,0:0:0:60:P_A#6.wav
448,192,245040,1,0,0:0:0:50:X_G#5.wav
192,192,245128,1,0,0:0:0:0:
320,192,245216,1,0,0:0:0:50:X_F#5.wav
448,192,245216,1,0,0:0:0:0:
192,192,245305,1,0,0:0:0:0:
64,192,245393,1,2,0:0:0:0:
320,192,245393,1,0,0:0:0:60:P_C#7.wav
448,192,245481,1,0,0:0:0:0:
64,192,245569,1,0,0:0:0:50:X_C#6.wav
192,192,245569,1,0,0:0:0:0:
448,192,245657,1,0,0:0:0:0:
64,192,245746,1,0,0:0:0:60:P_F#7.wav
320,192,245746,1,0,0:0:0:50:X_A#5.wav
192,192,245834,1,0,0:0:0:0:
448,192,245922,1,0,0:0:0:0:
192,192,246010,1,0,0:0:0:0:
64,192,246099,1,8,0:0:0:0:
320,192,246099,1,2,0:0:0:0:
448,192,246099,1,0,0:0:0:0:
192,192,246187,1,0,0:0:0:0:
64,192,246275,1,0,0:0:0:60:P_F7.wav
320,192,246275,1,0,0:0:0:0:
448,192,246363,1,0,0:0:0:0:
192,192,246452,1,0,0:0:0:60:P_A#6.wav
320,192,246452,1,0,0:0:0:50:X_G#5.wav
64,192,246540,1,0,0:0:0:0:
320,192,246628,1,0,0:0:0:50:X_F#5.wav
448,192,246628,1,0,0:0:0:0:
192,192,246716,1,0,0:0:0:0:
64,192,246805,1,2,0:0:0:0:
448,192,246805,1,0,0:0:0:50:X_F#5.wav
320,192,246893,1,0,0:0:0:0:
64,192,246981,1,0,0:0:0:50:X_C#6.wav
192,192,246981,1,0,0:0:0:0:
320,192,247069,1,0,0:0:0:0:
64,192,247157,1,0,0:0:0:50:X_A#5.wav
448,192,247157,1,0,0:0:0:30:X_C#5.wav
192,192,247246,1,0,0:0:0:0:
320,192,247334,1,0,0:0:0:0:
192,192,247422,1,0,0:0:0:0:
64,192,247510,1,8,0:0:0:0:
320,192,247510,1,2,0:0:0:0:
448,192,247510,1,0,0:0:0:0:
192,192,247599,1,0,0:0:0:0:
64,192,247687,1,0,0:0:0:60:P_C#6.wav
448,192,247687,1,0,0:0:0:0:
320,192,247775,1,0,0:0:0:0:
64,192,247863,1,0,0:0:0:60:P_F#6.wav
192,192,247863,1,0,0:0:0:50:X_G#5.wav
448,192,247952,1,0,0:0:0:60:P_G#6.wav
64,192,248040,1,0,0:0:0:60:P_F#6.wav
320,192,248040,1,0,0:0:0:50:X_F#5.wav
192,192,248128,1,0,0:0:0:0:
320,192,248216,1,2,0:0:0:0:
448,192,248216,1,0,0:0:0:50:X_F#5.wav
64,192,248305,1,0,0:0:0:0:
192,192,248393,1,0,0:0:0:50:X_C#6.wav
320,192,248393,1,0,0:0:0:0:
64,192,248481,1,0,0:0:0:0:
320,192,248569,1,0,0:0:0:50:X_A#5.wav
448,192,248569,1,0,0:0:0:30:X_C#5.wav
192,192,248657,1,0,0:0:0:0:
448,192,248746,1,0,0:0:0:0:
64,192,248834,1,0,0:0:0:0:
192,192,248922,1,8,0:0:0:0:
320,192,248922,1,2,0:0:0:0:
448,192,248922,1,0,0:0:0:0:
64,192,249010,1,0,0:0:0:0:
320,192,249099,1,0,0:0:0:60:P_F#7.wav
448,192,249099,1,0,0:0:0:0:
192,192,249187,1,0,0:0:0:0:
64,192,249275,1,0,0:0:0:60:P_F7.wav
448,192,249275,1,0,0:0:0:50:X_G#5.wav
320,192,249363,1,0,0:0:0:0:
192,192,249452,1,0,0:0:0:60:P_C#7.wav
448,192,249452,1,0,0:0:0:50:X_F#5.wav
320,192,249540,1,0,0:0:0:0:
64,192,249628,1,2,0:0:0:0:
192,192,249628,1,0,0:0:0:60:P_F#6.wav
448,192,249716,1,0,0:0:0:0:
64,192,249805,1,0,0:0:0:60:P_G#6.wav
320,192,249805,1,0,0:0:0:50:X_C#6.wav
448,192,249893,1,0,0:0:0:0:
64,192,249981,1,0,0:0:0:60:P_A#6.wav
192,192,249981,1,0,0:0:0:50:X_A#5.wav
320,192,250069,1,0,0:0:0:0:
192,192,250157,1,0,0:0:0:0:
448,192,250246,1,0,0:0:0:0:
64,192,250334,1,8,0:0:0:0:
192,192,250334,1,2,0:0:0:0:
320,192,250334,1,0,0:0:0:60:P_F7.wav
448,192,250422,1,0,0:0:0:0:
64,192,250510,1,0,0:0:0:0:
192,192,250599,1,0,0:0:0:0:
320,192,250687,1,0,0:0:0:60:P_F#6.wav
448,192,250687,1,0,0:0:0:50:X_G#5.wav
64,192,250775,1,0,0:0:0:0:
192,192,250863,1,0,0:0:0:60:P_G#6.wav
448,192,250863,1,0,0:0:0:50:X_F#5.wav
320,192,250952,1,0,0:0:0:0:
64,192,251040,1,2,0:0:0:0:
448,192,251040,1,0,0:0:0:60:P_A#6.wav
192,192,251128,1,0,0:0:0:0:
320,192,251216,1,0,0:0:0:50:X_C#6.wav
448,192,251216,1,0,0:0:0:0:
192,192,251305,1,0,0:0:0:0:
64,192,251393,1,0,0:0:0:60:P_F7.wav
448,192,251393,1,0,0:0:0:50:X_A#5.wav
320,192,251481,1,0,0:0:0:0:
64,192,251569,1,0,0:0:0:0:
320,192,251657,1,0,0:0:0:0:
64,192,251746,1,8,0:0:0:0:
192,192,251746,1,2,0:0:0:0:
448,192,251746,1,0,0:0:0:60:P_F#6.wav
320,192,251834,1,0,0:0:0:0:
192,192,251922,1,0,0:0:0:0:
448,192,252010,1,0,0:0:0:0:
64,192,252099,1,0,0:0:0:50:X_G#5.wav
320,192,252099,1,0,0:0:0:0:
192,192,252187,1,0,0:0:0:0:
320,192,252275,1,0,0:0:0:60:P_F6.wav
448,192,252275,1,0,0:0:0:50:X_F#5.wav
64,192,252363,1,0,0:0:0:0:
192,192,252452,1,2,0:0:0:0:
320,192,252452,1,0,0:0:0:50:X_F#5.wav
64,192,252628,1,0,0:0:0:50:X_C#6.wav
448,192,252628,1,0,0:0:0:0:
192,192,252805,1,0,0:0:0:50:X_A#5.wav
320,192,252805,1,0,0:0:0:30:X_C#5.wav
192,192,253157,1,0,0:0:0:0:
320,192,253157,1,0,0:0:0:0:
192,192,253510,1,0,0:0:0:50:X_G#5.wav
320,192,253510,1,0,0:0:0:0:
192,192,253687,1,0,0:0:0:50:X_F#5.wav
448,192,253687,1,0,0:0:0:0:
192,192,253863,1,0,0:0:0:60:P_F#7.wav
320,192,253863,1,0,0:0:0:50:X_F#5.wav
64,192,254040,1,0,0:0:0:60:P_F7.wav
448,192,254040,1,0,0:0:0:50:X_C#6.wav
192,192,254216,1,0,0:0:0:60:P_C#7.wav
320,192,254216,1,0,0:0:0:50:X_A#5.wav
192,192,254569,1,0,0:0:0:0:
320,192,254569,1,0,0:0:0:0:
192,192,254922,1,0,0:0:0:50:X_G#5.wav
320,192,254922,1,0,0:0:0:0:
64,192,255099,1,0,0:0:0:50:X_F#5.wav
320,192,255099,1,0,0:0:0:0:
192,192,255275,1,2,0:0:0:0:
320,192,255275,1,0,0:0:0:25:P_E3.wav
448,192,255275,1,0,0:0:0:0:
64,192,255452,1,0,0:0:0:35:P_F#4.wav
448,192,255452,1,0,0:0:0:0:
320,192,255628,1,0,0:0:0:35:P_B4.wav
64,192,255805,1,0,0:0:0:35:P_D#5.wav
192,192,255805,1,0,0:0:0:0:
320,192,255981,1,0,0:0:0:35:P_F#5.wav
448,192,255981,1,0,0:0:0:0:
64,192,256157,1,0,0:0:0:35:P_A#5.wav
192,192,256334,1,0,0:0:0:35:P_B5.wav
448,192,256334,1,0,0:0:0:0:
64,192,256510,1,0,0:0:0:35:P_F#6.wav
320,192,256510,1,0,0:0:0:0:
320,192,258099,1,0,0:0:0:25:P_E3.wav
448,192,258099,1,0,0:0:0:0:
64,192,258275,1,0,0:0:0:35:P_F#4.wav
192,192,258275,1,0,0:0:0:0:
320,192,258452,1,0,0:0:0:35:P_B4.wav
64,192,258628,1,0,0:0:0:35:P_D5.wav
448,192,258628,1,0,0:0:0:0:
192,192,258805,1,0,0:0:0:35:P_F#5.wav
320,192,258805,1,0,0:0:0:0:
448,192,258981,1,0,0:0:0:35:P_A#5.wav
64,192,259157,1,0,0:0:0:35:P_B5.wav
320,192,259157,1,0,0:0:0:0:
192,192,259334,1,0,0:0:0:35:P_F#6.wav
448,192,259334,1,0,0:0:0:0:
448,192,260216,1,0,0:0:0:25:P_F#4.wav
64,192,260393,1,0,0:0:0:25:P_F#4.wav
192,192,260393,1,0,0:0:0:35:P_D#5.wav
192,192,260922,1,0,0:0:0:25:P_G#3.wav
448,192,260922,1,0,0:0:0:0:
64,192,261099,1,0,0:0:0:35:P_F#4.wav
320,192,261099,1,0,0:0:0:0:
192,192,261275,1,0,0:0:0:35:P_B4.wav
320,192,261452,1,0,0:0:0:35:P_D#5.wav
448,192,261452,1,0,0:0:0:0:
64,192,261628,1,0,0:0:0:35:P_F#5.wav
192,192,261628,1,0,0:0:0:0:
320,192,261805,1,0,0:0:0:35:P_A#5.wav
64,192,261981,1,0,0:0:0:35:P_B5.wav
448,192,261981,1,0,0:0:0:0:
192,192,262157,1,0,0:0:0:35:P_D#6.wav
320,192,262157,1,0,0:0:0:0:
64,192,263824,1,0,0:0:0:25:P_G#3.wav
448,192,263824,1,0,0:0:0:0:
192,192,264005,1,0,0:0:0:35:P_F#4.wav
320,192,264005,1,0,0:0:0:0:
64,192,264187,1,0,0:0:0:35:P_B4.wav
320,192,264369,1,0,0:0:0:35:P_D#5.wav
448,192,264369,1,0,0:0:0:0:
64,192,264551,1,0,0:0:0:35:P_F#5.wav
192,192,264551,1,0,0:0:0:0:
320,192,264733,1,0,0:0:0:35:P_A#5.wav
192,192,264914,1,0,0:0:0:35:P_B5.wav
448,192,264914,1,0,0:0:0:0:
64,192,265096,1,0,0:0:0:35:P_D#6.wav
320,192,265096,1,0,0:0:0:0:
64,192,266071,1,0,0:0:0:35:P_F#4.wav
320,192,266071,1,0,0:0:0:35:P_D#5.wav
320,192,266845,1,0,0:0:0:25:P_E3.wav
448,192,266845,1,0,0:0:0:0:
64,192,267038,1,0,0:0:0:35:P_F#4.wav
192,192,267038,1,0,0:0:0:0:
320,192,267232,1,0,0:0:0:35:P_B4.wav
192,192,267425,1,2,0:0:0:35:P_D#5.wav
448,192,267425,1,0,0:0:0:0:
64,192,267619,1,0,0:0:0:35:P_F#5.wav
320,192,267619,1,0,0:0:0:0:
192,192,267812,1,0,0:0:0:35:P_A#5.wav
64,192,268006,1,0,0:0:0:35:P_B5.wav
448,192,268006,1,0,0:0:0:0:
192,192,268199,1,0,0:0:0:35:P_B6.wav
320,192,268199,1,0,0:0:0:0:
64,192,268393,1,0,0:0:0:35:P_A#6.wav
448,192,268393,1,0,0:0:0:0:
320,192,268586,1,0,0:0:0:35:P_B6.wav
448,192,268586,1,0,0:0:0:0:
64,192,268780,1,0,0:0:0:35:P_F#6.wav
192,192,268780,1,0,0:0:0:0:
192,192,270002,1,0,0:0:0:25:P_E3.wav
320,192,270002,1,0,0:0:0:0:
64,192,270208,1,0,0:0:0:35:P_F#4.wav
448,192,270208,1,0,0:0:0:0:
320,192,270415,1,0,0:0:0:35:P_B4.wav
64,192,270622,1,0,0:0:0:35:P_D5.wav
192,192,270622,1,0,0:0:0:0:
320,192,270829,1,0,0:0:0:35:P_F#5.wav
448,192,270829,1,0,0:0:0:0:
64,192,271036,1,0,0:0:0:35:P_A#5.wav
192,192,271243,1,0,0:0:0:35:P_B5.wav
320,192,271243,1,0,0:0:0:0:
64,192,271450,1,0,0:0:0:35:P_B6.wav
448,192,271450,1,0,0:0:0:0:
320,192,271657,1,0,0:0:0:35:P_A#6.wav
192,192,271657,1,0,0:0:0:0:
64,192,271864,1,0,0:0:0:35:P_B6.wav
192,192,271864,1,0,0:0:0:0:
320,192,272070,1,0,0:0:0:35:P_D6.wav
448,192,272070,1,0,0:0:0:0:
64,192,273339,1,0,0:0:0:25:P_G#3.wav
192,192,273339,1,0,0:0:0:0:
320,192,273553,1,0,0:0:0:35:P_F#4.wav
448,192,273553,1,0,0:0:0:0:
64,192,273767,1,0,0:0:0:35:P_B4.wav
192,192,273981,1,0,0:0:0:35:P_D#5.wav
448,192,273981,1,0,0:0:0:0:
64,192,274196,1,0,0:0:0:35:P_F#5.wav
320,192,274196,1,0,0:0:0:0:
192,192,274410,1,0,0:0:0:35:P_A#5.wav
64,192,274624,1,0,0:0:0:35:P_B5.wav
448,192,274624,1,0,0:0:0:0:
192,192,274839,1,0,0:0:0:35:P_D#6.wav
320,192,274839,1,0,0:0:0:0:
320,192,276873,1,0,0:0:0:25:P_G#3.wav
448,192,276873,1,0,0:0:0:0:
64,192,277095,1,0,0:0:0:35:P_F#4.wav
192,192,277095,1,0,0:0:0:0:
320,192,277335,1,0,0:0:0:35:P_C5.wav
64,192,277578,1,0,0:0:0:35:P_D#5.wav
448,192,277578,1,0,0:0:0:0:
192,192,277837,1,0,0:0:0:35:P_F#5.wav
320,192,277837,1,0,0:0:0:0:
448,192,278084,1,0,0:0:0:35:P_A#5.wav
64,192,278370,1,0,0:0:0:35:P_C6.wav
192,192,278370,1,0,0:0:0:0:
320,192,278655,1,0,0:0:0:35:P_D#6.wav
448,192,278655,1,0,0:0:0:0:
