osu file format v14

[General]
AudioFilename: audio.mp3
AudioLeadIn: 0
PreviewTime: 117628
Countdown: 0
SampleSet: Soft
StackLeniency: 0.7
Mode: 3
LetterboxInBreaks: 0
SpecialStyle: 0
WidescreenStoryboard: 1

[Editor]
Bookmarks: 6794,29382,51970,74558,97146,116911,119735,142323,164911,187499,210088,229852,232676,255264
DistanceSpacing: 0.4
BeatDivisor: 4
GridSize: 32
TimelineZoom: 1.9

[Metadata]
Title:Solemnity
TitleUnicode:Solemnity
Artist:miraie & Milkoi
ArtistUnicode:miraie & Milkoi
Creator:Protastic101
Version:Hyper
Source:
Tags:Electronic English FA Featured Artist mg mpg mappers' guild Somnolent edm chill midtempo orchestra orchestral rice stream quadstream jack minijack future bass instrumental
BeatmapID:4115632
BeatmapSetID:1808304

[Difficulty]
HPDrainRate:8
CircleSize:4
OverallDifficulty:8
ApproachRate:5
SliderMultiplier:1.4
SliderTickRate:1

[Events]
//Background and Video events
0,0,"Solemnity.jpg",0,0
//Break Periods
//Storyboard Layer 0 (Background)
//Storyboard Layer 1 (Fail)
//Storyboard Layer 2 (Pass)
//Storyboard Layer 3 (Foreground)
//Storyboard Layer 4 (Overlay)
//Storyboard Sound Samples
Sample,7157,0,"X_C#5.wav",30
Sample,8569,0,"X_C#5.wav",30
Sample,9981,0,"X_C#5.wav",30
Sample,11393,0,"X_C#5.wav",30
Sample,12805,0,"X_C#5.wav",30
Sample,14216,0,"X_C#5.wav",30
Sample,15628,0,"X_C#5.wav",30
Sample,17040,0,"X_C#5.wav",30
Sample,18452,0,"X_C#5.wav",30
Sample,19863,0,"X_C#5.wav",30
Sample,21275,0,"X_C#5.wav",30
Sample,22687,0,"X_C#5.wav",30
Sample,24099,0,"X_C#5.wav",30
Sample,25510,0,"X_A#5.wav",50
Sample,26922,0,"X_C#5.wav",30
Sample,28334,0,"X_C#5.wav",30
Sample,29746,0,"X_C#5.wav",30
Sample,30628,0,"X_F#5.wav",60
Sample,31157,0,"X_C#5.wav",30
Sample,33452,0,"X_F#5.wav",60
Sample,33981,0,"X_C#5.wav",30
Sample,35393,0,"X_C#5.wav",30
Sample,36275,0,"X_F#5.wav",60
Sample,36805,0,"X_C#5.wav",30
Sample,39099,0,"X_F#5.wav",60
Sample,39628,0,"X_C#5.wav",30
Sample,41040,0,"X_C#5.wav",30
Sample,41922,0,"X_F#5.wav",60
Sample,42099,0,"X_F#5.wav",50
Sample,42452,0,"X_C#5.wav",30
Sample,43157,0,"X_G#5.wav",50
Sample,43334,0,"X_F#5.wav",50
Sample,43863,0,"X_C#5.wav",30
Sample,44746,0,"X_F#5.wav",60
Sample,44922,0,"X_F#5.wav",50
Sample,45275,0,"X_C#5.wav",30
Sample,46687,0,"X_C#5.wav",30
Sample,47569,0,"X_F#5.wav",60
Sample,47746,0,"X_F#5.wav",50
Sample,48099,0,"X_C#5.wav",30
Sample,48805,0,"X_G#5.wav",50
Sample,48981,0,"X_F#5.wav",50
Sample,49510,0,"X_C#5.wav",30
Sample,50393,0,"X_F#5.wav",60
Sample,50569,0,"X_F#5.wav",50
Sample,50922,0,"X_C#5.wav",30
Sample,74922,0,"X_C#5.wav",30
Sample,76334,0,"X_C#5.wav",30
Sample,77746,0,"X_C#5.wav",30
Sample,79157,0,"X_C#5.wav",30
Sample,80569,0,"X_C#5.wav",30
Sample,81981,0,"X_C#5.wav",30
Sample,83393,0,"X_C#5.wav",30
Sample,84805,0,"X_C#5.wav",30
Sample,86216,0,"X_C#5.wav",30
Sample,87628,0,"X_C#5.wav",30
Sample,89040,0,"X_C#5.wav",30
Sample,90452,0,"X_C#5.wav",30
Sample,91687,0,"X_F5.wav",50
Sample,91863,0,"X_F#5.wav",50
Sample,91863,0,"X_C#5.wav",30
Sample,92569,0,"X_G#5.wav",50
Sample,92746,0,"X_F#5.wav",50
Sample,92922,0,"X_C#6.wav",50
Sample,93099,0,"X_F5.wav",60
Sample,93275,0,"X_F#5.wav",50
Sample,93275,0,"X_C#5.wav",30
Sample,120452,0,"P_G#6.wav",60
Sample,131746,0,"P_G#6.wav",60
Sample,199157,0,"X_C#5.wav",30
Sample,200569,0,"X_C#5.wav",30
Sample,201981,0,"X_C#5.wav",30
Sample,203393,0,"X_C#5.wav",30
Sample,204628,0,"X_F5.wav",50
Sample,204805,0,"X_C#5.wav",30
Sample,205510,0,"X_G#5.wav",50
Sample,205687,0,"X_F#5.wav",50
Sample,205863,0,"X_C#6.wav",50
Sample,206040,0,"X_F5.wav",60
Sample,206216,0,"X_C#5.wav",30
Sample,206216,0,"X_F#5.wav",50
Sample,207628,0,"X_C#5.wav",30
Sample,211863,0,"X_C#5.wav",30
Sample,214687,0,"X_C#5.wav",30
Sample,217510,0,"X_C#5.wav",30
Sample,220334,0,"X_F#5.wav",50
Sample,223157,0,"X_C#5.wav",30
Sample,224569,0,"X_C#5.wav",30
Sample,225981,0,"X_C#5.wav",30
Sample,228805,0,"X_C#5.wav",30
Sample,233040,0,"X_C#5.wav",30
Sample,233393,0,"P_G#6.wav",60
Sample,234099,0,"X_F#5.wav",50
Sample,234452,0,"X_C#5.wav",30
Sample,238334,0,"X_F#5.wav",50
Sample,238687,0,"X_C#5.wav",30
Sample,239746,0,"X_F#5.wav",50
Sample,240099,0,"X_C#5.wav",30
Sample,242569,0,"X_F#5.wav",50
Sample,242922,0,"X_C#5.wav",30
Sample,244334,0,"X_C#5.wav",30
Sample,244687,0,"P_G#6.wav",60
Sample,245393,0,"X_F#5.wav",50
Sample,245746,0,"X_C#5.wav",30
Sample,249628,0,"X_F#5.wav",50
Sample,249981,0,"X_C#5.wav",30
Sample,251040,0,"X_F#5.wav",50
Sample,251393,0,"X_C#5.wav",30
Sample,254216,0,"X_C#5.wav",30

[TimingPoints]
1158,352.941176470588,4,2,1,50,1,0
74569,-100,4,1,1,50,0,0
94334,-100,4,2,1,50,0,0
97157,-100,4,2,1,50,0,1
116922,-100,4,2,1,50,0,0
119746,-100,4,2,1,50,0,1
142334,-100,4,2,1,50,0,0
193157,-100,4,1,1,50,0,0
207275,-100,4,2,1,50,0,0
210099,-100,4,2,1,50,0,1
229863,-100,4,2,1,50,0,0
232687,-100,4,2,1,50,0,1
255275,-100,4,2,1,25,0,0
263824,363.636363636363,4,2,1,25,1,0
263824,-97.0873786407767,4,2,1,25,0,0
266071,387.096774193548,4,2,1,25,1,0
266071,-90.9090909090909,4,2,1,25,0,0
266845,387.096774193548,4,2,1,25,1,0
266845,-90.9090909090909,4,2,1,25,0,0
270002,413.793103448276,4,2,1,25,1,0
270002,-85.4700854700855,4,2,1,25,0,0
273339,428.571428571429,4,2,1,25,1,0
273339,-82.6446280991736,4,2,1,25,0,0
276873,444.444444444445,4,2,1,25,1,0
276873,-79.3650793650794,4,2,1,25,0,0
277095,480.000000000001,4,2,1,25,1,0
277095,-73.5294117647059,4,2,1,25,0,0
277335,487.804878048781,4,2,1,25,1,0
277335,-72.463768115942,4,2,1,25,0,0
277837,495.867768595042,4,2,1,25,1,0
277837,-71.4285714285714,4,2,1,25,0,0
278370,571.428571428572,4,2,1,25,1,0
278370,-61.7283950617284,4,2,1,25,0,0

[HitObjects]
320,192,805,5,0,0:0:0:50:X_G#5.wav
448,192,981,1,0,0:0:0:50:X_F#5.wav
448,192,1158,1,0,0:0:0:50:X_F#5.wav
192,192,1334,1,0,0:0:0:50:X_C#6.wav
64,192,1510,1,0,0:0:0:50:X_A#5.wav
320,192,1510,1,0,0:0:0:30:X_C#5.wav
320,192,2216,1,0,0:0:0:50:X_G#5.wav
448,192,2393,1,0,0:0:0:50:X_F#5.wav
448,192,2569,1,0,0:0:0:50:X_F#5.wav
192,192,2746,1,0,0:0:0:50:X_C#6.wav
64,192,2922,1,0,0:0:0:50:X_A#5.wav
320,192,2922,1,0,0:0:0:30:X_C#5.wav
320,192,3628,1,0,0:0:0:50:X_G#5.wav
448,192,3805,1,0,0:0:0:50:X_F#5.wav
448,192,3981,1,0,0:0:0:50:X_F#5.wav
192,192,4157,1,0,0:0:0:50:X_C#6.wav
64,192,4334,1,0,0:0:0:50:X_A#5.wav
320,192,4334,1,0,0:0:0:30:X_C#5.wav
320,192,5040,1,0,0:0:0:50:X_G#5.wav
448,192,5216,1,0,0:0:0:50:X_F#5.wav
448,192,5393,1,0,0:0:0:50:X_F#5.wav
192,192,5569,1,0,0:0:0:50:X_C#6.wav
64,192,5746,1,0,0:0:0:50:X_A#5.wav
320,192,5746,1,0,0:0:0:30:X_C#5.wav
320,192,6452,1,0,0:0:0:50:X_G#5.wav
64,192,6628,1,0,0:0:0:50:X_F#5.wav
192,192,6805,128,0,6893:0:0:0:50:X_F#5.wav
448,192,6981,1,0,0:0:0:50:X_C#6.wav
64,192,7069,1,0,0:0:0:0:
192,192,7157,128,0,7246:0:0:0:50:X_A#5.wav
448,192,7246,1,0,0:0:0:0:
192,192,7510,128,0,7599:0:0:0:0:
320,192,7599,1,0,0:0:0:0:
64,192,7687,1,0,0:0:0:0:
448,192,7775,1,0,0:0:0:0:
192,192,7863,128,0,7952:0:0:0:50:X_G#5.wav
64,192,8040,1,0,0:0:0:50:X_F#5.wav
320,192,8128,1,0,0:0:0:0:
192,192,8216,128,0,8305:0:0:0:50:X_F#5.wav
320,192,8305,1,0,0:0:0:0:
448,192,8393,1,0,0:0:0:50:X_C#6.wav
192,192,8569,128,0,8657:0:0:0:50:X_A#5.wav
64,192,8657,1,0,0:0:0:0:
448,192,8746,1,0,0:0:0:0:
320,192,8834,1,0,0:0:0:0:
192,192,8922,128,0,9010:0:0:0:0:
64,192,9099,1,0,0:0:0:0:
448,192,9187,1,0,0:0:0:0:
192,192,9275,128,0,9363:0:0:0:50:X_G#5.wav
448,192,9363,1,0,0:0:0:0:
64,192,9452,1,0,0:0:0:50:X_F#5.wav
192,192,9628,128,0,9716:0:0:0:50:X_F#5.wav
320,192,9716,1,0,0:0:0:0:
448,192,9805,1,0,0:0:0:50:X_C#6.wav
64,192,9893,1,0,0:0:0:0:
192,192,9981,128,0,10069:0:0:0:50:X_A#5.wav
448,192,10069,1,0,0:0:0:0:
192,192,10334,128,0,10422:0:0:0:0:
448,192,10422,1,0,0:0:0:0:
320,192,10510,1,0,0:0:0:0:
64,192,10599,1,0,0:0:0:0:
192,192,10687,128,0,10775:0:0:0:50:X_G#5.wav
64,192,10863,1,0,0:0:0:50:X_F#5.wav
320,192,10952,1,0,0:0:0:0:
192,192,11040,128,0,11128:0:0:0:50:X_F#5.wav
320,192,11128,1,0,0:0:0:0:
448,192,11216,1,0,0:0:0:50:X_C#6.wav
192,192,11393,128,0,11481:0:0:0:50:X_A#5.wav
64,192,11481,1,0,0:0:0:0:
448,192,11569,1,0,0:0:0:0:
192,192,11657,1,0,0:0:0:0:
320,192,11746,128,0,11834:0:0:0:0:
448,192,11922,1,0,0:0:0:0:
64,192,12010,1,0,0:0:0:0:
320,192,12099,128,0,12187:0:0:0:50:X_G#5.wav
64,192,12187,1,0,0:0:0:0:
448,192,12275,1,0,0:0:0:50:X_F#5.wav
64,192,12452,128,0,12540:0:0:0:50:X_F#5.wav
320,192,12628,1,0,0:0:0:50:X_C#6.wav
448,192,12716,1,0,0:0:0:0:
64,192,12805,128,0,12893:0:0:0:50:X_A#5.wav
320,192,12893,1,0,0:0:0:0:
64,192,13157,128,0,13246:0:0:0:0:
192,192,13246,1,0,0:0:0:0:
320,192,13334,1,0,0:0:0:0:
448,192,13422,1,0,0:0:0:0:
64,192,13510,128,0,13599:0:0:0:50:X_G#5.wav
448,192,13687,1,0,0:0:0:50:X_F#5.wav
192,192,13775,1,0,0:0:0:0:
64,192,13863,128,0,13952:0:0:0:50:X_F#5.wav
192,192,13952,1,0,0:0:0:0:
320,192,14040,1,0,0:0:0:50:X_C#6.wav
64,192,14216,128,0,14305:0:0:0:50:X_A#5.wav
448,192,14305,1,0,0:0:0:0:
320,192,14393,1,0,0:0:0:0:
192,192,14481,1,0,0:0:0:0:
64,192,14569,128,0,14657:0:0:0:0:
320,192,14746,1,0,0:0:0:0:
448,192,14834,1,0,0:0:0:0:
64,192,14922,128,0,15010:0:0:0:50:X_G#5.wav
320,192,15010,1,0,0:0:0:0:
448,192,15099,1,0,0:0:0:50:X_F#5.wav
64,192,15275,128,0,15363:0:0:0:50:X_F#5.wav
320,192,15452,1,0,0:0:0:50:X_C#6.wav
448,192,15540,1,0,0:0:0:0:
64,192,15628,128,0,15716:0:0:0:50:X_A#5.wav
448,192,15716,1,0,0:0:0:0:
64,192,15981,128,0,16069:0:0:0:0:
192,192,16069,1,0,0:0:0:0:
448,192,16157,1,0,0:0:0:0:
320,192,16246,1,0,0:0:0:0:
64,192,16334,128,0,16422:0:0:0:50:X_G#5.wav
448,192,16510,1,0,0:0:0:50:X_F#5.wav
320,192,16599,1,0,0:0:0:0:
64,192,16687,128,0,16775:0:0:0:50:X_F#5.wav
192,192,16775,1,0,0:0:0:0:
320,192,16863,1,0,0:0:0:50:X_C#6.wav
64,192,17040,128,0,17128:0:0:0:50:X_A#5.wav
448,192,17128,1,0,0:0:0:0:
192,192,17216,1,0,0:0:0:0:
320,192,17305,1,0,0:0:0:0:
448,192,17393,128,0,17481:0:0:0:0:
192,192,17569,1,0,0:0:0:0:
320,192,17657,1,0,0:0:0:0:
448,192,17746,128,0,17834:0:0:0:50:X_G#5.wav
64,192,17834,1,0,0:0:0:0:
320,192,17922,1,0,0:0:0:50:X_F#5.wav
192,192,18099,128,0,18187:0:0:0:50:X_F#5.wav
64,192,18275,1,0,0:0:0:50:X_C#6.wav
320,192,18363,1,0,0:0:0:0:
192,192,18452,128,0,18540:0:0:0:50:X_A#5.wav
64,192,18540,1,0,0:0:0:0:
192,192,18805,128,0,18893:0:0:0:0:
320,192,18893,1,0,0:0:0:0:
64,192,18981,1,0,0:0:0:0:
320,192,19069,1,0,0:0:0:0:
192,192,19157,128,0,19246:0:0:0:50:X_G#5.wav
320,192,19334,1,0,0:0:0:50:X_F#5.wav
64,192,19422,1,0,0:0:0:0:
192,192,19510,128,0,19599:0:0:0:50:X_F#5.wav
448,192,19599,1,0,0:0:0:0:
64,192,19687,1,0,0:0:0:50:X_C#6.wav
192,192,19863,128,0,19952:0:0:0:50:X_A#5.wav
320,192,19952,1,0,0:0:0:0:
64,192,20040,1,0,0:0:0:0:
448,192,20128,1,0,0:0:0:0:
192,192,20216,128,0,20305:0:0:0:0:
320,192,20393,1,0,0:0:0:0:
64,192,20481,1,0,0:0:0:0:
192,192,20569,128,0,20657:0:0:0:50:X_G#5.wav
64,192,20657,1,0,0:0:0:0:
320,192,20746,1,0,0:0:0:50:X_F#5.wav
192,192,20922,128,0,21010:0:0:0:50:X_F#5.wav
64,192,21099,1,0,0:0:0:50:X_C#6.wav
320,192,21187,1,0,0:0:0:0:
192,192,21275,128,0,21363:0:0:0:50:X_A#5.wav
64,192,21363,1,0,0:0:0:0:
192,192,21628,128,0,21716:0:0:0:0:
320,192,21716,1,0,0:0:0:0:
448,192,21805,1,0,0:0:0:0:
64,192,21893,1,0,0:0:0:0:
192,192,21981,128,0,22069:0:0:0:50:X_G#5.wav
320,192,22157,1,0,0:0:0:50:X_F#5.wav
64,192,22246,1,0,0:0:0:0:
192,192,22334,128,0,22422:0:0:0:50:X_F#5.wav
448,192,22422,1,0,0:0:0:0:
64,192,22510,1,0,0:0:0:50:X_C#6.wav
192,192,22687,128,0,22775:0:0:0:50:X_A#5.wav
320,192,22775,1,0,0:0:0:0:
64,192,22863,1,0,0:0:0:0:
448,192,22952,1,0,0:0:0:0:
320,192,23040,128,0,23128:0:0:0:0:
192,192,23216,1,0,0:0:0:0:
448,192,23305,1,0,0:0:0:0:
320,192,23393,128,0,23481:0:0:0:50:X_G#5.wav
448,192,23481,1,0,0:0:0:0:
192,192,23569,1,0,0:0:0:50:X_F#5.wav
448,192,23746,128,0,23834:0:0:0:50:X_F#5.wav
320,192,23922,1,0,0:0:0:50:X_C#6.wav
192,192,24010,1,0,0:0:0:0:
448,192,24099,128,0,24187:0:0:0:50:X_A#5.wav
320,192,24187,1,0,0:0:0:0:
448,192,24452,128,0,24540:0:0:0:0:
64,192,24540,1,0,0:0:0:0:
192,192,24628,1,0,0:0:0:0:
320,192,24716,1,0,0:0:0:0:
448,192,24805,128,0,24893:0:0:0:50:X_G#5.wav
192,192,24981,1,0,0:0:0:50:X_F#5.wav
320,192,25069,1,0,0:0:0:0:
448,192,25157,128,0,25246:0:0:0:50:X_F#5.wav
64,192,25246,1,0,0:0:0:0:
320,192,25334,1,0,0:0:0:50:X_C#6.wav
448,192,25510,128,0,25599:0:0:0:30:X_C#5.wav
320,192,25599,1,0,0:0:0:0:
192,192,25687,1,0,0:0:0:0:
64,192,25775,1,0,0:0:0:0:
448,192,25863,128,0,25952:0:0:0:0:
320,192,26040,1,0,0:0:0:0:
192,192,26128,1,0,0:0:0:0:
448,192,26216,128,0,26305:0:0:0:50:X_G#5.wav
320,192,26305,1,0,0:0:0:0:
192,192,26393,1,0,0:0:0:50:X_F#5.wav
448,192,26569,128,0,26657:0:0:0:50:X_F#5.wav
320,192,26746,1,0,0:0:0:50:X_C#6.wav
192,192,26834,1,0,0:0:0:0:
448,192,26922,128,0,27010:0:0:0:50:X_A#5.wav
320,192,27010,1,0,0:0:0:0:
448,192,27275,128,0,27363:0:0:0:0:
64,192,27363,1,0,0:0:0:0:
192,192,27452,1,0,0:0:0:0:
320,192,27540,1,0,0:0:0:0:
448,192,27628,128,0,27716:0:0:0:50:X_G#5.wav
192,192,27805,1,0,0:0:0:50:X_F#5.wav
320,192,27893,1,0,0:0:0:0:
448,192,27981,128,0,28069:0:0:0:50:X_F#5.wav
64,192,28069,1,0,0:0:0:0:
320,192,28157,1,0,0:0:0:50:X_C#6.wav
448,192,28334,128,0,28422:0:0:0:50:X_A#5.wav
320,192,28422,1,0,0:0:0:0:
192,192,28510,1,0,0:0:0:0:
64,192,28599,1,0,0:0:0:0:
320,192,28687,128,0,28775:0:0:0:0:
320,192,29040,128,0,29128:0:0:0:50:X_G#5.wav
64,192,29216,1,0,0:0:0:50:X_F#5.wav
64,192,29393,1,6,0:0:0:0:
192,192,29393,1,0,0:0:0:50:X_F#5.wav
320,192,29569,1,0,0:0:0:50:X_C#6.wav
448,192,29569,1,0,0:0:0:0:
64,192,29746,1,2,0:0:0:0:
192,192,29746,1,0,0:0:0:50:X_A#5.wav
192,192,29922,1,0,0:0:0:0:
64,192,30099,1,4,0:3:0:0:
448,192,30099,1,8,0:1:0:0:
192,192,30187,1,4,0:3:0:0:
320,192,30275,1,4,0:3:0:0:
192,192,30452,1,0,0:0:0:50:X_G#5.wav
448,192,30452,1,0,0:0:0:0:
64,192,30628,1,8,0:1:0:0:
448,192,30628,1,4,0:3:0:0:
320,192,30716,1,4,0:3:0:0:
64,192,30805,1,4,0:3:0:0:
448,192,30805,1,0,0:0:0:50:X_F#5.wav
192,192,30981,1,0,0:0:0:50:X_C#6.wav
320,192,30981,1,0,0:0:0:0:
64,192,31157,1,2,0:0:0:0:
320,192,31157,1,0,0:0:0:50:X_A#5.wav
448,192,31334,1,0,0:0:0:0:
64,192,31510,1,4,0:3:0:0:
192,192,31510,1,8,0:1:0:0:
320,192,31599,1,4,0:3:0:0:
64,192,31687,1,0,0:0:0:0:
64,192,31863,1,0,0:0:0:50:X_G#5.wav
448,192,31863,1,0,0:0:0:0:
192,192,32040,1,0,0:0:0:50:X_F#5.wav
320,192,32040,1,0,0:0:0:0:
192,192,32216,1,2,0:0:0:0:
320,192,32216,1,0,0:0:0:50:X_F#5.wav
64,192,32393,1,0,0:0:0:50:X_C#6.wav
448,192,32393,1,0,0:0:0:0:
64,192,32569,1,0,0:0:0:50:X_A#5.wav
320,192,32569,1,0,0:0:0:30:X_C#5.wav
192,192,32746,1,2,0:0:0:0:
448,192,32746,1,0,0:0:0:0:
64,192,32922,1,4,0:3:0:0:
320,192,32922,1,8,0:1:0:0:
192,192,33010,1,4,0:3:0:0:
448,192,33099,1,4,0:3:0:0:
64,192,33275,1,0,0:0:0:50:X_G#5.wav
320,192,33275,1,0,0:0:0:0:
64,192,33452,1,8,0:1:0:0:
192,192,33452,1,4,0:3:0:0:
448,192,33540,1,4,0:3:0:0:
64,192,33628,1,4,0:3:0:0:
192,192,33628,1,0,0:0:0:50:X_F#5.wav
320,192,33805,1,2,0:0:0:0:
448,192,33805,1,0,0:0:0:50:X_C#6.wav
192,192,33981,1,2,0:0:0:0:
448,192,33981,1,0,0:0:0:50:X_A#5.wav
64,192,34157,1,0,0:0:0:0:
320,192,34334,1,8,0:1:0:0:
448,192,34334,1,4,0:3:0:0:
192,192,34422,1,4,0:3:0:0:
320,192,34510,1,0,0:0:0:0:
192,192,34687,1,0,0:0:0:50:X_G#5.wav
448,192,34687,1,0,0:0:0:0:
64,192,34863,1,0,0:0:0:50:X_F#5.wav
320,192,34863,1,0,0:0:0:0:
64,192,35040,1,2,0:0:0:0:
320,192,35040,1,0,0:0:0:50:X_F#5.wav
192,192,35216,1,0,0:0:0:50:X_C#6.wav
448,192,35216,1,0,0:0:0:0:
64,192,35393,1,2,0:0:0:0:
320,192,35393,1,0,0:0:0:50:X_A#5.wav
448,192,35569,1,0,0:0:0:0:
192,192,35746,1,8,0:1:0:0:
320,192,35746,1,4,0:3:0:0:
64,192,35834,1,4,0:3:0:0:
448,192,35922,1,4,0:3:0:0:
192,192,36099,1,0,0:0:0:50:X_G#5.wav
320,192,36099,1,0,0:0:0:0:
320,192,36275,1,8,0:1:0:0:
448,192,36275,1,4,0:3:0:0:
64,192,36363,1,4,0:3:0:0:
320,192,36452,1,4,0:3:0:0:
448,192,36452,1,0,0:0:0:50:X_F#5.wav
64,192,36628,1,0,0:0:0:50:X_C#6.wav
192,192,36628,1,0,0:0:0:0:
64,192,36805,1,2,0:0:0:0:
448,192,36805,1,0,0:0:0:50:X_A#5.wav
320,192,36981,1,0,0:0:0:0:
64,192,37157,1,4,0:3:0:0:
192,192,37157,1,8,0:1:0:0:
448,192,37246,1,4,0:3:0:0:
192,192,37334,1,0,0:0:0:0:
64,192,37510,1,0,0:0:0:50:X_G#5.wav
320,192,37510,1,0,0:0:0:0:
192,192,37687,1,0,0:0:0:50:X_F#5.wav
448,192,37687,1,0,0:0:0:0:
192,192,37863,1,2,0:0:0:0:
448,192,37863,1,0,0:0:0:50:X_F#5.wav
192,192,38040,1,0,0:0:0:50:X_C#6.wav
320,192,38040,1,0,0:0:0:0:
64,192,38216,1,0,0:0:0:50:X_A#5.wav
448,192,38216,1,0,0:0:0:30:X_C#5.wav
192,192,38393,1,2,0:0:0:0:
320,192,38393,1,0,0:0:0:0:
64,192,38569,1,8,0:1:0:0:
448,192,38569,1,4,0:3:0:0:
192,192,38657,1,4,0:3:0:0:
320,192,38746,1,4,0:3:0:0:
64,192,38922,1,0,0:0:0:50:X_G#5.wav
448,192,38922,1,0,0:0:0:0:
64,192,39099,1,4,0:3:0:0:
192,192,39099,1,8,0:1:0:0:
320,192,39187,1,4,0:3:0:0:
64,192,39275,1,4,0:3:0:0:
192,192,39275,1,0,0:0:0:50:X_F#5.wav
320,192,39452,1,2,0:0:0:0:
448,192,39452,1,0,0:0:0:50:X_C#6.wav
64,192,39628,1,2,0:0:0:0:
320,192,39628,1,0,0:0:0:50:X_A#5.wav
192,192,39805,1,0,0:0:0:0:
64,192,39981,1,4,0:3:0:0:
448,192,39981,1,8,0:1:0:0:
320,192,40069,1,4,0:3:0:0:
64,192,40157,1,0,0:0:0:0:
320,192,40334,1,0,0:0:0:50:X_G#5.wav
448,192,40334,1,0,0:0:0:0:
64,192,40510,1,0,0:0:0:50:X_F#5.wav
192,192,40510,1,0,0:0:0:0:
192,192,40687,1,4,0:0:0:0:
320,192,40687,1,2,0:0:0:0:
448,192,40687,1,0,0:0:0:50:X_F#5.wav
64,192,40863,1,0,0:0:0:50:X_C#6.wav
320,192,41040,1,2,0:0:0:0:
448,192,41040,1,0,0:0:0:50:X_A#5.wav
192,192,41128,1,0,0:0:0:0:
64,192,41216,1,0,0:0:0:0:
320,192,41305,1,0,0:0:0:0:
192,192,41393,1,8,0:1:0:0:
448,192,41393,1,4,0:3:0:0:
64,192,41481,1,4,0:3:0:0:
320,192,41569,1,4,0:3:0:0:
64,192,41746,1,0,0:0:0:50:X_G#5.wav
448,192,41863,1,0,0:0:0:0:
64,192,41922,1,8,0:1:0:0:
320,192,41922,1,4,0:3:0:0:
192,192,41981,1,0,0:0:0:0:
320,192,42099,1,4,0:3:0:0:
448,192,42275,1,0,0:0:0:50:X_C#6.wav
64,192,42452,128,2,42805:0:0:0:0:
192,192,42452,1,0,0:0:0:50:X_A#5.wav
320,192,42628,1,0,0:0:0:0:
192,192,42805,1,8,0:1:0:0:
448,192,42805,1,4,0:3:0:0:
320,192,42893,1,4,0:3:0:0:
64,192,42981,1,0,0:0:0:0:
192,192,43069,1,0,0:0:0:0:
320,192,43157,1,4,0:3:0:0:
64,192,43246,1,4,0:3:0:0:
448,192,43334,1,4,0:3:0:0:
192,192,43510,1,2,0:0:0:0:
320,192,43510,1,0,0:0:0:50:X_F#5.wav
64,192,43599,1,0,0:0:0:0:
320,192,43687,1,0,0:0:0:50:X_C#6.wav
192,192,43775,1,0,0:0:0:0:
448,192,43863,1,0,0:0:0:50:X_A#5.wav
64,192,43952,1,0,0:0:0:0:
192,192,44040,1,2,0:0:0:0:
320,192,44040,1,0,0:0:0:0:
448,192,44128,1,0,0:0:0:0:
64,192,44216,1,4,0:3:0:0:
192,192,44216,1,8,0:1:0:0:
320,192,44305,1,4,0:3:0:0:
448,192,44393,1,4,0:3:0:0:
192,192,44481,1,0,0:0:0:0:
320,192,44569,1,0,0:0:0:50:X_G#5.wav
192,192,44687,1,0,0:0:0:0:
64,192,44746,1,8,0:1:0:0:
320,192,44746,1,4,0:3:0:0:
448,192,44863,1,0,0:0:0:0:
192,192,44922,1,4,0:3:0:0:
320,192,45010,1,0,0:0:0:0:
192,192,45099,1,2,0:0:0:0:
448,192,45099,1,0,0:0:0:50:X_C#6.wav
64,192,45275,1,2,0:0:0:0:
320,192,45275,1,0,0:0:0:50:X_A#5.wav
192,192,45363,1,0,0:0:0:0:
448,192,45452,1,0,0:0:0:0:
320,192,45540,1,0,0:0:0:0:
64,192,45628,1,8,0:1:0:0:
192,192,45628,1,4,0:3:0:0:
320,192,45716,1,4,0:3:0:0:
192,192,45805,1,4,0:3:0:0:
448,192,45981,1,0,0:0:0:50:X_G#5.wav
192,192,46157,1,0,0:0:0:50:X_F#5.wav
192,192,46334,1,2,0:0:0:0:
320,192,46334,1,0,0:0:0:50:X_F#5.wav
64,192,46510,1,0,0:0:0:50:X_C#6.wav
192,192,46687,1,2,0:0:0:0:
448,192,46687,1,0,0:0:0:50:X_A#5.wav
320,192,46775,1,0,0:0:0:0:
192,192,46863,128,0,47040:0:0:0:0:
64,192,47040,1,8,0:1:0:0:
448,192,47040,1,4,0:3:0:0:
320,192,47128,1,4,0:3:0:0:
192,192,47216,1,4,0:3:0:0:
64,192,47393,1,0,0:0:0:50:X_G#5.wav
448,192,47510,1,0,0:0:0:0:
192,192,47569,1,4,0:3:0:0:
320,192,47569,1,8,0:1:0:0:
64,192,47628,1,0,0:0:0:0:
320,192,47746,1,4,0:3:0:0:
192,192,47922,1,0,0:0:0:50:X_C#6.wav
64,192,48099,1,2,0:0:0:0:
448,192,48099,128,0,48452:0:0:0:50:X_A#5.wav
192,192,48275,1,0,0:0:0:0:
64,192,48452,1,8,0:1:0:0:
320,192,48452,1,4,0:3:0:0:
192,192,48540,1,4,0:3:0:0:
448,192,48628,1,0,0:0:0:0:
320,192,48716,1,0,0:0:0:0:
192,192,48805,1,4,0:3:0:0:
448,192,48893,1,4,0:3:0:0:
64,192,48981,1,4,0:3:0:0:
64,192,49157,1,2,0:0:0:0:
448,192,49157,1,0,0:0:0:50:X_F#5.wav
320,192,49246,1,0,0:0:0:0:
192,192,49334,1,0,0:0:0:50:X_C#6.wav
64,192,49422,1,0,0:0:0:0:
320,192,49510,1,0,0:0:0:50:X_A#5.wav
448,192,49599,1,0,0:0:0:0:
64,192,49687,1,2,0:0:0:0:
192,192,49687,128,0,49863:0:0:0:0:
320,192,49863,1,4,0:3:0:0:
448,192,49863,1,8,0:1:0:0:
64,192,49952,1,4,0:3:0:0:
320,192,50040,1,4,0:3:0:0:
192,192,50128,1,0,0:0:0:0:
448,192,50216,1,0,0:0:0:50:X_G#5.wav
64,192,50334,1,0,0:0:0:0:
192,192,50393,1,4,0:3:0:0:
320,192,50393,1,8,0:1:0:0:
448,192,50510,1,0,0:0:0:0:
320,192,50569,1,4,0:3:0:0:
192,192,50657,1,0,0:0:0:0:
64,192,50746,1,2,0:0:0:0:
448,192,50746,1,0,0:0:0:50:X_C#6.wav
192,192,50922,1,2,0:0:0:0:
320,192,50922,1,0,0:0:0:50:X_A#5.wav
64,192,51010,1,0,0:0:0:0:
448,192,51099,1,0,0:0:0:0:
320,192,51187,1,0,0:0:0:0:
64,192,51275,1,4,0:3:0:0:
192,192,51275,1,8,0:1:0:0:
448,192,51363,1,4,0:3:0:0:
64,192,51452,1,4,0:3:0:0:
320,192,51628,1,0,0:0:0:50:X_G#5.wav
192,192,51805,1,0,0:0:0:50:X_F#5.wav
64,192,51981,128,0,52069:0:0:0:0:
64,192,52334,128,0,52422:0:0:0:0:
64,192,52687,128,0,52775:0:0:0:0:
64,192,53040,128,0,53128:0:0:0:0:
64,192,53393,128,0,53481:0:0:0:0:
64,192,53746,128,0,53834:0:0:0:0:
64,192,54099,128,0,54187:0:0:0:0:
64,192,54452,128,0,54540:0:0:0:0:
64,192,54805,128,0,54893:0:0:0:0:
64,192,55157,128,0,55246:0:0:0:0:
64,192,55510,128,0,55599:0:0:0:0:
64,192,55863,128,0,55952:0:0:0:0:
64,192,56216,128,0,56305:0:0:0:0:
64,192,56569,128,0,56657:0:0:0:0:
320,192,56922,128,0,57010:0:0:0:0:
320,192,57275,128,0,57363:0:0:0:0:
192,192,57628,128,0,57716:0:0:0:0:
192,192,57981,128,0,58069:0:0:0:0:
192,192,58334,128,0,58422:0:0:0:0:
192,192,58687,128,0,58775:0:0:0:0:
192,192,59040,128,0,59128:0:0:0:0:
192,192,59393,128,0,59481:0:0:0:0:
192,192,59746,128,0,59834:0:0:0:0:
192,192,60099,128,0,60187:0:0:0:0:
192,192,60452,128,0,60540:0:0:0:0:
192,192,60805,128,0,60893:0:0:0:0:
192,192,61157,128,0,61246:0:0:0:0:
192,192,61510,128,0,61599:0:0:0:0:
192,192,61863,128,0,61952:0:0:0:0:
192,192,62216,128,0,62305:0:0:0:0:
64,192,62569,128,0,62657:0:0:0:0:
64,192,62922,128,0,63010:0:0:0:0:
448,192,63275,128,0,63363:0:0:0:0:
448,192,63628,128,0,63716:0:0:0:0:
448,192,63981,128,0,64069:0:0:0:0:
448,192,64334,128,0,64422:0:0:0:0:
448,192,64687,128,0,64775:0:0:0:0:
448,192,65040,128,0,65128:0:0:0:0:
448,192,65393,128,0,65481:0:0:0:0:
448,192,65746,128,0,65834:0:0:0:0:
448,192,66099,128,0,66187:0:0:0:0:
448,192,66452,128,0,66540:0:0:0:0:
448,192,66805,128,0,66893:0:0:0:0:
448,192,67157,128,0,67246:0:0:0:0:
448,192,67510,128,0,67599:0:0:0:0:
448,192,67863,128,0,67952:0:0:0:0:
192,192,68216,128,0,68305:0:0:0:0:
192,192,68569,128,0,68657:0:0:0:0:
320,192,68922,128,0,69010:0:0:0:0:
320,192,69275,128,0,69363:0:0:0:0:
320,192,69628,128,0,69716:0:0:0:0:
320,192,69981,128,0,70069:0:0:0:0:
320,192,70334,128,0,70422:0:0:0:0:
320,192,70687,128,0,70775:0:0:0:0:
320,192,71040,128,0,71128:0:0:0:0:
320,192,71393,128,0,71481:0:0:0:0:
320,192,71746,128,0,71834:0:0:0:0:
320,192,72099,128,0,72187:0:0:0:0:
320,192,72452,128,0,72540:0:0:0:0:
320,192,72805,128,0,72893:0:0:0:0:
320,192,73157,128,0,73246:0:0:0:0:
320,192,73510,128,0,73599:0:0:0:0:
192,192,73863,128,0,73952:0:0:0:0:
192,192,74216,128,0,74305:0:0:0:50:X_G#5.wav
64,192,74393,1,0,0:0:0:50:X_F#5.wav
64,192,74569,1,2,0:0:0:0:
448,192,74569,1,0,0:0:0:50:X_F#5.wav
320,192,74746,1,0,0:0:0:50:X_C#6.wav
64,192,74922,1,2,0:0:0:0:
192,192,74922,1,0,0:0:0:50:X_A#5.wav
320,192,75275,1,2,0:0:0:0:
448,192,75275,1,0,0:0:0:0:
192,192,75628,1,2,0:0:0:0:
320,192,75628,1,0,0:0:0:50:X_G#5.wav
448,192,75805,1,0,0:0:0:50:X_F#5.wav
192,192,75981,1,2,0:0:0:0:
448,192,75981,1,0,0:0:0:50:X_F#5.wav
320,192,76157,1,0,0:0:0:50:X_C#6.wav
64,192,76334,1,2,0:0:0:0:
192,192,76334,1,0,0:0:0:50:X_A#5.wav
64,192,76687,1,2,0:0:0:0:
448,192,76687,1,0,0:0:0:0:
192,192,77040,1,2,0:0:0:0:
448,192,77040,1,0,0:0:0:50:X_G#5.wav
320,192,77216,1,0,0:0:0:50:X_F#5.wav
64,192,77393,1,2,0:0:0:0:
320,192,77393,1,0,0:0:0:50:X_F#5.wav
192,192,77569,1,0,0:0:0:50:X_C#6.wav
64,192,77746,1,2,0:0:0:0:
448,192,77746,1,0,0:0:0:50:X_A#5.wav
64,192,78099,1,2,0:0:0:0:
320,192,78099,1,0,0:0:0:0:
320,192,78452,1,2,0:0:0:0:
448,192,78452,1,0,0:0:0:50:X_G#5.wav
192,192,78628,1,0,0:0:0:50:X_F#5.wav
64,192,78805,1,2,0:0:0:0:
192,192,78805,1,0,0:0:0:50:X_F#5.wav
448,192,78981,1,0,0:0:0:50:X_C#6.wav
192,192,79157,1,2,0:0:0:0:
320,192,79157,1,0,0:0:0:50:X_A#5.wav
64,192,79510,1,2,0:0:0:0:
448,192,79510,1,0,0:0:0:0:
64,192,79863,1,2,0:0:0:0:
192,192,79863,1,0,0:0:0:50:X_G#5.wav
320,192,80040,1,0,0:0:0:50:X_F#5.wav
192,192,80216,1,2,0:0:0:0:
448,192,80216,1,0,0:0:0:50:X_C#6.wav
64,192,80393,1,0,0:0:0:50:X_F5.wav
320,192,80569,1,2,0:0:0:0:
448,192,80569,1,0,0:0:0:50:X_F#5.wav
64,192,80922,1,2,0:0:0:0:
192,192,80922,1,0,0:0:0:0:
192,192,81275,1,2,0:0:0:0:
320,192,81275,1,0,0:0:0:50:X_G#5.wav
64,192,81452,1,0,0:0:0:50:X_F#5.wav
320,192,81628,1,2,0:0:0:0:
448,192,81628,1,0,0:0:0:50:X_C#6.wav
192,192,81805,1,0,0:0:0:50:X_F5.wav
64,192,81981,1,2,0:0:0:0:
448,192,81981,1,0,0:0:0:50:X_F#5.wav
192,192,82334,1,2,0:0:0:0:
320,192,82334,1,0,0:0:0:0:
64,192,82687,1,2,0:0:0:0:
192,192,82687,1,0,0:0:0:50:X_G#5.wav
448,192,82863,1,0,0:0:0:50:X_F#5.wav
192,192,83040,1,2,0:0:0:0:
320,192,83040,1,0,0:0:0:50:X_C#6.wav
64,192,83216,1,0,0:0:0:50:X_F5.wav
320,192,83393,1,2,0:0:0:0:
448,192,83393,1,0,0:0:0:50:X_F#5.wav
192,192,83746,1,2,0:0:0:0:
448,192,83746,1,0,0:0:0:0:
64,192,84099,1,2,0:0:0:0:
320,192,84099,1,0,0:0:0:50:X_G#5.wav
448,192,84275,1,0,0:0:0:50:X_F#5.wav
64,192,84452,1,2,0:0:0:0:
192,192,84452,1,0,0:0:0:50:X_C#6.wav
448,192,84628,1,0,0:0:0:50:X_F5.wav
192,192,84805,1,2,0:0:0:0:
320,192,84805,1,0,0:0:0:50:X_F#5.wav
64,192,84981,1,0,0:0:0:50:X_F6.wav
320,192,85157,1,2,0:0:0:0:
448,192,85157,1,0,0:0:0:50:X_F#6.wav
192,192,85246,1,2,0:0:0:0:
64,192,85334,1,0,0:0:0:50:X_F6.wav
192,192,85510,1,2,0:0:0:0:
448,192,85510,1,0,0:0:0:50:X_C#6.wav
320,192,85555,1,2,0:0:0:0:
64,192,85687,1,2,0:0:0:0:
192,192,85687,1,0,0:0:0:50:X_G#5.wav
320,192,85731,1,2,0:0:0:0:
64,192,85863,1,2,0:0:0:0:
448,192,85863,1,0,0:0:0:50:X_F#5.wav
192,192,86040,1,2,0:0:0:0:
448,192,86040,1,0,0:0:0:50:X_C#6.wav
192,192,86216,1,2,0:0:0:0:
320,192,86216,1,0,0:0:0:50:X_A#5.wav
64,192,86393,1,2,0:0:0:0:
320,192,86393,1,0,0:0:0:0:
192,192,86569,1,2,0:0:0:0:
448,192,86569,1,0,0:0:0:0:
64,192,86746,1,2,0:0:0:0:
448,192,86746,1,0,0:0:0:0:
64,192,86922,1,2,0:0:0:0:
320,192,86922,1,0,0:0:0:50:X_G#5.wav
192,192,87099,1,2,0:0:0:0:
320,192,87099,1,0,0:0:0:50:X_F#5.wav
192,192,87275,1,2,0:0:0:0:
448,192,87275,1,0,0:0:0:50:X_F#5.wav
320,192,87452,1,2,0:0:0:0:
448,192,87452,1,0,0:0:0:50:X_C#6.wav
64,192,87628,1,2,0:0:0:0:
320,192,87628,1,0,0:0:0:50:X_A#5.wav
64,192,87805,1,2,0:0:0:0:
192,192,87805,1,0,0:0:0:0:
192,192,87981,1,2,0:0:0:0:
448,192,87981,1,0,0:0:0:0:
320,192,88157,1,2,0:0:0:0:
448,192,88157,1,0,0:0:0:0:
64,192,88334,1,2,0:0:0:0:
320,192,88334,1,0,0:0:0:50:X_G#5.wav
64,192,88510,1,2,0:0:0:0:
192,192,88510,1,0,0:0:0:50:X_F#5.wav
192,192,88687,1,2,0:0:0:0:
448,192,88687,1,0,0:0:0:50:X_F#5.wav
64,192,88863,1,2,0:0:0:0:
448,192,88863,1,0,0:0:0:50:X_C#6.wav
64,192,89040,1,2,0:0:0:0:
192,192,89040,1,0,0:0:0:50:X_A#5.wav
192,192,89216,1,2,0:0:0:0:
320,192,89216,1,0,0:0:0:0:
320,192,89393,1,2,0:0:0:0:
448,192,89393,1,0,0:0:0:0:
64,192,89569,1,2,0:0:0:0:
448,192,89569,1,0,0:0:0:0:
64,192,89746,1,2,0:0:0:0:
320,192,89746,1,0,0:0:0:50:X_G#5.wav
192,192,89922,1,2,0:0:0:0:
320,192,89922,1,0,0:0:0:50:X_F#5.wav
192,192,90099,1,2,0:0:0:0:
448,192,90099,1,0,0:0:0:50:X_F#5.wav
64,192,90275,1,2,0:0:0:0:
448,192,90275,1,0,0:0:0:50:X_C#6.wav
192,192,90452,1,2,0:0:0:0:
320,192,90452,1,0,0:0:0:50:X_A#5.wav
64,192,90628,1,2,0:0:0:0:
320,192,90628,1,0,0:0:0:0:
64,192,90805,1,2,0:0:0:0:
448,192,90805,1,0,0:0:0:0:
192,192,90981,1,2,0:0:0:0:
448,192,90981,1,0,0:0:0:0:
192,192,91157,1,2,0:0:0:0:
320,192,91157,1,0,0:0:0:50:X_G#5.wav
64,192,91334,1,2,0:0:0:0:
320,192,91334,1,0,0:0:0:50:X_F#5.wav
192,192,91510,1,2,0:0:0:0:
448,192,91510,1,0,0:0:0:50:X_C#6.wav
320,192,91599,1,2,0:0:0:0:
64,192,91687,1,2,0:0:0:0:
192,192,91775,1,2,0:0:0:0:
320,192,91863,1,2,0:0:0:0:
64,192,91952,1,2,0:0:0:0:
448,192,92040,1,2,0:0:0:0:
320,192,92128,1,2,0:0:0:0:
192,192,92216,1,2,0:0:0:0:
64,192,92305,1,2,0:0:0:0:
320,192,92393,1,2,0:0:0:0:
448,192,92481,1,2,0:0:0:0:
192,192,92569,1,2,0:0:0:0:
320,192,92657,1,2,0:0:0:0:
64,192,92746,1,2,0:0:0:0:
192,192,92834,1,2,0:0:0:0:
448,192,92922,1,2,0:0:0:0:
64,192,93010,1,2,0:0:0:0:
448,192,93099,1,2,0:0:0:0:
64,192,93187,1,2,0:0:0:0:
448,192,93275,1,2,0:0:0:0:
64,192,93363,1,2,0:0:0:0:
448,192,93452,1,2,0:0:0:0:
64,192,93540,1,2,0:0:0:0:
320,192,93628,128,2,94334:0:0:0:0:
192,192,94334,128,2,95746:0:0:0:0:
448,192,95746,128,0,96010:0:0:0:0:
448,192,96099,1,0,0:0:0:0:
192,192,96334,1,2,0:1:0:0:
320,192,96393,1,2,0:1:0:0:
64,192,96452,1,2,0:1:0:0:
448,192,96452,1,0,0:0:0:0:
192,192,96628,1,8,0:3:0:0:
320,192,96628,1,0,0:0:0:0:
64,192,96805,1,2,0:3:0:0:
320,192,96805,1,0,0:0:0:0:
192,192,96981,1,2,0:3:0:0:
448,192,96981,1,0,0:0:0:0:
64,192,97157,128,4,97393:0:0:0:0:
192,192,97157,1,2,0:0:0:0:
320,192,97157,128,0,97422:0:0:0:0:
64,192,97510,128,0,97746:0:0:0:0:
320,192,97510,128,0,97775:0:0:0:0:
64,192,97863,128,2,98099:0:0:0:0:
320,192,97863,128,8,98128:0:0:0:0:
448,192,97863,1,0,0:0:0:0:
64,192,98216,128,0,98452:0:0:0:0:
320,192,98216,128,0,98481:0:0:0:0:
192,192,98569,128,2,98805:0:0:0:0:
448,192,98569,128,0,98834:0:0:0:0:
192,192,98922,128,0,99157:0:0:0:0:
448,192,98922,128,0,99187:0:0:0:0:
64,192,99275,1,2,0:0:0:0:
192,192,99275,128,8,99510:0:0:0:0:
448,192,99275,128,0,99540:0:0:0:0:
192,192,99628,128,0,99863:0:0:0:0:
448,192,99628,128,0,99893:0:0:0:0:
192,192,99981,128,2,100216:0:0:0:0:
320,192,99981,128,0,100246:0:0:0:0:
192,192,100334,128,0,100569:0:0:0:0:
320,192,100334,128,0,100599:0:0:0:0:
64,192,100687,1,2,0:0:0:0:
192,192,100687,128,8,100922:0:0:0:0:
320,192,100687,128,0,100952:0:0:0:0:
192,192,101040,128,0,101275:0:0:0:0:
320,192,101040,128,0,101305:0:0:0:0:
192,192,101393,128,2,101657:0:0:0:0:
448,192,101393,128,0,101628:0:0:0:0:
192,192,101746,128,0,102010:0:0:0:0:
448,192,101746,128,0,101981:0:0:0:0:
64,192,102099,128,8,102334:0:0:0:0:
192,192,102099,1,2,0:0:0:0:
320,192,102099,128,0,102363:0:0:0:0:
64,192,102452,128,0,102687:0:0:0:0:
320,192,102452,128,0,102716:0:0:0:0:
64,192,102805,128,2,103069:0:0:0:0:
320,192,102805,128,0,103040:0:0:0:0:
64,192,103157,128,0,103422:0:0:0:0:
320,192,103157,128,0,103393:0:0:0:0:
64,192,103510,128,8,103775:0:0:0:0:
192,192,103510,1,2,0:0:0:0:
320,192,103510,128,0,103746:0:0:0:0:
64,192,103863,128,0,104128:0:0:0:0:
320,192,103863,128,0,104099:0:0:0:0:
64,192,104216,128,2,104481:0:0:0:0:
448,192,104216,128,0,104452:0:0:0:0:
64,192,104569,128,0,104834:0:0:0:0:
448,192,104569,128,0,104805:0:0:0:0:
64,192,104922,128,8,105187:0:0:0:0:
320,192,104922,1,2,0:0:0:0:
448,192,104922,128,0,105157:0:0:0:0:
64,192,105275,128,0,105540:0:0:0:0:
448,192,105275,128,0,105510:0:0:0:0:
192,192,105628,128,2,105863:0:0:0:0:
448,192,105628,128,0,105893:0:0:0:0:
192,192,105981,128,0,106216:0:0:0:0:
448,192,105981,128,0,106246:0:0:0:0:
64,192,106334,1,8,0:0:0:0:
192,192,106334,128,2,106569:0:0:0:0:
448,192,106334,128,0,106599:0:0:0:0:
192,192,106687,128,0,106922:0:0:0:0:
448,192,106687,128,0,106952:0:0:0:0:
64,192,107040,128,2,107275:0:0:0:0:
320,192,107040,128,0,107305:0:0:0:0:
64,192,107393,128,0,107628:0:0:0:0:
320,192,107393,128,0,107657:0:0:0:0:
192,192,107746,128,8,107981:0:0:0:0:
320,192,107746,1,2,0:0:0:0:
448,192,107746,128,0,108010:0:0:0:0:
192,192,108099,128,0,108334:0:0:0:0:
448,192,108099,128,0,108363:0:0:0:0:
64,192,108452,1,2,0:0:0:0:
192,192,108452,1,4,0:0:0:0:
320,192,108452,1,0,0:0:0:0:
448,192,108540,1,0,0:0:0:0:
192,192,108628,1,0,0:0:0:0:
64,192,108716,1,0,0:0:0:0:
320,192,108805,1,0,0:0:0:0:
448,192,108893,1,0,0:0:0:0:
64,192,108981,1,0,0:0:0:0:
192,192,109069,1,0,0:0:0:0:
320,192,109157,1,8,0:0:0:0:
448,192,109157,1,2,0:0:0:0:
64,192,109334,1,0,0:0:0:0:
320,192,109422,1,0,0:0:0:0:
192,192,109510,1,0,0:0:0:0:
448,192,109599,1,0,0:0:0:0:
320,192,109687,1,0,0:0:0:0:
64,192,109775,1,0,0:0:0:0:
192,192,109863,1,2,0:0:0:0:
448,192,109863,1,0,0:0:0:0:
320,192,109952,1,0,0:0:0:0:
192,192,110040,1,0,0:0:0:0:
448,192,110128,1,0,0:0:0:0:
320,192,110216,1,0,0:0:0:0:
64,192,110305,1,0,0:0:0:0:
192,192,110393,1,0,0:0:0:0:
320,192,110481,1,0,0:0:0:0:
64,192,110569,1,2,0:0:0:0:
448,192,110569,1,8,0:0:0:0:
192,192,110746,1,0,0:0:0:0:
320,192,110834,1,0,0:0:0:0:
64,192,110922,1,0,0:0:0:0:
448,192,111010,1,0,0:0:0:0:
320,192,111099,1,0,0:0:0:0:
192,192,111187,1,0,0:0:0:0:
64,192,111275,1,2,0:0:0:0:
320,192,111275,1,0,0:0:0:0:
448,192,111363,1,0,0:0:0:0:
192,192,111452,1,0,0:0:0:0:
320,192,111540,1,0,0:0:0:0:
64,192,111628,1,0,0:0:0:0:
192,192,111716,1,0,0:0:0:0:
448,192,111805,1,0,0:0:0:0:
320,192,111893,1,0,0:0:0:0:
64,192,111981,1,8,0:0:0:0:
192,192,111981,1,2,0:0:0:0:
448,192,112157,1,0,0:0:0:0:
192,192,112246,1,0,0:0:0:0:
320,192,112334,1,0,0:0:0:0:
64,192,112422,1,0,0:0:0:0:
192,192,112510,1,0,0:0:0:0:
448,192,112599,1,0,0:0:0:0:
192,192,112687,1,2,0:0:0:0:
320,192,112687,1,0,0:0:0:0:
64,192,112775,1,0,0:0:0:0:
448,192,112863,1,0,0:0:0:0:
192,192,112952,1,0,0:0:0:0:
320,192,113040,1,0,0:0:0:0:
448,192,113128,1,0,0:0:0:0:
64,192,113216,1,0,0:0:0:0:
320,192,113305,1,0,0:0:0:0:
192,192,113393,1,8,0:0:0:0:
448,192,113393,1,2,0:0:0:0:
64,192,113569,1,0,0:0:0:0:
192,192,113657,1,0,0:0:0:0:
320,192,113746,1,0,0:0:0:0:
448,192,113834,1,0,0:0:0:0:
192,192,113922,1,0,0:0:0:0:
64,192,114010,1,0,0:0:0:0:
320,192,114099,1,2,0:0:0:0:
448,192,114099,1,0,0:0:0:0:
192,192,114187,1,0,0:0:0:0:
448,192,114275,1,0,0:0:0:0:
320,192,114363,1,0,0:0:0:0:
64,192,114452,1,0,0:0:0:0:
192,192,114540,1,0,0:0:0:0:
448,192,114628,1,0,0:0:0:0:
64,192,114716,1,0,0:0:0:0:
192,192,114805,1,8,0:0:0:0:
320,192,114805,1,2,0:0:0:0:
448,192,114981,1,0,0:0:0:0:
192,192,115069,1,0,0:0:0:0:
320,192,115157,1,0,0:0:0:0:
64,192,115246,1,0,0:0:0:0:
192,192,115334,1,0,0:0:0:0:
448,192,115422,1,0,0:0:0:0:
64,192,115510,1,2,0:0:0:0:
320,192,115510,1,0,0:0:0:0:
192,192,115599,1,0,0:0:0:0:
448,192,115687,1,0,0:0:0:0:
320,192,115775,1,0,0:0:0:0:
64,192,115863,1,0,0:0:0:0:
192,192,115952,1,0,0:0:0:0:
320,192,116040,1,0,0:0:0:0:
448,192,116128,1,0,0:0:0:0:
64,192,116216,1,8,0:0:0:0:
192,192,116216,1,2,0:0:0:0:
320,192,116393,1,0,0:0:0:0:
192,192,116481,1,0,0:0:0:0:
448,192,116569,1,0,0:0:0:0:
320,192,116657,1,0,0:0:0:0:
192,192,116746,1,0,0:0:0:0:
64,192,116834,1,0,0:0:0:0:
320,192,116922,1,2,0:0:0:0:
448,192,116922,1,0,0:0:0:0:
64,192,117628,1,0,0:0:0:60:P_F#7.wav
320,192,117981,1,0,0:0:0:60:P_F7.wav
192,192,118687,1,0,0:0:0:60:P_C#7.wav
64,192,119040,1,8,0:0:0:0:
448,192,119040,1,0,0:0:0:0:
64,192,119216,1,8,0:3:0:0:
192,192,119216,1,0,0:0:0:0:
192,192,119393,1,2,0:3:0:0:
320,192,119393,1,0,0:0:0:0:
320,192,119569,1,2,0:3:0:0:
448,192,119569,1,0,0:0:0:0:
64,192,119746,1,2,0:0:0:0:
192,192,119746,1,4,0:0:0:0:
448,192,119746,1,0,0:0:0:0:
320,192,119834,1,0,0:0:0:0:
64,192,119922,1,0,0:0:0:0:
192,192,120010,1,0,0:0:0:0:
320,192,120099,1,0,0:0:0:60:P_C#6.wav
448,192,120099,1,0,0:0:0:0:
64,192,120187,1,0,0:0:0:0:
448,192,120275,1,0,0:0:0:0:
320,192,120363,1,0,0:0:0:0:
64,192,120452,1,10,0:0:0:0:
192,192,120452,128,0,120805:0:0:0:60:P_A#6.wav
64,192,120805,1,0,0:0:0:60:P_A#6.wav
448,192,120805,1,0,0:0:0:0:
320,192,120893,1,0,0:0:0:0:
192,192,120981,1,0,0:0:0:0:
448,192,121069,1,0,0:0:0:0:
64,192,121157,1,2,0:0:0:0:
320,192,121157,1,0,0:0:0:60:P_C#7.wav
192,192,121246,1,0,0:0:0:0:
448,192,121334,1,0,0:0:0:0:
320,192,121422,1,0,0:0:0:0:
192,192,121510,1,0,0:0:0:60:P_F#7.wav
448,192,121510,1,0,0:0:0:0:
64,192,121599,1,0,0:0:0:0:
320,192,121687,1,0,0:0:0:0:
192,192,121775,1,0,0:0:0:0:
64,192,121863,1,10,0:0:0:0:
448,192,121863,128,0,122216:0:0:0:60:P_F7.wav
64,192,122216,1,0,0:0:0:0:
192,192,122305,1,0,0:0:0:0:
320,192,122393,1,0,0:0:0:60:P_A#7.wav
448,192,122393,1,0,0:0:0:0:
192,192,122481,1,0,0:0:0:0:
64,192,122569,1,2,0:0:0:0:
448,192,122569,1,0,0:0:0:0:
320,192,122657,1,0,0:0:0:0:
192,192,122746,1,0,0:0:0:0:
448,192,122834,1,0,0:0:0:0:
64,192,122922,1,0,0:0:0:0:
192,192,123010,1,0,0:0:0:0:
448,192,123099,1,0,0:0:0:0:
320,192,123187,1,0,0:0:0:0:
64,192,123275,1,8,0:0:0:0:
192,192,123275,128,2,123628:0:0:0:0:
64,192,123628,1,0,0:0:0:0:
320,192,123716,1,0,0:0:0:0:
192,192,123805,1,0,0:0:0:0:
320,192,123893,1,0,0:0:0:0:
64,192,123981,1,2,0:0:0:0:
448,192,123981,1,0,0:0:0:0:
192,192,124069,1,0,0:0:0:0:
320,192,124157,1,0,0:0:0:0:
64,192,124246,1,0,0:0:0:0:
448,192,124334,1,0,0:0:0:0:
320,192,124422,1,0,0:0:0:0:
448,192,124510,1,0,0:0:0:0:
192,192,124599,1,0,0:0:0:0:
64,192,124687,1,2,0:0:0:0:
320,192,124687,1,8,0:0:0:0:
192,192,124863,1,0,0:0:0:60:P_F#7.wav
448,192,124863,1,0,0:0:0:0:
64,192,125040,1,0,0:0:0:60:P_F7.wav
192,192,125040,1,0,0:0:0:0:
64,192,125216,1,0,0:0:0:60:P_C#7.wav
320,192,125216,1,0,0:0:0:0:
320,192,125393,1,2,0:0:0:0:
448,192,125393,1,0,0:0:0:60:P_F#6.wav
192,192,125569,1,0,0:0:0:60:P_G#6.wav
320,192,125569,1,0,0:0:0:0:
64,192,125746,1,0,0:0:0:60:P_A#6.wav
192,192,125746,1,0,0:0:0:0:
448,192,125834,1,0,0:0:0:0:
320,192,125922,1,0,0:0:0:0:
192,192,126010,1,0,0:0:0:0:
64,192,126099,128,10,126452:0:0:0:0:
448,192,126099,1,0,0:0:0:60:P_F7.wav
192,192,126452,1,0,0:0:0:60:P_F#6.wav
448,192,126452,1,0,0:0:0:0:
64,192,126628,1,0,0:0:0:60:P_G#6.wav
320,192,126628,1,0,0:0:0:0:
64,192,126805,1,2,0:0:0:0:
448,192,126805,1,0,0:0:0:60:P_A#6.wav
192,192,126893,1,0,0:0:0:0:
448,192,126981,1,0,0:0:0:0:
320,192,127069,1,0,0:0:0:0:
64,192,127157,1,0,0:0:0:60:P_F7.wav
192,192,127157,1,0,0:0:0:0:
320,192,127246,1,0,0:0:0:0:
448,192,127334,1,0,0:0:0:0:
192,192,127422,1,0,0:0:0:0:
64,192,127510,128,10,127863:0:0:0:0:
320,192,127510,1,0,0:0:0:60:P_F#6.wav
320,192,127863,1,0,0:0:0:0:
192,192,127952,1,0,0:0:0:0:
64,192,128040,1,0,0:0:0:60:P_F7.wav
448,192,128040,1,0,0:0:0:0:
320,192,128128,1,0,0:0:0:0:
64,192,128216,1,2,0:0:0:0:
192,192,128216,1,0,0:0:0:0:
448,192,128305,1,0,0:0:0:0:
320,192,128393,1,0,0:0:0:0:
64,192,128481,1,0,0:0:0:0:
192,192,128569,1,0,0:0:0:0:
320,192,128657,1,0,0:0:0:0:
448,192,128746,1,0,0:0:0:0:
192,192,128834,1,0,0:0:0:0:
64,192,128922,1,2,0:0:0:0:
320,192,128922,128,8,129275:0:0:0:0:
192,192,129275,1,0,0:0:0:0:
448,192,129363,1,0,0:0:0:0:
64,192,129452,1,0,0:0:0:0:
320,192,129540,1,0,0:0:0:0:
192,192,129628,1,2,0:0:0:0:
448,192,129628,1,0,0:0:0:60:P_F#7.wav
320,192,129805,1,0,0:0:0:60:P_F7.wav
448,192,129805,1,0,0:0:0:0:
64,192,129981,1,0,0:0:0:60:P_C#7.wav
192,192,129981,1,0,0:0:0:0:
320,192,130069,1,0,0:0:0:0:
448,192,130157,1,0,0:0:0:0:
192,192,130246,1,0,0:0:0:0:
64,192,130334,1,8,0:0:0:0:
448,192,130334,128,2,130687:0:0:0:0:
320,192,130687,1,0,0:0:0:0:
192,192,130775,1,0,0:0:0:0:
64,192,130863,1,0,0:0:0:0:
320,192,130952,1,0,0:0:0:0:
64,192,131040,1,2,0:0:0:0:
192,192,131040,1,4,0:0:0:0:
448,192,131040,1,0,0:0:0:0:
320,192,131128,1,0,0:0:0:0:
192,192,131216,1,0,0:0:0:0:
64,192,131305,1,0,0:0:0:0:
320,192,131393,1,0,0:0:0:60:P_C#6.wav
448,192,131393,1,0,0:0:0:0:
192,192,131481,1,0,0:0:0:0:
320,192,131569,1,0,0:0:0:0:
448,192,131657,1,0,0:0:0:0:
64,192,131746,1,10,0:0:0:0:
192,192,131746,128,0,132099:0:0:0:60:P_A#6.wav
64,192,132099,1,0,0:0:0:60:P_A#6.wav
448,192,132099,1,0,0:0:0:0:
320,192,132187,1,0,0:0:0:0:
192,192,132275,1,0,0:0:0:0:
320,192,132363,1,0,0:0:0:0:
192,192,132452,1,2,0:0:0:0:
448,192,132452,1,0,0:0:0:60:P_C#7.wav
64,192,132540,1,0,0:0:0:0:
320,192,132628,1,0,0:0:0:0:
192,192,132716,1,0,0:0:0:0:
320,192,132805,1,0,0:0:0:60:P_F#7.wav
448,192,132805,1,0,0:0:0:0:
64,192,132893,1,0,0:0:0:0:
192,192,132981,1,0,0:0:0:0:
320,192,133069,1,0,0:0:0:0:
64,192,133157,1,2,0:0:0:0:
448,192,133157,1,8,0:0:0:0:
64,192,133334,1,0,0:0:0:60:P_F7.wav
192,192,133334,1,0,0:0:0:0:
320,192,133510,1,0,0:0:0:60:P_A#6.wav
448,192,133510,1,0,0:0:0:0:
192,192,133599,1,0,0:0:0:0:
64,192,133687,1,0,0:0:0:0:
320,192,133775,1,0,0:0:0:0:
192,192,133863,1,2,0:0:0:0:
448,192,133863,1,0,0:0:0:0:
64,192,133952,1,0,0:0:0:0:
320,192,134040,1,0,0:0:0:0:
448,192,134128,1,0,0:0:0:0:
192,192,134216,1,0,0:0:0:0:
320,192,134305,1,0,0:0:0:0:
448,192,134393,1,0,0:0:0:0:
64,192,134481,1,0,0:0:0:0:
192,192,134569,128,2,134922:0:0:0:0:
320,192,134569,1,8,0:0:0:0:
64,192,134922,1,0,0:0:0:60:P_F#6.wav
448,192,134922,1,0,0:0:0:0:
320,192,135010,1,0,0:0:0:60:P_G#6.wav
64,192,135099,1,0,0:0:0:60:P_F#6.wav
320,192,135187,1,0,0:0:0:0:
192,192,135275,1,2,0:0:0:0:
448,192,135275,1,0,0:0:0:0:
64,192,135363,1,0,0:0:0:0:
320,192,135452,1,0,0:0:0:0:
192,192,135540,1,0,0:0:0:0:
64,192,135628,1,0,0:0:0:0:
448,192,135716,1,0,0:0:0:0:
320,192,135805,1,0,0:0:0:0:
192,192,135893,1,0,0:0:0:0:
64,192,135981,1,2,0:0:0:0:
448,192,135981,1,8,0:0:0:0:
320,192,136157,1,0,0:0:0:60:P_F#7.wav
448,192,136157,1,0,0:0:0:0:
64,192,136334,1,0,0:0:0:60:P_F7.wav
320,192,136334,1,0,0:0:0:0:
64,192,136510,1,0,0:0:0:60:P_C#7.wav
192,192,136510,1,0,0:0:0:0:
192,192,136687,1,2,0:0:0:0:
448,192,136687,1,0,0:0:0:60:P_F#6.wav
64,192,136863,1,0,0:0:0:60:P_G#6.wav
320,192,136863,1,0,0:0:0:0:
64,192,137040,1,0,0:0:0:60:P_A#6.wav
448,192,137040,1,0,0:0:0:0:
320,192,137128,1,0,0:0:0:0:
192,192,137216,1,0,0:0:0:0:
448,192,137305,1,0,0:0:0:0:
64,192,137393,1,10,0:0:0:0:
320,192,137393,128,0,137746:0:0:0:60:P_F7.wav
64,192,137746,1,0,0:0:0:60:P_F#6.wav
192,192,137746,1,0,0:0:0:0:
320,192,137922,1,0,0:0:0:60:P_G#6.wav
448,192,137922,1,0,0:0:0:0:
192,192,138099,1,2,0:0:0:0:
448,192,138099,1,0,0:0:0:60:P_A#6.wav
320,192,138187,1,0,0:0:0:0:
64,192,138275,1,0,0:0:0:0:
192,192,138363,1,0,0:0:0:0:
320,192,138452,1,0,0:0:0:60:P_F7.wav
448,192,138452,1,0,0:0:0:0:
192,192,138540,1,0,0:0:0:0:
320,192,138628,1,0,0:0:0:0:
448,192,138716,1,0,0:0:0:0:
64,192,138805,128,10,139157:0:0:0:0:
192,192,138805,1,0,0:0:0:60:P_F#6.wav
320,192,139157,1,0,0:0:0:0:
448,192,139246,1,0,0:0:0:0:
64,192,139334,1,0,0:0:0:60:P_F6.wav
192,192,139334,1,0,0:0:0:0:
448,192,139422,1,0,0:0:0:0:
64,192,139510,1,2,0:0:0:0:
320,192,139510,1,0,0:0:0:0:
64,192,139863,1,0,0:0:0:0:
320,192,139863,1,0,0:0:0:0:
64,192,140040,1,0,0:0:0:0:
320,192,140040,1,0,0:0:0:0:
64,192,140216,1,0,0:0:0:0:
320,192,140216,1,0,0:0:0:0:
64,192,140569,1,0,0:0:0:0:
320,192,140569,1,0,0:0:0:0:
64,192,140746,1,0,0:0:0:0:
320,192,140746,1,0,0:0:0:0:
64,192,140922,1,0,0:0:0:60:P_F#7.wav
448,192,140922,1,0,0:0:0:0:
64,192,141099,1,0,0:0:0:60:P_F7.wav
320,192,141099,1,0,0:0:0:0:
64,192,141275,1,0,0:0:0:60:P_C#7.wav
448,192,141275,1,0,0:0:0:0:
64,192,141628,1,0,0:0:0:0:
448,192,141628,1,0,0:0:0:0:
64,192,141981,1,0,0:0:0:0:
320,192,141981,1,0,0:0:0:0:
64,192,142157,1,0,0:0:0:0:
320,192,142157,1,0,0:0:0:0:
192,192,142334,1,4,0:0:0:0:
320,192,142334,1,2,0:0:0:0:
448,192,142334,1,0,0:0:0:0:
320,192,142510,1,0,0:0:0:0:
320,192,142687,1,0,0:0:0:0:
320,192,142863,1,0,0:0:0:0:
64,192,143040,1,8,0:0:0:0:
320,192,143040,1,0,0:0:0:0:
320,192,143216,1,0,0:0:0:0:
320,192,143393,1,0,0:0:0:0:
320,192,143569,1,0,0:0:0:0:
192,192,143746,1,2,0:0:0:0:
320,192,143746,1,0,0:0:0:0:
320,192,143922,1,0,0:0:0:0:
320,192,144099,1,0,0:0:0:0:
320,192,144275,1,0,0:0:0:0:
64,192,144452,1,8,0:0:0:0:
320,192,144452,1,0,0:0:0:0:
320,192,144628,1,0,0:0:0:0:
320,192,144805,1,0,0:0:0:0:
320,192,144981,1,0,0:0:0:0:
64,192,145157,1,2,0:0:0:0:
192,192,145157,1,0,0:0:0:0:
64,192,145334,1,0,0:0:0:0:
64,192,145510,1,0,0:0:0:0:
64,192,145687,1,0,0:0:0:0:
64,192,145863,1,8,0:0:0:0:
448,192,145863,1,0,0:0:0:0:
64,192,146040,1,0,0:0:0:0:
64,192,146216,1,0,0:0:0:0:
64,192,146393,1,0,0:0:0:0:
64,192,146569,1,2,0:0:0:0:
192,192,146569,1,0,0:0:0:0:
64,192,146746,1,0,0:0:0:0:
64,192,146922,1,0,0:0:0:0:
64,192,147099,1,0,0:0:0:0:
64,192,147275,1,8,0:0:0:0:
448,192,147275,1,0,0:0:0:0:
448,192,147452,1,0,0:0:0:0:
448,192,147628,1,0,0:0:0:0:
448,192,147805,1,0,0:0:0:0:
192,192,147981,1,2,0:0:0:0:
448,192,147981,1,0,0:0:0:0:
192,192,148157,1,0,0:0:0:0:
192,192,148334,1,0,0:0:0:0:
192,192,148510,1,0,0:0:0:0:
192,192,148687,1,8,0:0:0:0:
320,192,148687,1,0,0:0:0:0:
192,192,148863,1,0,0:0:0:0:
192,192,149040,1,0,0:0:0:0:
192,192,149216,1,0,0:0:0:0:
192,192,149393,1,2,0:0:0:0:
448,192,149393,1,0,0:0:0:0:
192,192,149569,1,0,0:0:0:0:
192,192,149746,1,0,0:0:0:0:
192,192,149922,1,0,0:0:0:0:
192,192,150099,1,8,0:0:0:0:
320,192,150099,1,0,0:0:0:0:
192,192,150275,1,0,0:0:0:0:
192,192,150452,1,0,0:0:0:0:
192,192,150628,1,0,0:0:0:0:
192,192,150805,1,2,0:0:0:0:
320,192,150805,1,0,0:0:0:0:
320,192,150981,1,0,0:0:0:0:
320,192,151157,1,0,0:0:0:0:
320,192,151334,1,0,0:0:0:0:
64,192,151510,1,8,0:0:0:0:
320,192,151510,1,0,0:0:0:0:
320,192,151687,1,0,0:0:0:0:
320,192,151863,1,0,0:0:0:0:
320,192,152040,1,0,0:0:0:0:
192,192,152216,1,2,0:0:0:0:
320,192,152216,1,0,0:0:0:0:
320,192,152393,1,0,0:0:0:0:
320,192,152569,1,0,0:0:0:0:
320,192,152746,1,0,0:0:0:0:
64,192,152922,1,8,0:0:0:0:
320,192,152922,1,0,0:0:0:0:
64,192,153099,1,0,0:0:0:0:
64,192,153275,1,0,0:0:0:0:
64,192,153452,1,0,0:0:0:0:
64,192,153628,128,2,154157:0:0:0:0:
192,192,153628,128,4,154157:0:0:0:0:
448,192,153628,1,0,0:0:0:0:
448,192,153805,1,0,0:0:0:0:
448,192,153981,1,0,0:0:0:0:
448,192,154157,1,0,0:0:0:0:
192,192,154334,1,8,0:0:0:0:
448,192,154334,1,0,0:0:0:0:
448,192,154510,1,0,0:0:0:0:
448,192,154687,1,0,0:0:0:0:
448,192,154863,1,0,0:0:0:0:
64,192,155040,1,2,0:0:0:0:
448,192,155040,1,0,0:0:0:0:
448,192,155216,1,0,0:0:0:0:
448,192,155393,1,0,0:0:0:0:
448,192,155569,1,0,0:0:0:0:
192,192,155746,1,8,0:0:0:0:
448,192,155746,1,0,0:0:0:0:
448,192,155922,1,0,0:0:0:0:
448,192,156099,1,0,0:0:0:0:
448,192,156275,1,0,0:0:0:0:
64,192,156452,1,2,0:0:0:0:
448,192,156452,1,0,0:0:0:0:
64,192,156628,1,0,0:0:0:0:
64,192,156805,1,0,0:0:0:0:
64,192,156981,1,0,0:0:0:0:
64,192,157157,1,8,0:0:0:0:
320,192,157157,1,0,0:0:0:0:
64,192,157334,1,0,0:0:0:0:
64,192,157510,1,0,0:0:0:0:
64,192,157687,1,0,0:0:0:0:
64,192,157863,1,2,0:0:0:0:
448,192,157863,1,0,0:0:0:0:
64,192,158040,1,0,0:0:0:0:
64,192,158216,1,0,0:0:0:0:
64,192,158393,1,0,0:0:0:0:
64,192,158569,1,8,0:0:0:0:
320,192,158569,1,0,0:0:0:0:
320,192,158746,1,0,0:0:0:0:
320,192,158922,1,0,0:0:0:0:
320,192,159099,1,0,0:0:0:0:
192,192,159275,1,2,0:0:0:0:
320,192,159275,1,0,0:0:0:0:
192,192,159452,1,0,0:0:0:0:
192,192,159628,1,0,0:0:0:0:
192,192,159805,1,0,0:0:0:0:
192,192,159981,1,8,0:0:0:0:
448,192,159981,1,0,0:0:0:0:
192,192,160157,1,0,0:0:0:0:
192,192,160334,1,0,0:0:0:0:
192,192,160510,1,0,0:0:0:0:
192,192,160687,1,2,0:0:0:0:
320,192,160687,1,0,0:0:0:0:
192,192,160863,1,0,0:0:0:0:
192,192,161040,1,0,0:0:0:0:
192,192,161216,1,0,0:0:0:0:
192,192,161393,1,8,0:0:0:0:
448,192,161393,1,0,0:0:0:0:
192,192,161569,1,0,0:0:0:0:
192,192,161746,1,0,0:0:0:0:
192,192,161922,1,0,0:0:0:0:
192,192,162099,1,2,0:0:0:0:
448,192,162099,1,0,0:0:0:0:
448,192,162275,1,0,0:0:0:0:
448,192,162452,1,0,0:0:0:0:
448,192,162628,1,0,0:0:0:0:
192,192,162805,1,8,0:0:0:0:
448,192,162805,1,0,0:0:0:0:
448,192,162981,1,0,0:0:0:0:
448,192,163157,1,0,0:0:0:0:
448,192,163334,1,0,0:0:0:0:
64,192,163510,1,2,0:0:0:0:
448,192,163510,1,0,0:0:0:0:
448,192,163687,1,0,0:0:0:0:
448,192,163863,1,0,0:0:0:0:
448,192,164040,1,0,0:0:0:0:
64,192,164216,1,8,0:0:0:0:
448,192,164216,1,0,0:0:0:0:
64,192,164393,1,0,0:0:0:0:
64,192,164569,1,0,0:0:0:0:
64,192,164746,1,0,0:0:0:0:
64,192,164922,128,2,165452:0:0:0:0:
192,192,164922,1,4,0:0:0:0:
320,192,164922,1,0,0:0:0:50:X_F#5.wav
192,192,165099,1,0,0:0:0:50:X_C#6.wav
320,192,165099,1,0,0:0:0:0:
320,192,165275,1,0,0:0:0:50:X_A#5.wav
448,192,165275,1,0,0:0:0:30:X_C#5.wav
320,192,165452,1,0,0:0:0:0:
64,192,165628,1,8,0:0:0:0:
320,192,165628,1,0,0:0:0:0:
320,192,165805,1,0,0:0:0:0:
64,192,165981,1,0,0:0:0:50:X_G#5.wav
320,192,165981,1,0,0:0:0:0:
192,192,166157,1,0,0:0:0:50:X_F#5.wav
320,192,166157,1,0,0:0:0:0:
192,192,166334,1,2,0:0:0:0:
320,192,166334,1,0,0:0:0:50:X_F#5.wav
64,192,166510,1,0,0:0:0:50:X_C#6.wav
192,192,166510,1,0,0:0:0:0:
192,192,166687,1,0,0:0:0:50:X_A#5.wav
448,192,166687,1,0,0:0:0:30:X_C#5.wav
192,192,166863,1,0,0:0:0:0:
192,192,167040,1,8,0:0:0:0:
320,192,167040,1,0,0:0:0:0:
192,192,167216,1,0,0:0:0:0:
64,192,167393,1,0,0:0:0:50:X_G#5.wav
192,192,167393,1,0,0:0:0:0:
192,192,167569,1,0,0:0:0:50:X_F#5.wav
320,192,167569,1,0,0:0:0:0:
192,192,167746,1,2,0:0:0:0:
320,192,167746,1,0,0:0:0:50:X_F#5.wav
320,192,167922,1,0,0:0:0:50:X_C#6.wav
64,192,167922,1,0,0:0:0:0:
192,192,168099,1,0,0:0:0:50:X_A#5.wav
320,192,168099,1,0,0:0:0:30:X_C#5.wav
320,192,168275,1,0,0:0:0:0:
320,192,168452,1,8,0:0:0:0:
192,192,168452,1,0,0:0:0:0:
320,192,168628,1,0,0:0:0:0:
64,192,168805,1,0,0:0:0:50:X_G#5.wav
320,192,168805,1,0,0:0:0:0:
320,192,168981,1,0,0:0:0:50:X_F#5.wav
448,192,168981,1,0,0:0:0:0:
192,192,169157,1,2,0:0:0:0:
320,192,169157,1,0,0:0:0:50:X_F#5.wav
192,192,169334,1,0,0:0:0:50:X_C#6.wav
448,192,169334,1,0,0:0:0:0:
64,192,169510,1,0,0:0:0:50:X_A#5.wav
192,192,169510,1,0,0:0:0:30:X_C#5.wav
192,192,169687,1,0,0:0:0:0:
64,192,169863,1,8,0:0:0:0:
448,192,169863,1,0,0:0:0:0:
448,192,170040,1,0,0:0:0:0:
192,192,170216,1,0,0:0:0:50:X_G#5.wav
448,192,170216,1,0,0:0:0:0:
64,192,170393,1,0,0:0:0:50:X_F#5.wav
448,192,170393,1,0,0:0:0:0:
192,192,170569,1,2,0:0:0:0:
320,192,170569,1,0,0:0:0:50:X_C#6.wav
64,192,170746,1,0,0:0:0:50:X_F5.wav
320,192,170746,1,0,0:0:0:0:
320,192,170922,1,0,0:0:0:50:X_F#5.wav
448,192,170922,1,0,0:0:0:30:X_C#5.wav
320,192,171099,1,0,0:0:0:0:
64,192,171275,1,8,0:0:0:0:
320,192,171275,1,0,0:0:0:0:
320,192,171452,1,0,0:0:0:0:
320,192,171628,1,0,0:0:0:50:X_G#5.wav
448,192,171628,1,0,0:0:0:0:
64,192,171805,1,0,0:0:0:50:X_F#5.wav
320,192,171805,1,0,0:0:0:0:
64,192,171981,1,2,0:0:0:0:
320,192,171981,1,0,0:0:0:50:X_C#6.wav
64,192,172157,1,0,0:0:0:50:X_F5.wav
448,192,172157,1,0,0:0:0:0:
192,192,172334,1,0,0:0:0:50:X_F#5.wav
64,192,172334,1,0,0:0:0:30:X_C#5.wav
64,192,172510,1,0,0:0:0:0:
64,192,172687,1,8,0:0:0:0:
320,192,172687,1,0,0:0:0:0:
64,192,172863,1,0,0:0:0:0:
192,192,173040,1,0,0:0:0:50:X_G#5.wav
64,192,173040,1,0,0:0:0:0:
320,192,173216,1,0,0:0:0:50:X_F#5.wav
64,192,173216,1,0,0:0:0:0:
320,192,173393,1,2,0:0:0:0:
64,192,173393,1,0,0:0:0:50:X_C#6.wav
320,192,173569,1,0,0:0:0:50:X_F5.wav
192,192,173569,1,0,0:0:0:0:
64,192,173746,1,0,0:0:0:50:X_F#5.wav
320,192,173746,1,0,0:0:0:30:X_C#5.wav
320,192,173922,1,0,0:0:0:0:
320,192,174099,1,8,0:0:0:0:
64,192,174099,1,0,0:0:0:0:
320,192,174275,1,0,0:0:0:0:
320,192,174452,1,0,0:0:0:50:X_G#5.wav
192,192,174452,1,0,0:0:0:0:
320,192,174628,1,0,0:0:0:50:X_F#5.wav
64,192,174628,1,0,0:0:0:0:
320,192,174805,1,2,0:0:0:0:
64,192,174805,1,0,0:0:0:50:X_C#6.wav
64,192,174981,1,0,0:0:0:50:X_F5.wav
448,192,174981,1,0,0:0:0:0:
64,192,175157,1,0,0:0:0:50:X_F#5.wav
192,192,175157,1,0,0:0:0:30:X_C#5.wav
64,192,175334,1,0,0:0:0:50:X_F6.wav
448,192,175334,1,0,0:0:0:0:
64,192,175510,1,8,0:0:0:0:
192,192,175510,1,0,0:0:0:50:X_F#6.wav
192,192,175687,1,0,0:0:0:50:X_F6.wav
448,192,175687,1,0,0:0:0:0:
192,192,175863,1,0,0:0:0:50:X_C#6.wav
320,192,175863,1,0,0:0:0:0:
64,192,176040,1,0,0:0:0:50:X_G#5.wav
192,192,176040,1,0,0:0:0:0:
64,192,176216,128,2,176746:0:0:0:0:
320,192,176216,1,4,0:0:0:0:
448,192,176216,1,0,0:0:0:50:X_F#5.wav
192,192,176393,1,0,0:0:0:50:X_C#6.wav
448,192,176393,1,0,0:0:0:0:
320,192,176569,1,0,0:0:0:50:X_A#5.wav
448,192,176569,1,0,0:0:0:30:X_C#5.wav
448,192,176746,1,0,0:0:0:0:
192,192,176922,1,8,0:0:0:0:
448,192,176922,1,0,0:0:0:0:
448,192,177099,1,0,0:0:0:0:
320,192,177275,1,0,0:0:0:50:X_G#5.wav
448,192,177275,1,0,0:0:0:0:
192,192,177452,1,0,0:0:0:50:X_F#5.wav
448,192,177452,1,0,0:0:0:0:
192,192,177628,1,2,0:0:0:0:
448,192,177628,1,0,0:0:0:50:X_F#5.wav
320,192,177805,1,0,0:0:0:50:X_C#6.wav
192,192,177805,1,0,0:0:0:0:
448,192,177981,1,0,0:0:0:50:X_A#5.wav
192,192,177981,1,0,0:0:0:30:X_C#5.wav
192,192,178157,1,0,0:0:0:0:
64,192,178334,1,8,0:0:0:0:
192,192,178334,1,0,0:0:0:0:
192,192,178510,1,0,0:0:0:0:
448,192,178687,1,0,0:0:0:50:X_G#5.wav
192,192,178687,1,0,0:0:0:0:
192,192,178863,1,0,0:0:0:50:X_F#5.wav
448,192,178863,1,0,0:0:0:0:
192,192,179040,1,2,0:0:0:0:
320,192,179040,1,0,0:0:0:50:X_F#5.wav
64,192,179216,1,0,0:0:0:50:X_C#6.wav
320,192,179216,1,0,0:0:0:0:
320,192,179393,1,0,0:0:0:50:X_A#5.wav
448,192,179393,1,0,0:0:0:30:X_C#5.wav
320,192,179569,1,0,0:0:0:0:
192,192,179746,1,8,0:0:0:0:
320,192,179746,1,0,0:0:0:0:
320,192,179922,1,0,0:0:0:0:
448,192,180099,1,0,0:0:0:50:X_G#5.wav
320,192,180099,1,0,0:0:0:0:
320,192,180275,1,0,0:0:0:50:X_F#5.wav
64,192,180275,1,0,0:0:0:0:
320,192,180452,1,2,0:0:0:0:
64,192,180452,1,0,0:0:0:50:X_F#5.wav
192,192,180628,1,0,0:0:0:50:X_C#6.wav
64,192,180628,1,0,0:0:0:0:
64,192,180805,1,0,0:0:0:50:X_A#5.wav
448,192,180805,1,0,0:0:0:30:X_C#5.wav
64,192,180981,1,0,0:0:0:0:
64,192,181157,1,8,0:0:0:0:
192,192,181157,1,0,0:0:0:0:
192,192,181334,1,0,0:0:0:0:
192,192,181510,1,0,0:0:0:50:X_G#5.wav
320,192,181510,1,0,0:0:0:0:
192,192,181687,1,0,0:0:0:50:X_F#5.wav
448,192,181687,1,0,0:0:0:0:
64,192,181863,1,2,0:0:0:0:
320,192,181863,1,0,0:0:0:50:X_C#6.wav
64,192,182040,1,0,0:0:0:50:X_F5.wav
192,192,182040,1,0,0:0:0:0:
64,192,182216,1,0,0:0:0:50:X_F#5.wav
448,192,182216,1,0,0:0:0:30:X_C#5.wav
64,192,182393,1,0,0:0:0:0:
64,192,182569,1,8,0:0:0:0:
320,192,182569,1,0,0:0:0:0:
64,192,182746,1,0,0:0:0:0:
64,192,182922,1,0,0:0:0:50:X_G#5.wav
448,192,182922,1,0,0:0:0:0:
64,192,183099,1,0,0:0:0:50:X_F#5.wav
320,192,183099,1,0,0:0:0:0:
64,192,183275,1,2,0:0:0:0:
320,192,183275,1,0,0:0:0:50:X_C#6.wav
320,192,183452,1,0,0:0:0:50:X_F5.wav
192,192,183452,1,0,0:0:0:0:
320,192,183628,1,0,0:0:0:50:X_F#5.wav
448,192,183628,1,0,0:0:0:30:X_C#5.wav
320,192,183805,1,0,0:0:0:0:
320,192,183981,1,8,0:0:0:0:
192,192,183981,1,0,0:0:0:0:
320,192,184157,1,0,0:0:0:0:
320,192,184334,1,0,0:0:0:50:X_G#5.wav
448,192,184334,1,0,0:0:0:0:
64,192,184510,1,0,0:0:0:50:X_F#5.wav
320,192,184510,1,0,0:0:0:0:
64,192,184687,1,2,0:0:0:0:
448,192,184687,1,0,0:0:0:50:X_C#6.wav
192,192,184863,1,0,0:0:0:50:X_F5.wav
448,192,184863,1,0,0:0:0:0:
320,192,185040,1,0,0:0:0:50:X_F#5.wav
448,192,185040,1,0,0:0:0:30:X_C#5.wav
448,192,185216,1,0,0:0:0:0:
64,192,185393,1,8,0:0:0:0:
448,192,185393,1,0,0:0:0:0:
448,192,185569,1,0,0:0:0:0:
320,192,185746,1,0,0:0:0:50:X_G#5.wav
448,192,185746,1,0,0:0:0:0:
64,192,185922,1,0,0:0:0:50:X_F#5.wav
448,192,185922,1,0,0:0:0:0:
64,192,186099,1,2,0:0:0:0:
448,192,186099,1,0,0:0:0:50:X_C#6.wav
192,192,186275,1,0,0:0:0:50:X_F5.wav
64,192,186275,1,0,0:0:0:0:
320,192,186452,1,0,0:0:0:50:X_F#5.wav
64,192,186452,1,0,0:0:0:30:X_C#5.wav
64,192,186628,1,0,0:0:0:0:
192,192,186805,1,8,0:0:0:0:
448,192,186805,1,0,0:0:0:0:
192,192,186981,1,0,0:0:0:0:
192,192,187157,1,0,0:0:0:50:X_G#5.wav
320,192,187157,1,0,0:0:0:0:
192,192,187334,1,0,0:0:0:50:X_F#5.wav
448,192,187334,1,0,0:0:0:0:
64,192,187510,1,0,0:0:0:50:X_F#5.wav
448,192,187510,1,0,0:0:0:0:
192,192,187687,1,0,0:0:0:50:X_C#6.wav
320,192,187687,1,0,0:0:0:0:
64,192,187863,1,0,0:0:0:50:X_A#5.wav
320,192,187863,1,0,0:0:0:30:X_C#5.wav
64,192,188569,1,0,0:0:0:50:X_G#5.wav
192,192,188569,1,0,0:0:0:0:
320,192,188746,1,0,0:0:0:50:X_F#5.wav
448,192,188746,1,0,0:0:0:0:
320,192,188922,1,0,0:0:0:50:X_F#5.wav
448,192,188922,1,0,0:0:0:0:
64,192,189099,1,0,0:0:0:50:X_C#6.wav
448,192,189099,1,0,0:0:0:0:
192,192,189275,1,0,0:0:0:50:X_A#5.wav
320,192,189275,1,0,0:0:0:30:X_C#5.wav
64,192,189981,1,0,0:0:0:50:X_G#5.wav
192,192,189981,1,0,0:0:0:0:
320,192,190157,1,0,0:0:0:50:X_F#5.wav
448,192,190157,1,0,0:0:0:0:
320,192,190334,1,0,0:0:0:50:X_F#5.wav
448,192,190334,1,0,0:0:0:0:
64,192,190510,1,0,0:0:0:50:X_C#6.wav
448,192,190510,1,0,0:0:0:0:
192,192,190687,1,0,0:0:0:50:X_A#5.wav
320,192,190687,1,0,0:0:0:30:X_C#5.wav
64,192,191393,1,0,0:0:0:50:X_G#5.wav
192,192,191393,1,0,0:0:0:0:
320,192,191569,1,0,0:0:0:50:X_F#5.wav
448,192,191569,1,0,0:0:0:0:
320,192,191746,1,0,0:0:0:50:X_F#5.wav
448,192,191746,1,0,0:0:0:0:
64,192,191922,1,0,0:0:0:50:X_C#6.wav
448,192,191922,1,0,0:0:0:0:
192,192,192099,1,0,0:0:0:50:X_A#5.wav
320,192,192099,1,0,0:0:0:30:X_C#5.wav
64,192,192805,1,0,0:0:0:50:X_G#5.wav
192,192,192805,1,0,0:0:0:0:
320,192,192981,1,0,0:0:0:50:X_F#5.wav
448,192,192981,1,0,0:0:0:0:
192,192,193157,1,2,0:0:0:0:
320,192,193157,1,0,0:0:0:50:X_C#6.wav
64,192,193334,1,0,0:0:0:50:X_F5.wav
448,192,193334,1,0,0:0:0:0:
192,192,193510,1,2,0:0:0:0:
320,192,193510,1,0,0:0:0:50:X_F#5.wav
192,192,193863,1,2,0:0:0:0:
448,192,193863,1,0,0:0:0:0:
64,192,194216,1,2,0:0:0:0:
192,192,194216,1,0,0:0:0:50:X_G#5.wav
320,192,194393,1,0,0:0:0:50:X_F#5.wav
448,192,194393,1,0,0:0:0:0:
192,192,194569,1,2,0:0:0:0:
320,192,194569,1,0,0:0:0:50:X_C#6.wav
64,192,194746,1,0,0:0:0:50:X_F5.wav
448,192,194746,1,0,0:0:0:0:
192,192,194922,1,2,0:0:0:0:
320,192,194922,1,0,0:0:0:50:X_F#5.wav
64,192,195275,1,2,0:0:0:0:
192,192,195275,1,0,0:0:0:0:
64,192,195628,1,2,0:0:0:0:
192,192,195628,1,0,0:0:0:50:X_G#5.wav
320,192,195805,1,0,0:0:0:50:X_F#5.wav
448,192,195805,1,0,0:0:0:0:
192,192,195981,1,2,0:0:0:0:
320,192,195981,1,0,0:0:0:50:X_C#6.wav
64,192,196157,1,0,0:0:0:50:X_F5.wav
448,192,196157,1,0,0:0:0:0:
192,192,196334,1,2,0:0:0:0:
320,192,196334,1,0,0:0:0:50:X_F#5.wav
320,192,196687,1,2,0:0:0:0:
448,192,196687,1,0,0:0:0:0:
64,192,197040,1,2,0:0:0:0:
192,192,197040,1,0,0:0:0:50:X_G#5.wav
320,192,197216,1,0,0:0:0:50:X_F#5.wav
448,192,197216,1,0,0:0:0:0:
192,192,197393,1,2,0:0:0:0:
320,192,197393,1,0,0:0:0:50:X_C#6.wav
64,192,197569,1,0,0:0:0:50:X_F5.wav
448,192,197569,1,0,0:0:0:0:
192,192,197746,1,2,0:0:0:0:
320,192,197746,1,0,0:0:0:50:X_F#5.wav
64,192,198099,1,2,0:0:0:0:
448,192,198099,1,0,0:0:0:0:
320,192,198187,1,2,0:0:0:0:
64,192,198452,1,2,0:0:0:0:
192,192,198452,1,0,0:0:0:50:X_G#5.wav
448,192,198496,1,2,0:0:0:0:
64,192,198628,1,2,0:0:0:0:
320,192,198628,1,0,0:0:0:50:X_F#5.wav
192,192,198672,1,2,0:0:0:0:
320,192,198805,1,2,0:0:0:0:
448,192,198805,1,0,0:0:0:50:X_F#5.wav
64,192,198981,1,2,0:0:0:0:
448,192,198981,1,0,0:0:0:50:X_C#6.wav
64,192,199157,1,2,0:0:0:0:
192,192,199157,1,0,0:0:0:50:X_A#5.wav
192,192,199334,1,2,0:0:0:0:
320,192,199334,1,0,0:0:0:0:
320,192,199510,1,2,0:0:0:0:
448,192,199510,1,0,0:0:0:0:
64,192,199687,1,2,0:0:0:0:
448,192,199687,1,0,0:0:0:0:
192,192,199863,1,2,0:0:0:0:
320,192,199863,1,0,0:0:0:50:X_G#5.wav
64,192,200040,1,2,0:0:0:0:
192,192,200040,1,0,0:0:0:50:X_F#5.wav
320,192,200216,1,2,0:0:0:0:
448,192,200216,1,0,0:0:0:50:X_F#5.wav
64,192,200393,1,2,0:0:0:0:
320,192,200393,1,0,0:0:0:50:X_C#6.wav
192,192,200569,1,2,0:0:0:0:
448,192,200569,1,0,0:0:0:50:X_A#5.wav
64,192,200746,1,2,0:0:0:0:
192,192,200746,1,0,0:0:0:0:
64,192,200922,1,2,0:0:0:0:
448,192,200922,1,0,0:0:0:0:
320,192,201099,1,2,0:0:0:0:
448,192,201099,1,0,0:0:0:0:
192,192,201275,1,2,0:0:0:0:
320,192,201275,1,0,0:0:0:50:X_G#5.wav
64,192,201452,1,2,0:0:0:0:
192,192,201452,1,0,0:0:0:50:X_F#5.wav
64,192,201628,1,2,0:0:0:0:
448,192,201628,1,0,0:0:0:50:X_F#5.wav
192,192,201805,1,2,0:0:0:0:
320,192,201805,1,0,0:0:0:50:X_C#6.wav
64,192,201981,1,2,0:0:0:0:
320,192,201981,1,0,0:0:0:50:X_A#5.wav
192,192,202157,1,2,0:0:0:0:
448,192,202157,1,0,0:0:0:0:
320,192,202334,1,2,0:0:0:0:
448,192,202334,1,0,0:0:0:0:
64,192,202510,1,2,0:0:0:0:
192,192,202510,1,0,0:0:0:0:
64,192,202687,1,2,0:0:0:0:
448,192,202687,1,0,0:0:0:50:X_G#5.wav
192,192,202863,1,2,0:0:0:0:
320,192,202863,1,0,0:0:0:50:X_F#5.wav
320,192,203040,1,2,0:0:0:0:
448,192,203040,1,0,0:0:0:50:X_F#5.wav
64,192,203216,1,2,0:0:0:0:
448,192,203216,1,0,0:0:0:50:X_C#6.wav
64,192,203393,1,2,0:0:0:0:
192,192,203393,1,0,0:0:0:50:X_A#5.wav
192,192,203569,1,2,0:0:0:0:
320,192,203569,1,0,0:0:0:0:
64,192,203746,1,2,0:0:0:0:
320,192,203746,1,0,0:0:0:0:
64,192,203922,1,2,0:0:0:0:
448,192,203922,1,0,0:0:0:0:
320,192,204099,1,2,0:0:0:0:
448,192,204099,1,0,0:0:0:50:X_G#5.wav
64,192,204275,1,2,0:0:0:0:
320,192,204275,1,0,0:0:0:50:X_F#5.wav
64,192,204452,1,2,0:0:0:0:
192,192,204452,1,0,0:0:0:50:X_C#6.wav
320,192,204540,1,2,0:0:0:0:
448,192,204628,1,2,0:0:0:0:
192,192,204716,1,2,0:0:0:0:
64,192,204805,1,2,0:0:0:0:
320,192,204805,1,0,0:0:0:50:X_F#5.wav
448,192,204893,1,2,0:0:0:0:
192,192,204981,1,2,0:0:0:0:
64,192,205069,1,2,0:0:0:0:
320,192,205157,1,2,0:0:0:0:
448,192,205157,1,0,0:0:0:0:
192,192,205246,1,2,0:0:0:0:
64,192,205334,1,2,0:0:0:0:
320,192,205422,1,2,0:0:0:0:
448,192,205510,1,2,0:0:0:0:
192,192,205599,1,2,0:0:0:0:
320,192,205687,1,2,0:0:0:0:
64,192,205775,1,2,0:0:0:0:
192,192,205863,1,2,0:0:0:0:
448,192,205952,1,2,0:0:0:0:
64,192,206040,1,2,0:0:0:0:
320,192,206128,1,2,0:0:0:0:
64,192,206216,1,2,0:0:0:0:
448,192,206305,1,2,0:0:0:0:
64,192,206393,1,2,0:0:0:0:
448,192,206481,1,2,0:0:0:0:
320,192,206569,128,2,208687:0:1:0:0:
192,192,207628,128,0,208687:0:0:0:50:X_F#5.wav
64,192,208687,128,0,208952:0:0:0:0:
64,192,209040,1,0,0:0:0:0:
448,192,209275,1,2,0:1:0:0:
320,192,209334,1,2,0:1:0:0:
64,192,209393,1,2,0:1:0:0:
192,192,209393,1,0,0:0:0:0:
320,192,209746,1,8,0:3:0:0:
448,192,209746,1,0,0:0:0:0:
64,192,209922,1,2,0:3:0:0:
192,192,209922,1,0,0:0:0:0:
64,192,210099,1,4,0:0:0:0:
320,192,210099,128,2,210363:0:0:0:0:
448,192,210099,128,0,210363:0:0:0:0:
320,192,210452,128,0,210540:0:0:0:0:
448,192,210452,128,0,210540:0:0:0:0:
320,192,210628,128,0,210716:0:0:0:0:
448,192,210628,128,0,210716:0:0:0:0:
64,192,210805,1,8,0:0:0:0:
320,192,210805,1,2,0:0:0:0:
448,192,210805,1,0,0:0:0:0:
192,192,210893,1,0,0:0:0:0:
64,192,210981,1,0,0:0:0:0:
320,192,211069,1,0,0:0:0:0:
192,192,211157,1,0,0:0:0:50:X_G#5.wav
448,192,211157,1,0,0:0:0:0:
64,192,211246,1,0,0:0:0:0:
320,192,211334,1,0,0:0:0:50:X_F#5.wav
448,192,211334,1,0,0:0:0:0:
192,192,211422,1,0,0:0:0:0:
320,192,211510,1,0,0:0:0:50:X_F#5.wav
448,192,211510,1,0,0:0:0:0:
64,192,211599,1,0,0:0:0:0:
192,192,211687,1,0,0:0:0:50:X_C#6.wav
448,192,211687,1,0,0:0:0:0:
320,192,211775,1,0,0:0:0:0:
64,192,211863,1,2,0:0:0:0:
192,192,211863,1,0,0:0:0:50:X_A#5.wav
64,192,212216,1,8,0:0:0:0:
320,192,212216,1,2,0:0:0:0:
448,192,212216,1,0,0:0:0:0:
64,192,212569,1,0,0:0:0:50:X_G#5.wav
192,192,212569,1,0,0:0:0:0:
448,192,212657,1,0,0:0:0:0:
64,192,212746,1,0,0:0:0:50:X_F#5.wav
320,192,212746,1,0,0:0:0:0:
192,192,212834,1,0,0:0:0:0:
64,192,212922,1,2,0:0:0:0:
320,192,212922,1,0,0:0:0:50:X_F#5.wav
448,192,213010,1,0,0:0:0:0:
64,192,213099,1,0,0:0:0:50:X_C#6.wav
192,192,213099,1,0,0:0:0:0:
320,192,213187,1,0,0:0:0:0:
192,192,213275,1,0,0:0:0:50:X_A#5.wav
448,192,213275,1,0,0:0:0:30:X_C#5.wav
64,192,213628,1,2,0:0:0:0:
320,192,213628,1,8,0:0:0:0:
448,192,213628,1,0,0:0:0:0:
192,192,213981,1,2,0:0:0:0:
448,192,213981,1,0,0:0:0:50:X_G#5.wav
320,192,214069,1,0,0:0:0:0:
64,192,214157,1,0,0:0:0:50:X_F#5.wav
448,192,214157,1,0,0:0:0:0:
192,192,214246,1,0,0:0:0:0:
64,192,214334,1,0,0:0:0:50:X_F#5.wav
448,192,214334,1,0,0:0:0:0:
320,192,214422,1,0,0:0:0:0:
64,192,214510,1,0,0:0:0:50:X_C#6.wav
192,192,214510,1,0,0:0:0:0:
320,192,214599,1,0,0:0:0:0:
64,192,214687,1,2,0:0:0:0:
448,192,214687,1,0,0:0:0:50:X_A#5.wav
64,192,215040,1,8,0:0:0:0:
192,192,215040,1,2,0:0:0:0:
320,192,215040,1,0,0:0:0:0:
320,192,215216,1,8,0:3:0:0:
448,192,215216,1,0,0:0:0:0:
192,192,215393,1,2,0:3:0:0:
448,192,215393,1,0,0:0:0:0:
192,192,215569,1,2,0:3:0:0:
320,192,215569,1,0,0:0:0:0:
64,192,215746,128,2,216010:0:0:0:0:
320,192,215746,128,0,216010:0:0:0:0:
64,192,216099,128,0,216363:0:0:0:0:
320,192,216099,128,0,216363:0:0:0:0:
64,192,216452,1,8,0:0:0:0:
320,192,216452,1,2,0:0:0:0:
448,192,216452,1,0,0:0:0:0:
192,192,216540,1,0,0:0:0:0:
448,192,216628,1,0,0:0:0:0:
320,192,216716,1,0,0:0:0:0:
64,192,216805,1,0,0:0:0:50:X_G#5.wav
192,192,216805,1,0,0:0:0:0:
448,192,216893,1,0,0:0:0:0:
192,192,216981,1,0,0:0:0:50:X_F#5.wav
320,192,216981,1,0,0:0:0:0:
64,192,217069,1,0,0:0:0:0:
192,192,217157,1,0,0:0:0:50:X_F#5.wav
320,192,217157,1,0,0:0:0:0:
448,192,217246,1,0,0:0:0:0:
64,192,217334,1,0,0:0:0:50:X_C#6.wav
320,192,217334,1,0,0:0:0:0:
192,192,217422,1,0,0:0:0:0:
64,192,217510,1,2,0:0:0:0:
448,192,217510,1,0,0:0:0:50:X_A#5.wav
192,192,217863,1,2,0:0:0:0:
320,192,217863,1,8,0:0:0:0:
448,192,217863,1,0,0:0:0:0:
64,192,218216,1,0,0:0:0:50:X_G#5.wav
320,192,218216,1,0,0:0:0:0:
192,192,218305,1,0,0:0:0:0:
320,192,218393,1,0,0:0:0:50:X_F#5.wav
448,192,218393,1,0,0:0:0:0:
64,192,218481,1,0,0:0:0:0:
192,192,218569,1,2,0:0:0:0:
448,192,218569,1,0,0:0:0:50:X_C#6.wav
320,192,218657,1,0,0:0:0:0:
64,192,218746,1,0,0:0:0:50:X_F5.wav
192,192,218746,1,0,0:0:0:0:
320,192,218834,1,0,0:0:0:0:
64,192,218922,1,0,0:0:0:50:X_F#5.wav
448,192,218922,1,0,0:0:0:30:X_C#5.wav
192,192,219275,1,2,0:0:0:0:
320,192,219275,1,8,0:0:0:0:
448,192,219275,1,0,0:0:0:0:
64,192,219628,1,2,0:0:0:0:
448,192,219628,1,0,0:0:0:50:X_G#5.wav
192,192,219716,1,0,0:0:0:0:
320,192,219805,1,0,0:0:0:50:X_F#5.wav
448,192,219805,1,0,0:0:0:0:
64,192,219893,1,0,0:0:0:0:
192,192,219981,1,0,0:0:0:50:X_C#6.wav
320,192,219981,1,0,0:0:0:0:
448,192,220069,1,0,0:0:0:0:
64,192,220157,1,0,0:0:0:50:X_F5.wav
192,192,220157,1,0,0:0:0:0:
448,192,220246,1,0,0:0:0:0:
64,192,220334,1,2,0:0:0:0:
320,192,220334,1,0,0:0:0:30:X_C#5.wav
448,192,220510,1,0,0:0:0:0:
320,192,220569,1,0,0:0:0:0:
192,192,220628,1,0,0:0:0:0:
64,192,220687,1,8,0:0:0:0:
320,192,220687,1,0,0:0:0:0:
448,192,220687,1,0,0:0:0:0:
192,192,220863,1,0,0:0:0:0:
448,192,221040,1,2,0:1:0:0:
320,192,221216,1,0,0:0:0:0:
64,192,221393,128,4,221657:0:0:0:0:
192,192,221393,128,2,221657:0:0:0:0:
64,192,221746,128,0,221834:0:0:0:0:
192,192,221746,128,0,221834:0:0:0:0:
64,192,221922,128,0,222010:0:0:0:0:
192,192,221922,128,0,222010:0:0:0:0:
64,192,222099,1,2,0:0:0:0:
192,192,222099,1,8,0:0:0:0:
448,192,222099,1,0,0:0:0:0:
320,192,222187,1,4,0:3:0:0:
64,192,222275,1,4,0:3:0:0:
320,192,222363,1,4,0:3:0:0:
64,192,222452,1,4,0:3:0:0:
192,192,222452,1,0,0:0:0:50:X_G#5.wav
320,192,222540,1,4,0:3:0:0:
64,192,222628,1,4,0:3:0:0:
192,192,222628,1,0,0:0:0:50:X_F#5.wav
320,192,222716,1,4,0:3:0:0:
64,192,222805,1,4,0:3:0:0:
192,192,222805,1,0,0:0:0:50:X_F#5.wav
448,192,222893,1,4,0:3:0:0:
192,192,222981,1,4,0:3:0:0:
320,192,222981,1,0,0:0:0:50:X_C#6.wav
448,192,223069,1,4,0:3:0:0:
64,192,223157,1,2,0:0:0:0:
192,192,223157,1,0,0:0:0:50:X_A#5.wav
448,192,223246,1,4,0:3:0:0:
192,192,223334,1,4,0:3:0:0:
448,192,223422,1,4,0:3:0:0:
64,192,223510,1,8,0:0:0:0:
192,192,223510,1,2,0:0:0:0:
320,192,223510,1,0,0:0:0:0:
64,192,223863,1,0,0:0:0:50:X_G#5.wav
448,192,223863,1,0,0:0:0:0:
64,192,224040,1,0,0:0:0:50:X_F#5.wav
192,192,224040,1,0,0:0:0:0:
64,192,224216,1,2,0:0:0:0:
192,192,224216,1,0,0:0:0:50:X_F#5.wav
448,192,224305,1,4,0:3:0:0:
64,192,224393,1,4,0:3:0:0:
320,192,224393,1,0,0:0:0:50:X_C#6.wav
448,192,224481,1,4,0:3:0:0:
64,192,224569,1,4,0:3:0:0:
192,192,224569,1,0,0:0:0:50:X_A#5.wav
448,192,224657,1,4,0:3:0:0:
64,192,224746,1,4,0:3:0:0:
448,192,224834,1,4,0:3:0:0:
64,192,224922,1,2,0:0:0:0:
192,192,224922,1,8,0:0:0:0:
320,192,224922,1,0,0:0:0:0:
320,192,225275,1,2,0:0:0:0:
448,192,225275,1,0,0:0:0:50:X_G#5.wav
64,192,225363,1,4,0:3:0:0:
192,192,225452,1,4,0:3:0:0:
448,192,225452,1,0,0:0:0:50:X_F#5.wav
64,192,225540,1,4,0:3:0:0:
320,192,225628,1,4,0:3:0:0:
448,192,225628,1,0,0:0:0:50:X_F#5.wav
64,192,225716,1,4,0:3:0:0:
320,192,225805,1,4,0:3:0:0:
448,192,225805,1,0,0:0:0:50:X_C#6.wav
64,192,225893,1,4,0:3:0:0:
192,192,225981,1,2,0:0:0:0:
448,192,225981,1,0,0:0:0:50:X_A#5.wav
64,192,226069,1,4,0:3:0:0:
448,192,226157,1,4,0:3:0:0:
64,192,226246,1,4,0:3:0:0:
192,192,226334,128,8,226599:0:0:0:0:
320,192,226334,128,2,226599:0:0:0:0:
448,192,226334,1,0,0:0:0:0:
192,192,226687,128,0,226952:0:0:0:0:
320,192,226687,128,0,226952:0:0:0:0:
192,192,227040,128,2,227305:0:0:0:0:
320,192,227040,128,0,227305:0:0:0:0:
192,192,227393,128,0,227657:0:0:0:0:
320,192,227393,128,0,227657:0:0:0:0:
64,192,227746,1,8,0:0:0:0:
192,192,227746,1,2,0:0:0:0:
320,192,227746,1,0,0:0:0:0:
448,192,227834,1,4,0:3:0:0:
192,192,227922,1,4,0:3:0:0:
448,192,228010,1,4,0:3:0:0:
320,192,228099,1,4,0:3:0:0:
192,192,228099,1,0,0:0:0:50:X_G#5.wav
448,192,228187,1,4,0:3:0:0:
64,192,228275,1,4,0:3:0:0:
192,192,228275,1,0,0:0:0:50:X_F#5.wav
448,192,228363,1,4,0:3:0:0:
64,192,228452,1,4,0:3:0:0:
192,192,228452,1,0,0:0:0:50:X_F#5.wav
320,192,228540,1,4,0:3:0:0:
64,192,228628,1,4,0:3:0:0:
448,192,228628,1,0,0:0:0:50:X_C#6.wav
320,192,228716,1,4,0:3:0:0:
64,192,228805,1,2,0:0:0:0:
448,192,228805,1,0,0:0:0:50:X_A#5.wav
320,192,228893,1,4,0:3:0:0:
64,192,228981,1,4,0:3:0:0:
320,192,229069,1,4,0:3:0:0:
64,192,229157,1,2,0:0:0:0:
192,192,229157,1,8,0:0:0:0:
448,192,229157,1,0,0:0:0:0:
64,192,229510,1,4,0:3:0:0:
192,192,229510,1,0,0:0:0:50:X_G#5.wav
192,192,229687,1,4,0:3:0:0:
448,192,229687,1,0,0:0:0:50:X_F#5.wav
192,192,229863,1,2,0:0:0:0:
448,192,229863,1,0,0:0:0:50:X_F#5.wav
64,192,230040,1,0,0:0:0:50:X_C#6.wav
320,192,230040,1,0,0:0:0:0:
64,192,230216,1,0,0:0:0:50:X_A#5.wav
448,192,230216,1,0,0:0:0:30:X_C#5.wav
64,192,230922,1,0,0:0:0:50:X_G#5.wav
192,192,230922,1,0,0:0:0:0:
192,192,231099,1,0,0:0:0:50:X_F#5.wav
448,192,231099,1,0,0:0:0:0:
192,192,231275,1,0,0:0:0:50:X_F#5.wav
448,192,231275,1,0,0:0:0:0:
64,192,231452,1,0,0:0:0:50:X_C#6.wav
320,192,231452,1,0,0:0:0:0:
64,192,231628,1,0,0:0:0:50:X_A#5.wav
448,192,231628,1,0,0:0:0:30:X_C#5.wav
64,192,231981,1,8,0:0:0:0:
320,192,231981,1,2,0:0:0:0:
448,192,231981,1,0,0:0:0:0:
64,192,232157,1,8,0:3:0:0:
192,192,232157,1,0,0:0:0:0:
192,192,232334,1,2,0:3:0:0:
448,192,232334,1,0,0:0:0:50:X_G#5.wav
320,192,232510,1,2,0:3:0:0:
448,192,232510,1,0,0:0:0:50:X_F#5.wav
64,192,232687,1,2,0:0:0:0:
320,192,232687,1,4,0:0:0:0:
448,192,232687,1,0,0:0:0:50:X_F#5.wav
192,192,232775,1,0,0:0:0:0:
64,192,232863,1,0,0:0:0:50:X_C#6.wav
320,192,232952,1,0,0:0:0:0:
192,192,233040,1,0,0:0:0:60:P_C#6.wav
448,192,233040,1,0,0:0:0:50:X_A#5.wav
64,192,233128,1,0,0:0:0:0:
320,192,233216,1,0,0:0:0:0:
448,192,233305,1,0,0:0:0:0:
64,192,233393,1,10,0:0:0:0:
192,192,233393,1,0,0:0:0:60:P_A#6.wav
320,192,233481,1,0,0:0:0:0:
448,192,233569,1,0,0:0:0:0:
320,192,233657,1,0,0:0:0:0:
64,192,233746,1,0,0:0:0:60:P_A#6.wav
192,192,233746,1,0,0:0:0:50:X_G#5.wav
448,192,233834,1,0,0:0:0:0:
320,192,233922,1,0,0:0:0:50:X_F#5.wav
64,192,234010,1,0,0:0:0:0:
192,192,234099,1,2,0:0:0:0:
448,192,234099,1,0,0:0:0:60:P_C#7.wav
320,192,234187,1,0,0:0:0:0:
64,192,234275,1,0,0:0:0:50:X_C#6.wav
448,192,234363,1,0,0:0:0:0:
64,192,234452,1,0,0:0:0:60:P_F#7.wav
320,192,234452,1,0,0:0:0:50:X_A#5.wav
192,192,234540,1,0,0:0:0:0:
320,192,234628,1,0,0:0:0:0:
448,192,234716,1,0,0:0:0:0:
64,192,234805,1,10,0:0:0:0:
192,192,234805,1,0,0:0:0:60:P_F7.wav
320,192,234893,1,0,0:0:0:0:
64,192,234981,1,0,0:0:0:0:
192,192,235069,1,0,0:0:0:0:
320,192,235157,1,0,0:0:0:50:X_G#5.wav
192,192,235246,1,0,0:0:0:0:
64,192,235334,1,0,0:0:0:60:P_A#7.wav
448,192,235334,1,0,0:0:0:50:X_F#5.wav
320,192,235510,1,2,0:0:0:0:
448,192,235510,1,0,0:0:0:50:X_F#5.wav
64,192,235687,1,0,0:0:0:50:X_C#6.wav
192,192,235687,1,0,0:0:0:0:
192,192,235863,1,0,0:0:0:50:X_A#5.wav
320,192,235863,1,0,0:0:0:30:X_C#5.wav
448,192,235952,1,0,0:0:0:0:
64,192,236040,1,0,0:0:0:0:
320,192,236128,1,0,0:0:0:0:
192,192,236216,1,2,0:0:0:0:
448,192,236216,1,8,0:0:0:0:
64,192,236305,1,0,0:0:0:0:
320,192,236393,1,0,0:0:0:0:
192,192,236481,1,0,0:0:0:0:
64,192,236569,1,0,0:0:0:50:X_G#5.wav
448,192,236569,1,0,0:0:0:0:
320,192,236657,1,0,0:0:0:0:
64,192,236746,1,0,0:0:0:50:X_F#5.wav
192,192,236834,1,0,0:0:0:0:
320,192,236922,1,2,0:0:0:0:
448,192,236922,1,0,0:0:0:50:X_F#5.wav
64,192,237010,1,0,0:0:0:0:
320,192,237099,1,0,0:0:0:50:X_C#6.wav
448,192,237187,1,0,0:0:0:0:
64,192,237275,1,0,0:0:0:50:X_A#5.wav
192,192,237275,1,0,0:0:0:30:X_C#5.wav
320,192,237363,1,0,0:0:0:0:
448,192,237452,1,0,0:0:0:0:
192,192,237540,1,0,0:0:0:0:
64,192,237628,1,2,0:0:0:0:
320,192,237628,1,8,0:0:0:0:
448,192,237716,1,0,0:0:0:0:
64,192,237805,1,0,0:0:0:60:P_F#7.wav
192,192,237805,1,0,0:0:0:0:
192,192,237981,1,0,0:0:0:60:P_F7.wav
448,192,237981,1,0,0:0:0:50:X_G#5.wav
320,192,238157,1,0,0:0:0:60:P_C#7.wav
448,192,238157,1,0,0:0:0:50:X_F#5.wav
64,192,238334,1,2,0:0:0:0:
448,192,238334,1,0,0:0:0:60:P_F#6.wav
320,192,238422,1,0,0:0:0:0:
64,192,238510,1,0,0:0:0:60:P_G#6.wav
192,192,238510,1,0,0:0:0:50:X_C#6.wav
448,192,238599,1,0,0:0:0:0:
192,192,238687,1,0,0:0:0:60:P_A#6.wav
320,192,238687,1,0,0:0:0:50:X_A#5.wav
320,192,238863,1,0,0:0:0:0:
64,192,239040,1,10,0:0:0:0:
192,192,239040,1,0,0:0:0:60:P_F7.wav
320,192,239128,1,0,0:0:0:0:
64,192,239216,1,0,0:0:0:0:
192,192,239305,1,0,0:0:0:0:
320,192,239393,1,0,0:0:0:60:P_F#6.wav
448,192,239393,1,0,0:0:0:50:X_G#5.wav
64,192,239481,1,0,0:0:0:0:
192,192,239569,1,0,0:0:0:60:P_G#6.wav
448,192,239569,1,0,0:0:0:50:X_F#5.wav
320,192,239657,1,0,0:0:0:0:
64,192,239746,1,2,0:0:0:0:
192,192,239746,1,0,0:0:0:60:P_A#6.wav
64,192,239922,1,0,0:0:0:50:X_C#6.wav
192,192,240099,1,0,0:0:0:60:P_F7.wav
448,192,240099,1,0,0:0:0:50:X_A#5.wav
320,192,240187,1,0,0:0:0:0:
192,192,240275,1,0,0:0:0:0:
64,192,240363,1,0,0:0:0:0:
320,192,240452,1,10,0:0:0:0:
448,192,240452,1,0,0:0:0:60:P_F#6.wav
192,192,240540,1,0,0:0:0:0:
320,192,240628,1,0,0:0:0:0:
64,192,240716,1,0,0:0:0:0:
192,192,240805,1,0,0:0:0:50:X_G#5.wav
448,192,240805,1,0,0:0:0:0:
320,192,240893,1,0,0:0:0:0:
64,192,240981,1,0,0:0:0:60:P_F7.wav
192,192,240981,1,0,0:0:0:50:X_F#5.wav
320,192,241157,1,2,0:0:0:0:
448,192,241157,1,0,0:0:0:50:X_F#5.wav
64,192,241246,1,0,0:0:0:0:
448,192,241334,1,0,0:0:0:50:X_C#6.wav
192,192,241422,1,0,0:0:0:0:
64,192,241510,1,0,0:0:0:50:X_A#5.wav
320,192,241510,1,0,0:0:0:30:X_C#5.wav
448,192,241599,1,0,0:0:0:0:
192,192,241687,1,0,0:0:0:0:
64,192,241775,1,0,0:0:0:0:
192,192,241863,1,8,0:0:0:0:
320,192,241863,1,2,0:0:0:0:
448,192,241952,1,0,0:0:0:0:
320,192,242040,1,0,0:0:0:0:
64,192,242128,1,0,0:0:0:0:
192,192,242216,1,0,0:0:0:50:X_G#5.wav
448,192,242216,1,0,0:0:0:0:
320,192,242305,1,0,0:0:0:0:
192,192,242393,1,0,0:0:0:50:X_F#5.wav
448,192,242481,1,0,0:0:0:0:
64,192,242569,1,2,0:0:0:0:
320,192,242569,1,0,0:0:0:60:P_F#7.wav
192,192,242657,1,0,0:0:0:0:
320,192,242746,1,0,0:0:0:60:P_F7.wav
448,192,242746,1,0,0:0:0:50:X_C#6.wav
64,192,242834,1,0,0:0:0:0:
192,192,242922,1,0,0:0:0:60:P_C#7.wav
448,192,242922,1,0,0:0:0:50:X_A#5.wav
192,192,243099,1,0,0:0:0:0:
64,192,243275,1,8,0:0:0:0:
320,192,243275,1,2,0:0:0:0:
448,192,243363,1,0,0:0:0:0:
192,192,243452,1,0,0:0:0:0:
320,192,243540,1,0,0:0:0:0:
64,192,243628,1,0,0:0:0:50:X_G#5.wav
192,192,243628,1,0,0:0:0:0:
64,192,243805,1,0,0:0:0:50:X_F#5.wav
448,192,243805,1,0,0:0:0:0:
64,192,243981,1,2,0:0:0:0:
192,192,243981,1,4,0:0:0:0:
448,192,243981,1,0,0:0:0:50:X_F#5.wav
320,192,244069,1,0,0:0:0:0:
192,192,244157,1,0,0:0:0:50:X_C#6.wav
64,192,244246,1,0,0:0:0:0:
320,192,244334,1,0,0:0:0:60:P_C#6.wav
448,192,244334,1,0,0:0:0:50:X_A#5.wav
192,192,244422,1,0,0:0:0:0:
448,192,244510,1,0,0:0:0:0:
192,192,244599,1,0,0:0:0:0:
64,192,244687,1,10,0:0:0:0:
320,192,244687,1,0,0:0:0:60:P_A#6.wav
448,192,244775,1,0,0:0:0:0:
192,192,244863,1,0,0:0:0:0:
448,192,244952,1,0,0:0:0:0:
64,192,245040,1,0,0:0:0:60:P_A#6.wav
320,192,245040,1,0,0:0:0:50:X_G#5.wav
192,192,245128,1,0,0:0:0:0:
448,192,245216,1,0,0:0:0:50:X_F#5.wav
320,192,245305,1,0,0:0:0:0:
64,192,245393,1,2,0:0:0:0:
192,192,245393,1,0,0:0:0:60:P_C#7.wav
448,192,245481,1,0,0:0:0:0:
64,192,245569,1,0,0:0:0:50:X_C#6.wav
192,192,245657,1,0,0:0:0:0:
320,192,245746,1,0,0:0:0:60:P_F#7.wav
448,192,245746,1,0,0:0:0:50:X_A#5.wav
192,192,245834,1,0,0:0:0:0:
320,192,245922,1,0,0:0:0:0:
64,192,246010,1,0,0:0:0:0:
192,192,246099,1,8,0:0:0:0:
320,192,246099,1,2,0:0:0:0:
448,192,246187,1,0,0:0:0:0:
64,192,246275,1,0,0:0:0:60:P_F7.wav
192,192,246275,1,0,0:0:0:0:
320,192,246363,1,0,0:0:0:0:
64,192,246452,1,0,0:0:0:60:P_A#6.wav
448,192,246452,1,0,0:0:0:50:X_G#5.wav
192,192,246628,1,0,0:0:0:50:X_F#5.wav
320,192,246628,1,0,0:0:0:0:
192,192,246805,1,2,0:0:0:0:
320,192,246805,1,0,0:0:0:50:X_F#5.wav
64,192,246981,1,0,0:0:0:50:X_C#6.wav
320,192,246981,1,0,0:0:0:0:
64,192,247157,1,0,0:0:0:50:X_A#5.wav
448,192,247157,1,0,0:0:0:30:X_C#5.wav
320,192,247246,1,0,0:0:0:0:
192,192,247334,1,0,0:0:0:0:
320,192,247422,1,0,0:0:0:0:
192,192,247510,1,8,0:0:0:0:
448,192,247510,1,2,0:0:0:0:
64,192,247599,1,0,0:0:0:0:
320,192,247687,1,0,0:0:0:60:P_C#6.wav
448,192,247687,1,0,0:0:0:0:
192,192,247775,1,0,0:0:0:0:
320,192,247863,1,0,0:0:0:60:P_F#6.wav
448,192,247863,1,0,0:0:0:50:X_G#5.wav
192,192,247952,1,0,0:0:0:60:P_G#6.wav
64,192,248040,1,0,0:0:0:60:P_F#6.wav
320,192,248040,1,0,0:0:0:50:X_F#5.wav
64,192,248216,1,2,0:0:0:0:
320,192,248216,1,0,0:0:0:50:X_F#5.wav
64,192,248393,1,0,0:0:0:50:X_C#6.wav
192,192,248393,1,0,0:0:0:0:
320,192,248569,1,0,0:0:0:50:X_A#5.wav
448,192,248569,1,0,0:0:0:30:X_C#5.wav
192,192,248657,1,0,0:0:0:0:
64,192,248746,1,0,0:0:0:0:
448,192,248834,1,0,0:0:0:0:
64,192,248922,1,8,0:0:0:0:
320,192,248922,1,2,0:0:0:0:
192,192,249010,1,0,0:0:0:0:
320,192,249099,1,0,0:0:0:60:P_F#7.wav
448,192,249099,1,0,0:0:0:0:
192,192,249275,1,0,0:0:0:60:P_F7.wav
448,192,249275,1,0,0:0:0:50:X_G#5.wav
64,192,249452,1,0,0:0:0:60:P_C#7.wav
192,192,249452,1,0,0:0:0:50:X_F#5.wav
192,192,249628,1,2,0:0:0:0:
320,192,249628,1,0,0:0:0:60:P_F#6.wav
320,192,249805,1,0,0:0:0:60:P_G#6.wav
448,192,249805,1,0,0:0:0:50:X_C#6.wav
64,192,249981,1,0,0:0:0:60:P_A#6.wav
448,192,249981,1,0,0:0:0:50:X_A#5.wav
64,192,250157,1,0,0:0:0:0:
192,192,250334,1,10,0:0:0:0:
320,192,250334,1,0,0:0:0:60:P_F7.wav
448,192,250422,1,0,0:0:0:0:
192,192,250510,1,0,0:0:0:0:
320,192,250599,1,0,0:0:0:0:
64,192,250687,1,0,0:0:0:60:P_F#6.wav
448,192,250687,1,0,0:0:0:50:X_G#5.wav
64,192,250863,1,0,0:0:0:60:P_G#6.wav
320,192,250863,1,0,0:0:0:50:X_F#5.wav
192,192,251040,1,2,0:0:0:0:
448,192,251040,1,0,0:0:0:60:P_A#6.wav
192,192,251216,1,0,0:0:0:50:X_C#6.wav
448,192,251305,1,0,0:0:0:0:
64,192,251393,1,0,0:0:0:60:P_F7.wav
320,192,251393,1,0,0:0:0:50:X_A#5.wav
192,192,251481,1,0,0:0:0:0:
448,192,251569,1,0,0:0:0:0:
320,192,251657,1,0,0:0:0:0:
64,192,251746,1,10,0:0:0:0:
192,192,251746,1,0,0:0:0:60:P_F#6.wav
448,192,251834,1,0,0:0:0:0:
64,192,251922,1,0,0:0:0:0:
192,192,252010,1,0,0:0:0:0:
320,192,252099,1,0,0:0:0:50:X_G#5.wav
448,192,252099,1,0,0:0:0:0:
64,192,252187,1,0,0:0:0:0:
192,192,252275,1,0,0:0:0:60:P_F6.wav
320,192,252275,1,0,0:0:0:50:X_F#5.wav
448,192,252363,1,0,0:0:0:0:
64,192,252452,128,2,252716:0:0:0:0:
192,192,252452,128,0,252716:0:0:0:50:X_F#5.wav
64,192,252805,128,0,253069:0:0:0:50:X_A#5.wav
192,192,252805,128,0,253069:0:0:0:30:X_C#5.wav
64,192,253157,128,0,253422:0:0:0:0:
192,192,253157,128,0,253422:0:0:0:0:
64,192,253510,128,0,253775:0:0:0:50:X_G#5.wav
192,192,253510,128,0,253775:0:0:0:0:
64,192,253863,1,0,0:0:0:60:P_F#7.wav
448,192,253863,1,0,0:0:0:50:X_F#5.wav
64,192,254040,1,0,0:0:0:60:P_F7.wav
320,192,254040,1,0,0:0:0:50:X_C#6.wav
64,192,254216,1,0,0:0:0:60:P_C#7.wav
192,192,254216,1,0,0:0:0:50:X_A#5.wav
320,192,254922,1,0,0:0:0:50:X_G#5.wav
448,192,254922,1,0,0:0:0:0:
64,192,255099,1,0,0:0:0:50:X_F#5.wav
192,192,255099,1,0,0:0:0:0:
64,192,255275,1,2,0:0:0:0:
320,192,255275,1,0,0:0:0:25:P_E3.wav
448,192,255452,1,0,0:0:0:35:P_F#4.wav
64,192,255628,1,0,0:0:0:35:P_B4.wav
192,192,255628,1,0,0:0:0:0:
320,192,255805,1,0,0:0:0:35:P_D#5.wav
192,192,255981,1,0,0:0:0:35:P_F#5.wav
448,192,255981,1,0,0:0:0:0:
64,192,256157,1,0,0:0:0:35:P_A#5.wav
192,192,256334,1,0,0:0:0:35:P_B5.wav
320,192,256334,1,0,0:0:0:0:
448,192,256510,1,0,0:0:0:35:P_F#6.wav
64,192,258099,1,0,0:0:0:25:P_E3.wav
192,192,258099,1,0,0:0:0:0:
448,192,258275,1,0,0:0:0:35:P_F#4.wav
64,192,258452,1,0,0:0:0:35:P_B4.wav
320,192,258452,1,0,0:0:0:0:
192,192,258628,1,0,0:0:0:35:P_D5.wav
320,192,258805,1,0,0:0:0:35:P_F#5.wav
448,192,258805,1,0,0:0:0:0:
64,192,258981,1,0,0:0:0:35:P_A#5.wav
192,192,259157,1,0,0:0:0:35:P_B5.wav
320,192,259157,1,0,0:0:0:0:
448,192,259334,1,0,0:0:0:35:P_F#6.wav
64,192,260216,1,0,0:0:0:25:P_F#4.wav
192,192,260393,1,0,0:0:0:25:P_F#4.wav
320,192,260393,1,0,0:0:0:35:P_D#5.wav
320,192,260922,1,0,0:0:0:25:P_G#3.wav
448,192,260922,1,0,0:0:0:0:
192,192,261099,1,0,0:0:0:35:P_F#4.wav
64,192,261275,1,0,0:0:0:35:P_B4.wav
320,192,261275,1,0,0:0:0:0:
448,192,261452,1,0,0:0:0:35:P_D#5.wav
64,192,261628,1,0,0:0:0:35:P_F#5.wav
192,192,261628,1,0,0:0:0:0:
320,192,261805,1,0,0:0:0:35:P_A#5.wav
64,192,261981,1,0,0:0:0:35:P_B5.wav
448,192,261981,1,0,0:0:0:0:
192,192,262157,1,0,0:0:0:35:P_D#6.wav
64,192,263824,1,0,0:0:0:25:P_G#3.wav
320,192,263824,1,0,0:0:0:0:
192,192,264005,1,0,0:0:0:35:P_F#4.wav
320,192,264187,1,0,0:0:0:35:P_B4.wav
448,192,264187,1,0,0:0:0:0:
64,192,264369,1,0,0:0:0:35:P_D#5.wav
192,192,264551,1,0,0:0:0:35:P_F#5.wav
320,192,264551,1,0,0:0:0:0:
448,192,264733,1,0,0:0:0:35:P_A#5.wav
64,192,264914,1,0,0:0:0:35:P_B5.wav
320,192,264914,1,0,0:0:0:0:
192,192,265096,1,0,0:0:0:35:P_D#6.wav
64,192,266071,1,0,0:0:0:35:P_F#4.wav
448,192,266071,1,0,0:0:0:35:P_D#5.wav
64,192,266845,1,0,0:0:0:25:P_E3.wav
320,192,266845,1,0,0:0:0:0:
448,192,267038,1,0,0:0:0:35:P_F#4.wav
64,192,267232,1,0,0:0:0:35:P_B4.wav
192,192,267232,1,0,0:0:0:0:
320,192,267425,1,2,0:0:0:35:P_D#5.wav
64,192,267619,1,0,0:0:0:35:P_F#5.wav
448,192,267619,1,0,0:0:0:0:
320,192,267812,1,0,0:0:0:35:P_A#5.wav
64,192,268006,1,0,0:0:0:35:P_B5.wav
192,192,268006,1,0,0:0:0:0:
448,192,268199,1,0,0:0:0:35:P_B6.wav
64,192,268393,1,0,0:0:0:35:P_A#6.wav
320,192,268393,1,0,0:0:0:0:
448,192,268586,1,0,0:0:0:35:P_B6.wav
64,192,268780,1,0,0:0:0:35:P_F#6.wav
192,192,268780,1,0,0:0:0:0:
64,192,270002,1,0,0:0:0:25:P_E3.wav
448,192,270002,1,0,0:0:0:0:
192,192,270208,1,0,0:0:0:35:P_F#4.wav
64,192,270415,1,0,0:0:0:35:P_B4.wav
320,192,270415,1,0,0:0:0:0:
448,192,270622,1,0,0:0:0:35:P_D5.wav
64,192,270829,1,0,0:0:0:35:P_F#5.wav
192,192,270829,1,0,0:0:0:0:
320,192,271036,1,0,0:0:0:35:P_A#5.wav
192,192,271243,1,0,0:0:0:35:P_B5.wav
448,192,271243,1,0,0:0:0:0:
64,192,271450,1,0,0:0:0:35:P_B6.wav
320,192,271657,1,0,0:0:0:35:P_A#6.wav
448,192,271657,1,0,0:0:0:0:
64,192,271864,1,0,0:0:0:35:P_B6.wav
448,192,272070,1,0,0:0:0:35:P_D6.wav
192,192,272070,1,0,0:0:0:0:
320,192,273339,1,0,0:0:0:25:P_G#3.wav
448,192,273339,1,0,0:0:0:0:
192,192,273553,1,0,0:0:0:35:P_F#4.wav
64,192,273767,1,0,0:0:0:35:P_B4.wav
448,192,273767,1,0,0:0:0:0:
320,192,273981,1,0,0:0:0:35:P_D#5.wav
192,192,274196,1,0,0:0:0:35:P_F#5.wav
448,192,274196,1,0,0:0:0:0:
64,192,274410,1,0,0:0:0:35:P_A#5.wav
320,192,274624,1,0,0:0:0:35:P_B5.wav
448,192,274624,1,0,0:0:0:0:
192,192,274839,1,0,0:0:0:35:P_D#6.wav
64,192,276873,1,0,0:0:0:25:P_G#3.wav
192,192,276873,1,0,0:0:0:0:
320,192,277095,1,0,0:0:0:35:P_F#4.wav
192,192,277335,1,0,0:0:0:35:P_C5.wav
448,192,277335,1,0,0:0:0:0:
64,192,277578,1,0,0:0:0:35:P_D#5.wav
192,192,277837,1,0,0:0:0:35:P_F#5.wav
320,192,277837,1,0,0:0:0:0:
448,192,278084,1,0,0:0:0:35:P_A#5.wav
64,192,278370,1,0,0:0:0:35:P_C6.wav
192,192,278370,1,0,0:0:0:0:
320,192,278655,1,0,0:0:0:35:P_D#6.wav
