osu file format v14

[General]
AudioFilename: audio.mp3
AudioLeadIn: 0
PreviewTime: 348
Countdown: 0
SampleSet: Soft
StackLeniency: 0.7
Mode: 0
LetterboxInBreaks: 0
WidescreenStoryboard: 0

[Editor]
DistanceSpacing: 1
BeatDivisor: 4
GridSize: 4
TimelineZoom: 1.8

[Metadata]
Title:Noise
TitleUnicode:ノイズ
Artist:MIOYAMAZAKI
ArtistUnicode:ミオヤマザキ
Creator:toybot
Version:Twilight
Source:地獄少女 宵伽
Tags:jigoku shoujo yoi no togi opening delis aeril haruru irohas mugiwarasekai kalibe
BeatmapID:1406420
BeatmapSetID:664507

[Difficulty]
HPDrainRate:6
CircleSize:4.2
OverallDifficulty:9.2
ApproachRate:9.6
SliderMultiplier:1.9
SliderTickRate:1

[Events]
//Background and Video events
0,0,"noise bg.jpg",0,0
//Break Periods
2,116019,128084
//Storyboard Layer 0 (Background)
//Storyboard Layer 1 (Fail)
//Storyboard Layer 2 (Pass)
//Storyboard Layer 3 (Foreground)
//Storyboard Sound Samples

[TimingPoints]
619,266.666666666667,3,2,1,40,1,0
619,-200,3,2,1,40,0,0
12619,-133.333333333333,3,2,1,50,0,0
13085,-133.333333333333,3,2,1,5,0,0
13152,-200,3,2,1,60,0,0
13352,-200,3,2,1,5,0,0
13419,-100,3,2,1,80,0,0
13619,-100,3,2,1,5,0,0
13685,-100,3,2,1,80,0,0
25619,-100,3,2,1,5,0,0
25685,-100,3,2,1,80,0,0
26219,-166.666666666667,3,2,1,60,0,0
38752,-166.666666666667,3,2,1,5,0,0
39019,-111.111111111111,3,2,1,70,0,0
39219,-111.111111111111,3,2,1,5,0,0
39285,-111.111111111111,3,2,1,70,0,0
46952,-111.111111111111,3,2,1,5,0,0
47019,-111.111111111111,3,2,1,70,0,0
48619,-200,3,2,1,65,0,0
50219,-133.333333333333,3,2,1,70,0,0
51819,-111.111111111111,3,2,1,75,0,0
53419,-100,3,2,1,40,0,0
53685,-100,3,2,1,45,0,0
53952,-100,3,2,1,50,0,0
54219,-200,3,2,1,60,0,0
54752,-200,3,2,1,20,0,0
55019,-90.9090909090909,3,2,1,80,0,1
64552,-90.9090909090909,3,2,1,5,0,1
64619,-90.9090909090909,3,2,1,80,0,1
69619,-90.9090909090909,3,2,1,5,0,1
69685,-90.9090909090909,3,2,1,80,0,1
70219,-90.9090909090909,3,2,1,80,0,0
71019,-100,3,2,1,75,0,1
73352,-100,3,2,1,5,0,1
73419,-100,3,2,1,75,0,1
75752,-100,3,2,1,5,0,1
75819,-100,3,2,1,75,0,1
76619,-133.333333333333,3,2,1,75,0,0
76652,-133.333333333333,3,2,1,20,0,0
77219,-133.333333333333,3,2,1,30,0,0
77285,-133.333333333333,3,2,1,40,0,0
77319,-133.333333333333,3,2,1,45,0,0
77352,-133.333333333333,3,2,1,50,0,0
77419,-133.333333333333,3,2,1,70,0,0
83552,-166.666666666667,3,2,1,60,0,0
95019,-133.333333333333,3,2,1,60,0,0
96619,-200,3,2,1,50,0,0
99819,-133.333333333333,3,2,1,60,0,0
111019,-111.111111111111,3,2,1,60,0,0
113952,-111.111111111111,3,2,1,30,0,0
114219,-111.111111111111,3,2,1,40,0,0
115019,-333.333333333333,3,2,1,50,0,0
115752,-333.333333333333,3,2,1,5,0,0
115819,-333.333333333333,3,2,1,60,0,0
129152,-200,3,2,1,60,0,0
129352,-200,3,2,1,5,0,0
129419,-90.9090909090909,3,2,1,80,0,1
144619,-90.9090909090909,3,2,1,80,0,0
145419,-100,3,2,1,75,0,0
151219,-100,3,2,1,5,0,0
151285,-100,3,2,1,75,0,0
154419,-100,3,2,1,5,0,0
154485,-100,3,2,1,75,0,0
157619,-100,3,2,1,5,0,0
157685,-100,3,2,1,75,0,0
158219,-90.9090909090909,3,2,1,75,0,1
162152,-90.9090909090909,3,2,1,5,0,1
162219,-90.9090909090909,3,2,1,75,0,1
163752,-90.9090909090909,3,2,1,5,0,1
163819,-90.9090909090909,3,2,1,75,0,1
164352,-80,3,2,1,75,0,1
164552,-80,3,2,1,5,0,1
164619,-90.9090909090909,3,2,1,75,0,1
166419,-90.9090909090909,3,2,1,5,0,1
166485,-90.9090909090909,3,2,1,75,0,1
168819,-90.9090909090909,3,2,1,5,0,1
168885,-90.9090909090909,3,2,1,75,0,1
169419,304.568527918782,3,2,1,40,1,0
169419,-200,3,2,1,40,0,0
169723,271.493212669683,3,2,1,30,1,0
169723,-200,3,2,1,30,0,0
169994,275.229357798165,3,2,1,35,1,0
169994,-200,3,2,1,35,0,0
170131,-200,3,2,1,15,0,0
170269,-200,3,2,1,30,0,0

[Colours]
Combo1 : 185,0,92
Combo2 : 0,62,123
Combo3 : 102,171,255
Combo4 : 128,128,192

[HitObjects]
473,80,619,5,4,1:3:0:0:
390,102,885,1,0,0:0:0:0:
390,102,1019,1,0,0:0:0:0:
311,60,1285,1,0,0:0:0:0:
311,60,1419,2,0,P|269:49|189:151,1,190
248,209,2085,1,0,0:0:0:0:
361,141,2219,6,0,L|267:129,1,95,2|0,0:0|0:0,0:0:0:0:
245,291,2619,2,0,L|339:303,1,95
329,218,3019,1,2,0:0:0:0:
329,218,3552,1,0,0:0:0:0:
121,327,3819,5,2,0:0:0:0:
86,236,4085,1,0,0:0:0:0:
86,236,4219,1,0,0:0:0:0:
133,150,4485,1,0,0:0:0:0:
133,150,4619,2,0,B|236:136|205:215|334:188,1,190
281,114,5285,1,0,0:0:0:0:
344,64,5419,6,0,P|386:60|454:51,1,95,2|0,0:0|0:0,0:0:0:0:
479,167,5819,2,0,L|387:141,1,95
312,192,6219,2,0,P|352:211|400:238,1,95,2|0,0:0|0:0,0:0:0:0:
505,90,6752,1,0,0:0:0:0:
368,27,7019,5,2,0:0:0:0:
382,131,7285,1,0,0:0:0:0:
382,131,7419,1,0,0:0:0:0:
396,235,7685,1,0,0:0:0:0:
396,235,7819,1,0,0:0:0:0:
329,278,8085,6,0,L|270:271,1,47.5
345,356,8352,2,0,L|286:349,1,47.5
139,283,8619,5,2,0:0:0:0:
178,205,8885,1,0,0:0:0:0:
178,205,9019,1,0,0:0:0:0:
126,134,9285,1,0,0:0:0:0:
126,134,9419,2,0,L|115:26,1,95
116,39,9952,1,0,0:0:0:0:
215,57,10085,1,0,0:0:0:0:
314,75,10219,6,0,P|359:71|412:56,2,95,2|0|0,0:0|0:0|0:0,0:0:0:0:
200,175,11019,2,0,P|155:171|102:156,2,95
329,263,11819,5,2,0:0:0:0:
329,263,11952,2,0,L|341:376,1,95
254,320,12352,1,0,0:0:0:0:
412,229,12619,6,0,B|437:23|437:23|408:48|421:81,1,249.375009512902
420,73,13152,6,0,P|438:99|496:106,1,71.25,4|0,3:0|0:0,0:0:0:0:
346,24,13419,6,0,L|174:46,1,142.5,4|0,3:2|0:0,0:0:0:0:
181,46,13685,1,8,0:0:0:0:
144,233,13819,1,2,3:2:0:0:
318,108,13952,2,0,L|205:124,1,95,10|0,3:2|0:0,0:0:0:0:
22,210,14219,5,14,3:2:0:0:
0,38,14352,1,0,0:0:0:0:
94,172,14485,5,10,0:0:0:0:
69,88,14619,1,0,3:0:0:0:
161,129,14752,5,10,3:2:0:0:
149,106,14885,1,2,0:0:0:0:
122,258,15019,5,14,3:2:0:0:
280,198,15152,2,0,P|234:194|176:214,1,95,0|8,0:0|0:0,0:0:0:0:
376,387,15419,2,0,P|329:306|242:275,1,190,2|0,3:2|0:0,0:0:0:0:
274,368,15819,5,14,3:2:0:0:
382,246,15952,1,0,0:0:0:0:
192,340,16085,5,10,0:0:0:0:
379,223,16219,1,0,3:0:0:0:
135,276,16352,5,10,3:2:0:0:
380,201,16485,1,2,3:2:0:0:
125,115,16619,5,14,3:2:0:0:
275,277,16752,1,0,0:0:0:0:
241,66,16885,2,0,L|227:185,1,95,8|2,0:0|3:2,0:0:0:0:
100,294,17152,1,10,3:2:0:0:
85,207,17285,1,2,0:0:0:0:
331,210,17419,5,12,3:2:0:0:
163,240,17552,1,2,0:0:0:0:
388,284,17685,5,8,0:0:0:0:
240,190,17819,1,2,3:2:0:0:
385,370,17952,5,10,3:2:0:0:
331,210,18085,1,2,0:0:0:0:
474,251,18219,6,0,P|433:276|387:283,1,95,12|0,3:2|0:0,0:0:0:0:
391,84,18485,1,8,0:0:0:0:
406,190,18619,2,0,P|337:162|295:45,1,190,2|0,3:2|0:0,0:0:0:0:
463,26,19019,6,0,B|484:70|484:70|475:132,1,95,14|0,3:2|0:0,0:0:0:0:
230,190,19285,2,0,B|209:146|209:146|218:84,1,95,10|0,0:0|3:0,0:0:0:0:
373,0,19552,5,8,3:2:0:0:
326,266,19685,1,2,0:0:0:0:
465,117,19819,6,0,L|353:127,1,95,12|0,3:2|0:0,0:0:0:0:
307,183,20085,2,0,L|212:174,1,95,8|0,0:0|3:0,0:0:0:0:
0,153,20352,5,8,3:2:0:0:
246,40,20485,1,2,0:0:0:0:
79,110,20619,6,0,L|177:99,1,95,12|0,3:2|0:0,0:0:0:0:
234,181,20885,2,0,L|328:191,1,95,8|0,0:0|3:0,0:0:0:0:
442,290,21152,5,8,3:2:0:0:
383,33,21285,1,2,0:0:0:0:
480,98,21419,6,0,P|486:144|473:190,1,95,12|0,3:2|0:0,0:0:0:0:
314,104,21685,2,0,P|360:112|399:138,1,95,8|0,0:0|3:0,0:0:0:0:
438,368,21952,5,8,3:2:0:0:
328,191,22085,1,2,0:0:0:0:
466,270,22219,6,0,P|422:291|375:291,1,95,12|0,3:2|0:0,0:0:0:0:
301,193,22485,2,0,P|259:171|211:170,1,95,8|0,0:0|3:0,0:0:0:0:
18,310,22752,5,8,3:2:0:0:
99,80,22885,1,2,0:0:0:0:
156,285,23019,5,12,3:2:0:0:
0,99,23152,1,0,0:0:0:0:
72,222,23285,5,8,0:0:0:0:
348,214,23419,2,0,B|247:235|266:162|147:183,1,190,2|0,3:2|0:0,0:0:0:0:
312,129,23819,6,0,P|323:83|318:36,1,95,14|0,3:2|0:0,0:0:0:0:
228,80,24085,1,8,0:0:0:0:
405,148,24219,1,2,3:2:0:0:
274,325,24352,2,0,P|262:279|267:232,1,95,10|0,3:2|0:0,0:0:0:0:
497,196,24619,6,0,P|440:269|349:276,1,190,14|8,3:2|0:0,0:0:0:0:
135,106,25019,1,0,3:0:0:0:
58,156,25152,2,0,P|95:186|142:195,1,95,10|0,3:2|0:0,0:0:0:0:
433,62,25419,6,0,B|355:50|370:103|280:87,1,142.5,12|0,3:2|0:0,0:0:0:0:
272,84,25685,1,8,0:0:0:0:
292,312,25819,1,8,3:2:0:0:
216,156,25952,1,8,3:2:0:0:
224,252,26085,1,8,0:0:0:0:
144,212,26219,5,6,3:2:0:0:
332,200,26485,1,0,0:0:0:0:
332,200,26619,2,0,L|460:188,1,113.999996520996,2|0,3:2|3:0,0:0:0:0:
496,128,27019,1,2,0:3:0:0:
356,279,27285,1,0,3:0:0:0:
496,128,27552,2,0,L|492:60,1,56.9999982604981,0|0,3:0|0:0,0:0:0:0:
328,20,27819,6,0,P|333:77|336:136,1,113.999996520996,2|0,3:2|0:0,0:0:0:0:
424,224,28219,2,0,P|418:166|416:108,1,113.999996520996,2|0,3:2|3:0,0:0:0:0:
256,84,28619,1,2,0:3:0:0:
496,128,28885,1,0,3:0:0:0:
264,176,29152,2,0,L|268:240,1,56.9999982604981,0|0,3:0|0:0,0:0:0:0:
332,292,29419,5,2,3:2:0:0:
184,216,29685,1,0,0:0:0:0:
184,216,29819,2,0,P|136:200|56:204,1,113.999996520996,2|0,3:2|3:0,0:0:0:0:
8,256,30219,1,2,0:3:0:0:
192,116,30485,1,0,3:0:0:0:
8,256,30752,2,0,P|24:308|28:332,1,56.9999982604981,0|0,3:0|0:0,0:0:0:0:
96,356,31019,6,0,P|128:316|208:304,1,113.999996520996,2|0,3:2|0:0,0:0:0:0:
316,344,31419,1,2,3:2:0:0:
316,344,31685,1,0,3:0:0:0:
264,276,31819,2,0,L|260:216,1,56.9999982604981,2|0,0:3|0:0,0:0:0:0:
400,176,32085,2,0,L|404:116,1,56.9999982604981,0|0,3:0|0:0,0:0:0:0:
272,0,32352,1,0,3:0:0:0:
320,152,32485,1,0,0:0:0:0:
344,68,32619,6,0,P|276:84|228:128,1,113.999996520996,2|0,3:2|0:0,0:0:0:0:
196,176,33019,1,2,3:2:0:0:
400,256,33285,1,0,3:0:0:0:
400,256,33419,1,2,0:3:0:0:
224,252,33685,1,0,3:0:0:0:
440,184,33952,2,0,L|448:108,1,56.9999982604981,0|0,3:0|0:0,0:0:0:0:
348,32,34219,6,0,P|356:88|360:152,1,113.999996520996,2|0,3:2|0:0,0:0:0:0:
212,365,34619,2,0,P|215:308|223:251,1,113.999996520996,2|0,3:2|3:0,0:0:0:0:
296,200,35019,1,2,0:3:0:0:
440,320,35285,1,0,3:0:0:0:
296,200,35552,2,0,L|372:192,1,56.9999982604981,0|0,3:0|0:0,0:0:0:0:
212,152,35819,6,0,L|92:140,1,113.999996520996,2|0,3:2|0:0,0:0:0:0:
28,112,36219,1,2,3:2:0:0:
152,292,36485,1,0,3:0:0:0:
152,292,36619,2,0,L|144:232,1,56.9999982604981,2|0,0:3|0:0,0:0:0:0:
292,108,36885,2,0,L|300:168,1,56.9999982604981,0|0,3:0|0:0,0:0:0:0:
232,232,37152,1,0,3:0:0:0:
208,64,37285,1,0,0:0:0:0:
119,103,37419,6,0,P|162:139|217:150,1,113.999996520996,4|0,3:2|0:0,0:0:0:0:
299,4,37819,2,0,P|245:23|207:64,1,113.999996520996,0|0,3:0|3:0,0:0:0:0:
185,231,38219,6,0,P|287:202|286:96,1,227.999993041992,2|0,3:2|0:0,0:0:0:0:
286,96,39019,6,0,L|160:120,1,128.249996086121,4|0,3:2|0:0,0:0:0:0:
139,126,39285,2,0,L|148:28,1,85.4999973907472,0|0,3:0|0:0,0:0:0:0:
298,182,39552,2,0,L|305:267,1,85.4999973907472,0|0,3:0|0:0,0:0:0:0:
45,173,39819,2,0,L|65:-8,1,170.999994781494,0|0,3:0|3:0,0:0:0:0:
139,126,40219,1,0,0:0:0:0:
48,287,40352,2,0,L|55:372,1,85.4999973907472,8|0,1:2|0:0,0:0:0:0:
209,170,40619,6,0,P|177:141|138:125,1,85.4999973907472,0|0,3:0|0:0,0:0:0:0:
125,216,40885,1,0,3:0:0:0:
279,248,41019,2,0,P|305:195|263:72,1,170.999994781494
194,283,41419,2,0,P|201:325|207:376,1,85.4999973907472,0|0,3:0|0:0,0:0:0:0:
409,263,41685,2,0,P|401:220|396:170,1,85.4999973907472,0|0,3:0|0:0,3:0:0:0:
289,19,41952,1,8,1:2:0:0:
210,187,42085,1,0,0:0:0:0:
366,96,42219,6,0,L|281:106,1,85.4999973907472,0|0,3:0|0:0,0:0:0:0:
71,245,42485,1,0,3:0:0:0:
47,160,42619,2,0,B|136:141|113:213|222:184,1,170.999994781494
168,18,43019,2,0,P|173:61|176:104,1,85.4999973907472,0|0,3:0|0:0,0:0:0:0:
332,276,43285,2,0,P|327:233|323:190,1,85.4999973907472,0|0,3:0|0:0,0:0:0:0:
416,221,43552,1,8,1:2:0:0:
238,272,43685,1,0,0:0:0:0:
366,96,43819,6,0,L|281:106,1,85.4999973907472,0|0,3:0|0:0,0:0:0:0:
143,294,44085,1,0,3:0:0:0:
95,212,44219,2,0,P|170:210|245:296,1,170.999994781494
143,294,44619,1,0,3:0:0:0:
282,189,44752,1,0,0:0:0:0:
183,37,44885,2,0,P|187:81|190:123,1,85.4999973907472,0|0,3:0|0:0,0:0:0:0:
384,271,45152,2,0,P|387:209|393:156,1,85.4999973907472,8|0,1:2|0:0,0:0:0:0:
409,104,45419,6,0,P|354:156|252:147,1,170.999994781494,4|0,3:2|3:0,0:0:0:0:
197,4,45819,2,0,P|211:45|209:87,1,85.4999973907472,0|0,0:0|3:0,0:0:0:0:
123,57,46085,1,0,0:0:0:0:
30,277,46219,2,0,P|16:236|18:194,1,85.4999973907472,0|0,3:0|0:0,0:0:0:0:
84,140,46485,2,0,L|167:157,1,85.4999973907472,0|0,3:0|0:0,0:0:0:0:
322,345,46752,2,0,L|190:319,1,128.249996086121,8|0,1:2|0:0,0:0:0:0:
167,326,47019,6,0,P|130:280|158:168,1,170.999994781494,0|0,3:0|3:0,0:0:0:0:
293,227,47419,2,0,P|250:231|209:243,1,85.4999973907472,0|0,0:0|3:0,0:0:0:0:
92,103,47685,1,0,0:0:0:0:
92,103,47819,2,0,P|134:98|175:86,1,85.4999973907472,0|0,3:0|0:0,0:0:0:0:
426,99,48085,2,0,B|338:89|347:145|254:133,1,170.999994781494,0|8,3:0|1:2,0:0:0:0:
398,177,48485,1,0,0:0:0:0:
284,49,48619,6,0,L|129:37,1,142.5,4|0,3:2|3:0,0:0:0:0:
59,20,49152,2,0,L|66:87,1,47.5,8|0,0:0|0:0,0:0:0:0:
127,121,49419,1,0,3:0:0:0:
113,220,49685,1,0,3:0:0:0:
98,319,49952,1,8,0:0:0:0:
227,215,50219,6,0,B|133:224|133:224|116:235|116:235|15:245,1,213.750008153916,0|0,3:0|3:0,0:0:0:0:
17,244,50752,1,8,0:0:0:0:
191,69,51019,2,0,L|197:141,1,71.2500027179719,0|0,3:0|0:0,0:0:0:0:
264,288,51285,2,0,L|269:216,1,71.2500027179719,0|0,3:0|0:0,0:0:0:0:
312,80,51552,1,8,0:0:0:0:
200,356,51819,6,0,P|307:364|364:304,1,170.999994781494,0|0,3:0|0:0,0:0:0:0:
424,208,52219,1,0,3:0:0:0:
424,208,52352,2,0,L|412:120,1,85.4999973907472,8|0,0:0|0:0,0:0:0:0:
452,36,52619,5,0,3:0:0:0:
452,36,52885,1,8,0:0:0:0:
380,284,53019,1,8,0:0:0:0:
332,92,53152,1,8,0:0:0:0:
296,200,53285,1,8,0:0:0:0:
200,124,53419,5,2,0:0:0:0:
124,104,53685,5,2,0:0:0:0:
76,108,53952,5,2,0:0:0:0:
44,128,54219,6,0,B|16:236|88:204|52:328,1,190,2|0,0:0|0:0,0:0:0:0:
48,336,55019,6,0,P|92:280|236:284,1,209.000006378174,6|0,3:2|0:0,0:0:0:0:
476,304,55419,2,0,P|420:304|364:240,1,104.500003189087,2|0,3:2|0:0,0:0:0:0:
277,111,55685,1,0,3:0:0:0:
118,149,55819,6,0,B|233:131|196:208|316:191,1,209.000006378174,10|0,0:0|3:0,0:0:0:0:
495,97,56219,1,8,0:0:0:0:
389,44,56352,2,0,L|406:181,1,104.500003189087,2|0,3:2|0:0,0:0:0:0:
449,359,56619,6,0,P|474:311|470:241,1,104.500003189087,2|0,3:2|0:0,0:0:0:0:
312,152,56885,1,0,0:0:0:0:
387,289,57019,2,0,P|331:245|184:254,1,209.000006378174,2|0,3:2|3:0,0:0:0:0:
397,184,57419,6,0,P|460:175|535:151,1,104.500003189087,10|0,0:0|0:0,0:0:0:0:
282,324,57685,2,0,P|219:333|144:357,1,104.500003189087,2|8,3:2|0:0,0:0:0:0:
312,152,57952,2,0,L|294:25,1,104.500003189087,2|0,3:2|0:0,0:0:0:0:
190,96,58219,6,0,B|174:25|108:4|47:22|0:90|52:167|52:167|12:242|97:307,1,418.000012756348,2|0,3:2|0:0,0:0:0:0:
112,109,58885,1,0,3:0:0:0:
323,229,59019,6,0,B|195:263|229:187|120:216,2,209.000006378174,10|0|2,0:0|3:0|3:2,0:0:0:0:
166,293,59685,1,0,0:0:0:0:
162,119,59819,6,0,L|151:-1,1,104.500003189087,2|0,3:2|0:0,0:0:0:0:
70,99,60085,1,0,0:0:0:0:
230,197,60219,2,0,P|299:199|363:54,1,209.000006378174,2|0,3:2|3:0,0:0:0:0:
122,215,60619,5,14,0:0:0:0:
122,215,60885,1,0,3:0:0:0:
141,333,61019,5,8,0:0:0:0:
214,139,61152,1,0,3:0:0:0:
10,173,61285,1,0,0:0:0:0:
218,291,61419,6,0,B|332:315|298:232|434:257,1,209.000006378174,6|0,3:2|0:0,0:0:0:0:
495,142,61819,2,0,P|449:168|370:162,1,104.500003189087,2|0,3:2|0:0,0:0:0:0:
213,95,62085,1,0,3:0:0:0:
419,85,62219,6,0,P|354:86|242:-13,1,209.000006378174,10|0,0:0|3:0,0:0:0:0:
355,0,62619,1,8,0:0:0:0:
296,250,62752,2,0,L|283:147,1,104.500003189087,2|0,3:2|0:0,0:0:0:0:
66,34,63019,6,0,L|79:137,1,104.500003189087,2|0,3:2|0:0,0:0:0:0:
160,77,63285,1,0,0:0:0:0:
21,193,63419,2,0,P|85:178|194:290,1,209.000006378174,2|0,3:2|3:0,0:0:0:0:
316,105,63819,6,0,P|264:111|221:139,1,104.500003189087,10|0,0:0|0:0,0:0:0:0:
88,271,64085,1,2,3:2:0:0:
295,195,64219,1,8,0:0:0:0:
126,54,64352,2,0,P|66:50|14:136,1,156.750004783631,2|0,3:2|0:0,0:0:0:0:
93,159,64619,6,0,B|210:145|164:210|306:193,1,209.000006378174,2|0,3:2|0:0,0:0:0:0:
458,123,65019,1,0,3:0:0:0:
392,55,65152,2,0,P|369:101|370:152,1,104.500003189087,0|0,0:0|3:0,0:0:0:0:
303,368,65419,6,0,P|369:365|455:236,1,209.000006378174,10|0,0:0|3:0,0:0:0:0:
458,123,65819,1,8,0:0:0:0:
361,271,65952,1,2,3:2:0:0:
499,360,66085,1,0,0:0:0:0:
395,194,66219,6,0,L|255:183,1,104.500003189087,2|0,3:2|0:0,0:0:0:0:
102,99,66485,1,0,0:0:0:0:
34,181,66619,2,0,P|96:196|210:99,1,209.000006378174,2|0,3:2|3:0,0:0:0:0:
349,0,67019,6,0,P|328:54|331:130,1,104.500003189087,10|0,0:0|0:0,0:0:0:0:
466,259,67285,1,0,3:0:0:0:
409,72,67419,1,8,0:0:0:0:
205,115,67552,1,8,3:2:0:0:
426,157,67685,1,8,0:0:0:0:
249,43,67819,6,0,P|197:38|143:29,1,104.500003189087,4|0,3:2|0:0,0:0:0:0:
71,272,68085,1,0,3:0:0:0:
31,80,68219,1,8,0:0:0:0:
190,328,68352,1,0,3:0:0:0:
159,127,68485,1,8,0:0:0:0:
312,378,68619,6,0,P|362:366|418:364,1,104.500003189087,4|0,3:2|0:0,0:0:0:0:
448,32,68885,1,0,3:0:0:0:
417,227,69018,1,8,0:0:0:0:
331,86,69151,1,0,3:0:0:0:
292,273,69285,1,8,0:0:0:0:
205,123,69419,6,0,B|123:102|136:166|37:134,1,156.750004783631,0|0,3:0|0:0,0:0:0:0:
28,132,69685,1,0,3:0:0:0:
276,188,69819,1,8,0:0:0:0:
82,15,69952,5,4,3:0:0:0:
148,305,70086,1,4,3:0:0:0:
263,29,70219,1,4,3:2:0:0:
243,49,71019,6,0,L|47:73,1,190,4|4,3:2|0:0,0:0:0:0:
303,168,71419,1,0,3:0:0:0:
210,134,71552,2,0,L|74:152,1,95,12|0,0:0|0:0,0:0:0:0:
22,272,71819,5,4,3:0:0:0:
256,316,71952,1,0,3:0:0:0:
122,343,72085,5,8,3:0:0:0:
318,209,72219,1,0,3:0:0:0:
261,328,72352,5,8,3:0:0:0:
327,93,72485,1,8,3:0:0:0:
329,218,72619,6,0,L|215:207,1,95,4|0,3:2|0:0,0:0:0:0:
32,91,72885,1,4,0:0:0:0:
138,334,73019,1,0,3:0:0:0:
302,133,73152,2,0,L|178:120,1,95,12|0,0:0|0:0,0:0:0:0:
122,114,73419,5,4,3:0:0:0:
171,241,73552,1,0,3:0:0:0:
80,193,73685,5,8,3:0:0:0:
87,269,73819,1,0,3:0:0:0:
4,223,73952,5,4,3:0:0:0:
0,255,74085,1,4,3:0:0:0:
218,94,74219,6,0,L|208:-12,1,95,4|0,3:2|0:0,0:0:0:0:
400,179,74485,2,0,L|390:73,1,95,4|0,0:0|3:0,0:0:0:0:
235,312,74752,1,12,0:0:0:0:
307,113,74885,1,0,0:0:0:0:
394,316,75019,5,4,3:0:0:0:
223,216,75152,1,0,3:0:0:0:
100,353,75285,1,8,3:0:0:0:
327,248,75419,1,0,3:0:0:0:
135,269,75552,2,0,P|67:261|24:178,1,142.5,4|0,3:0|0:0,0:0:0:0:
89,96,75819,6,0,P|106:140|105:188,1,95,4|0,3:2|0:0,0:0:0:0:
359,156,76085,2,0,P|341:111|343:64,1,95,4|0,0:0|3:0,0:0:0:0:
210,42,76352,1,12,0:0:0:0:
243,259,76485,1,0,0:0:0:0:
226,142,76619,6,0,L|222:112,22,17.812500679493,8|0|0|0|0|0|0|0|0|0|0|0|0|0|0|0|0|0|0|0|0|0|0,0:0|0:0|0:0|0:0|0:0|0:0|0:0|0:0|0:0|0:0|0:0|0:0|0:0|0:0|0:0|0:0|0:0|0:0|0:0|0:0|0:0|0:0|0:0,0:0:0:0:
157,190,77419,6,0,L|304:177,1,142.500005435944,4|0,3:2|0:0,0:0:0:0:
458,204,77819,2,0,L|357:213,1,71.2500027179719,8|0,0:0|0:0,0:0:0:0:
483,120,78085,1,2,0:0:0:0:
321,266,78219,6,0,P|324:301|332:336,1,71.2500027179719,0|0,3:0|0:0,0:0:0:0:
393,106,78485,2,0,P|389:70|381:35,1,71.2500027179719,0|0,3:0|0:0,0:0:0:0:
408,275,78752,1,8,0:0:0:0:
283,133,78885,1,2,0:0:0:0:
431,186,79019,6,0,L|330:195,1,71.2500027179719,0|0,3:0|0:0,0:0:0:0:
222,303,79285,1,0,0:0:0:0:
178,223,79419,2,0,P|219:220|311:271,1,142.500005435944,8|10,0:0|0:0,0:0:0:0:
137,298,79819,6,0,P|97:314|63:347,1,71.2500027179719,0|0,3:0|0:0,0:0:0:0:
133,149,80085,2,0,P|139:106|127:60,1,71.2500027179719,0|0,3:0|0:0,0:0:0:0:
264,220,80352,2,0,P|297:246|343:259,1,71.2500027179719,8|2,0:0|0:0,0:0:0:0:
178,223,80619,5,0,3:0:0:0:
178,223,80752,2,0,L|17:233,1,142.500005435944,0|10,0:0|0:0,0:0:0:0:
101,65,81152,2,0,L|29:60,1,71.2500027179719
64,144,81419,5,0,3:0:0:0:
322,99,81685,1,0,3:0:0:0:
96,220,81952,1,8,0:0:0:0:
315,186,82219,6,0,L|224:177,1,71.2500027179719,2|0,3:2|0:0,0:0:0:0:
363,104,82485,1,0,0:0:0:0:
384,278,82619,1,8,0:0:0:0:
427,161,82752,1,0,0:0:0:0:
455,240,82885,1,8,0:0:0:0:
508,176,83019,5,2,0:0:0:0:
489,190,83819,6,0,L|375:185,1,113.999996520996,4|0,3:2|0:0,0:0:0:0:
236,204,84219,2,0,L|350:209,1,113.999996520996,0|0,3:0|3:0,0:0:0:0:
401,273,84619,1,8,0:0:0:0:
401,273,84885,1,0,3:0:0:0:
322,124,85019,1,8,3:0:0:0:
382,62,85152,2,0,P|396:86|402:114,1,56.9999982604981,0|0,3:0|0:0,0:0:0:0:
240,160,85419,6,0,P|242:89|273:39,1,113.999996520996,0|0,3:0|0:0,0:0:0:0:
322,124,85819,1,0,3:0:0:0:
169,212,86085,1,0,3:0:0:0:
169,212,86219,2,0,L|41:202,1,113.999996520996,8|0,0:0|3:0,0:0:0:0:
181,297,86619,1,4,3:0:0:0:
74,341,86752,2,0,P|72:316|68:284,1,56.9999982604981,0|0,3:0|0:0,0:0:0:0:
234,103,87019,6,0,P|236:131|240:160,1,56.9999982604981,0|0,3:0|0:0,0:0:0:0:
154,109,87285,1,0,0:0:0:0:
316,125,87419,2,0,L|431:111,1,113.999996520996,0|0,3:0|3:0,0:0:0:0:
489,56,87819,1,8,0:0:0:0:
436,317,88085,2,0,L|430:248,1,56.9999982604981,0|8,3:0|3:0,0:0:0:0:
505,136,88352,2,0,L|512:216,1,56.9999982604981,0|0,3:0|0:0,0:0:0:0:
350,261,88619,6,0,P|308:228|241:221,1,113.999996520996,0|0,3:0|0:0,0:0:0:0:
274,304,89019,1,0,3:0:0:0:
393,184,89285,1,0,3:0:0:0:
393,184,89419,2,0,L|388:109,1,56.9999982604981,8|0,0:0|0:0,0:0:0:0:
320,42,89685,5,0,3:0:0:0:
261,106,89819,1,0,3:0:0:0:
174,117,89952,1,8,3:0:0:0:
100,69,90085,1,4,3:0:0:0:
16,117,90219,6,0,L|22:246,1,113.999996520996,4|0,3:2|0:0,0:0:0:0:
91,262,90619,2,0,P|39:276|0:333,1,113.999996520996,0|0,3:0|3:0,0:0:0:0:
142,353,91019,2,0,L|86:344,1,56.9999982604981,8|0,0:0|0:0,0:0:0:0:
236,186,91285,1,0,3:0:0:0:
174,275,91419,1,8,3:0:0:0:
258,360,91552,2,0,L|248:278,1,56.9999982604981
87,132,91819,6,0,L|96:246,1,113.999996520996,0|0,3:0|0:0,0:0:0:0:
174,275,92219,1,0,3:0:0:0:
254,103,92485,1,0,3:0:0:0:
177,65,92619,2,0,P|175:100|171:140,1,56.9999982604981,8|0,0:0|0:0,0:0:0:0:
331,141,92885,2,0,P|332:105|337:66,1,56.9999982604981,0|8,3:0|3:0,0:0:0:0:
254,103,93152,1,0,3:0:0:0:
254,103,93285,1,0,0:0:0:0:
393,193,93419,6,0,L|511:170,1,113.999996520996,0|0,3:0|0:0,0:0:0:0:
343,261,93819,2,0,L|225:284,1,113.999996520996,0|0,3:0|3:0,0:0:0:0:
409,323,94219,1,8,0:0:0:0:
324,133,94485,2,0,L|328:70,1,56.9999982604981,0|8,3:0|3:0,0:0:0:0:
256,36,94752,1,0,3:0:0:0:
408,112,94885,1,0,0:0:0:0:
248,168,95019,6,0,P|208:172|116:100,1,142.500005435944,0|0,3:0|0:0,0:0:0:0:
216,256,95419,2,0,P|256:260|348:188,1,142.500005435944,0|0,3:0|3:0,0:0:0:0:
212,84,95819,2,0,L|205:13,1,71.2500027179719,8|0,0:0|0:0,0:0:0:0:
386,62,96085,5,0,3:0:0:0:
366,170,96219,1,8,3:0:0:0:
346,278,96352,2,0,L|338:202,1,71.2500027179719,4|4,3:0|3:0,0:0:0:0:
212,84,96619,6,0,L|223:189,1,95,2|0,3:2|0:0,0:0:0:0:
160,229,97019,1,0,3:0:0:0:
81,218,97152,1,0,0:0:0:0:
39,153,97285,1,0,3:0:0:0:
59,78,97419,5,8,0:0:0:0:
59,78,97685,1,8,3:0:0:0:
160,229,97819,1,4,3:0:0:0:
18,328,97952,1,8,3:0:0:0:
124,142,98085,1,0,0:0:0:0:
195,332,98219,6,0,P|240:343|300:336,1,95,0|0,3:0|0:0,0:0:0:0:
358,305,98619,1,0,3:0:0:0:
390,231,98752,2,0,L|381:171,1,47.5,0|0,0:0|3:0,0:0:0:0:
471,59,99019,5,8,0:0:0:0:
471,59,99285,1,0,3:0:0:0:
301,148,99419,1,8,3:0:0:0:
367,27,99552,2,0,L|374:73,1,47.5,0|0,3:0|0:0,0:0:0:0:
463,270,99819,6,0,L|319:287,1,142.500005435944,4|0,3:2|0:0,0:0:0:0:
138,185,100219,2,0,P|190:179|262:231,1,142.500005435944,0|0,3:0|3:0,0:0:0:0:
190,343,100619,1,8,0:0:0:0:
190,343,100885,1,0,3:0:0:0:
71,236,101019,1,8,3:0:0:0:
190,343,101152,2,0,L|266:346,1,71.2500027179719,0|0,3:0|0:0,0:0:0:0:
146,158,101419,6,0,L|-6:151,1,142.500005435944,0|0,3:0|0:0,0:0:0:0:
227,197,101819,2,0,P|226:162|229:117,1,71.2500027179719,0|0,3:0|0:0,0:0:0:0:
168,30,102085,1,0,3:0:0:0:
412,90,102219,2,0,P|376:149|308:160,1,142.500005435944,8|0,0:0|3:0,0:0:0:0:
331,81,102619,1,8,3:0:0:0:
429,210,102752,2,0,P|429:245|427:281,1,71.2500027179719,0|0,3:0|0:0,0:0:0:0:
424,360,103019,5,0,3:0:0:0:
153,334,103285,1,0,0:0:0:0:
153,334,103419,2,0,L|297:319,1,142.500005435944,0|0,3:0|3:0,0:0:0:0:
207,176,103819,2,0,L|213:248,1,71.2500027179719,8|0,0:0|0:0,0:0:0:0:
232,96,104085,2,0,P|195:100|160:101,1,71.2500027179719,0|8,3:0|3:0,0:0:0:0:
288,210,104352,2,0,P|324:205|359:204,1,71.2500027179719,0|0,3:0|0:0,0:0:0:0:
148,295,104619,6,0,B|77:292|92:340|-2:336,1,142.500005435944,0|0,3:0|0:0,0:0:0:0:
163,209,105019,2,0,P|210:247|232:338,1,142.500005435944,0|0,3:0|3:0,0:0:0:0:
83,232,105419,2,0,L|88:138,1,71.2500027179719,8|0,0:0|0:0,0:0:0:0:
52,24,105685,1,8,3:0:0:0:
111,82,105819,1,8,0:0:0:0:
193,88,105952,1,8,3:0:0:0:
260,39,106085,1,4,3:0:0:0:
353,153,106219,6,0,L|495:129,1,142.500005435944,4|0,3:2|0:0,0:0:0:0:
331,239,106619,2,0,P|293:212|271:111,1,142.500005435944,0|0,3:0|3:0,0:0:0:0:
339,3,107019,2,0,P|341:39|335:74,1,71.2500027179719,8|0,0:0|0:0,0:0:0:0:
195,192,107285,1,0,3:0:0:0:
260,39,107419,1,8,3:0:0:0:
254,266,107552,1,0,3:0:0:0:
268,123,107685,1,0,0:0:0:0:
339,296,107819,6,0,P|389:309|467:241,1,142.500005435944,0|0,3:0|0:0,0:0:0:0:
333,175,108219,2,0,L|175:165,1,142.500005435944,0|0,3:0|3:0,0:0:0:0:
387,230,108619,1,8,0:0:0:0:
250,21,108885,2,0,L|261:97,1,71.2500027179719,0|8,3:0|3:0,0:0:0:0:
179,235,109152,2,0,L|190:165,1,71.2500027179719,0|0,3:0|0:0,0:0:0:0:
132,77,109419,6,0,P|76:89|56:228,1,213.750008153916,0|0,3:0|3:0,0:0:0:0:
190,165,109952,2,0,P|155:157|119:162,1,71.2500027179719,0|0,0:0|3:0,0:0:0:0:
268,317,110219,6,0,P|303:322|404:257,1,142.500005435944,8|0,0:0|3:0,0:0:0:0:
197,256,110619,1,8,3:0:0:0:
197,256,110752,2,0,L|183:349,1,71.2500027179719,0|0,3:0|0:0,0:0:0:0:
367,135,111019,6,0,B|230:101|258:199|103:158,1,256.499992172241,0|0,3:0|3:0,0:0:0:0:
174,84,111552,1,0,0:0:0:0:
192,243,111685,1,0,3:0:0:0:
35,153,111819,2,0,P|77:150|118:161,1,85.4999973907472,8|0,0:0|0:0,0:0:0:0:
271,286,112085,5,8,3:0:0:0:
252,130,112219,1,0,3:0:0:0:
351,251,112352,5,8,3:0:0:0:
330,172,112485,1,4,3:0:0:0:
417,193,112619,5,2,3:2:0:0:
256,192,112685,12,0,113952,0:0:0:0:
487,177,114219,5,0,0:0:0:0:
378,174,114485,5,0,0:0:0:0:
301,223,114752,5,0,0:0:0:0:
283,258,115019,6,0,B|199:270|221:221|119:236,1,156.74999521637,2|0,0:0|0:0,0:0:0:0:
59,262,115819,1,4,1:2:0:0:
490,35,128619,5,8,0:0:0:0:
300,160,128752,1,0,3:0:0:0:
512,220,128885,1,8,0:0:0:0:
276,164,129018,1,0,3:0:0:0:
473,132,129152,6,0,L|388:143,1,71.25,8|0,0:0|0:0,0:0:0:0:
387,159,129419,6,0,P|348:98|219:107,1,209.000006378174,0|8,3:2|0:0,0:0:0:0:
157,287,129819,1,0,3:0:0:0:
293,170,129952,1,8,0:0:0:0:
136,66,130085,1,0,3:0:0:0:
253,255,130219,6,0,B|363:283|337:201|465:235,1,209.000006378174,8|8,3:2|0:0,0:0:0:0:
346,74,130619,1,0,3:0:0:0:
478,125,130752,2,0,P|429:141|378:149,1,104.500003189087,8|0,0:0|3:0,0:0:0:0:
181,328,131019,6,0,P|232:335|281:352,1,104.500003189087,8|0,3:2|0:0,0:0:0:0:
484,224,131285,1,8,0:0:0:0:
404,60,131419,2,0,P|348:63|293:205,1,209.000006378174,0|0,3:0|3:0,0:0:0:0:
386,253,131819,6,0,L|376:148,1,104.500003189087,8|0,0:0|0:0,0:0:0:0:
180,48,132085,2,0,L|308:68,1,104.500003189087,8|0,0:0|3:0,0:0:0:0:
80,252,132352,2,0,L|92:148,1,104.500003189087,8|0,0:0|3:0,0:0:0:0:
312,320,132619,6,0,B|216:334|216:334|201:347|201:347|110:363,1,209.000006378174,8|8,0:0|0:0,0:0:0:0:
0,184,133019,1,0,3:0:0:0:
176,220,133152,2,0,L|292:204,1,104.500003189087,8|0,0:0|3:0,0:0:0:0:
308,36,133419,6,0,P|206:52|100:63,1,209.000006378174,8|8,0:0|0:0,0:0:0:0:
320,124,133819,1,0,3:0:0:0:
116,152,133952,1,8,0:0:0:0:
200,12,134085,1,0,3:0:0:0:
232,248,134219,6,0,L|216:132,1,104.500003189087,8|0,3:2|0:0,0:0:0:0:
288,8,134485,1,8,0:0:0:0:
456,56,134619,2,0,P|420:144|312:164,1,209.000006378174,0|0,3:0|3:0,0:0:0:0:
92,138,135019,6,0,P|128:226|236:246,1,209.000006378174,8|12,3:2|0:0,0:0:0:0:
324,24,135419,1,0,3:0:0:0:
192,152,135552,1,12,0:0:0:0:
272,324,135685,1,0,3:0:0:0:
404,196,135819,6,0,L|392:72,1,104.500003189087,4|0,3:2|0:0,0:0:0:0:
360,356,136085,1,8,0:0:0:0:
496,236,136219,2,0,B|384:212|412:300|264:268,1,209.000006378174,0|0,3:0|3:0,0:0:0:0:
7,138,136619,6,0,L|234:123,1,209.000006378174,8|8,3:2|0:0,0:0:0:0:
307,163,137019,1,0,3:0:0:0:
174,33,137152,2,0,L|60:23,1,104.500003189087,8|0,0:0|3:0,0:0:0:0:
272,260,137419,6,0,P|370:246|409:154,1,209.000006378174,8|8,3:2|0:0,0:0:0:0:
314,64,137819,2,0,B|296:112|296:112|308:164,1,104.500003189087,0|8,3:0|0:0,0:0:0:0:
496,296,138085,1,0,3:0:0:0:
496,296,138219,6,0,B|514:248|514:248|502:196,1,104.500003189087,8|0,3:2|0:0,0:0:0:0:
420,60,138485,1,8,0:0:0:0:
204,104,138619,1,0,3:0:0:0:
409,154,138752,1,8,0:0:0:0:
244,16,138885,1,0,3:0:0:0:
104,200,139019,6,0,B|92:252|92:252|110:299,1,104.500003189087,8|0,3:2|0:0,0:0:0:0:
408,292,139285,1,8,0:0:0:0:
192,248,139419,1,0,3:0:0:0:
397,198,139552,1,8,0:0:0:0:
232,336,139685,1,0,3:0:0:0:
320,136,139819,6,0,L|336:24,1,104.500003189087,8|0,3:2|0:0,0:0:0:0:
88,113,140085,2,0,P|117:208|216:220,1,209.000006378174,8|8,0:0|0:0,0:0:0:0:
174,141,140485,1,0,3:0:0:0:
96,290,140619,6,0,P|45:317|-10:331,1,104.500003189087,8|0,3:2|0:0,0:0:0:0:
23,234,140885,1,8,0:0:0:0:
168,344,141019,2,0,B|272:317|257:386|390:351,1,209.000006378174,0|0,3:0|3:0,0:0:0:0:
498,162,141419,5,8,3:2:0:0:
329,185,141552,1,0,0:0:0:0:
422,203,141685,5,8,0:0:0:0:
154,140,141819,1,0,3:0:0:0:
247,135,141952,5,8,0:0:0:0:
85,195,142085,1,0,3:0:0:0:
329,185,142219,6,0,L|342:64,1,104.500003189087,4|0,3:2|0:0,0:0:0:0:
71,27,142485,1,8,0:0:0:0:
200,123,142619,1,8,0:0:0:0:
87,140,142752,1,8,0:0:0:0:
184,10,142885,1,8,0:0:0:0:
158,218,143019,6,0,L|169:321,1,104.500003189087,4|0,3:2|0:0,0:0:0:0:
444,339,143285,1,8,0:0:0:0:
329,185,143418,1,8,0:0:0:0:
463,205,143551,1,8,0:0:0:0:
309,319,143685,1,8,0:0:0:0:
352,88,143819,6,0,P|412:132|392:268,1,209.000006378174,4|8,3:2|0:0,0:0:0:0:
169,321,144219,2,0,P|109:277|129:141,1,209.000006378174,2|0,3:2|3:0,0:0:0:0:
255,200,144619,5,12,0:0:0:0:
235,224,145419,6,0,B|131:239|159:173|38:191,1,190,6|0,3:2|0:0,0:0:0:0:
206,143,145819,2,0,P|259:131|325:99,1,95,8|0,0:0|0:0,0:0:0:0:
224,55,146085,1,8,0:0:0:0:
151,307,146219,2,0,P|96:301|58:176,1,190,2|0,3:2|3:0,0:0:0:0:
51,188,146619,1,0,0:0:0:0:
226,244,146752,2,0,P|245:291|244:345,1,95,8|0,0:0|0:0,0:0:0:0:
135,225,147019,6,0,B|142:142|142:142|152:125|152:125|162:27,1,190,2|0,3:2|0:0,0:0:0:0:
257,19,147419,2,0,L|246:113,1,95,8|0,0:0|0:0,0:0:0:0:
62,73,147685,1,8,0:0:0:0:
124,319,147819,2,0,L|134:224,1,95,2|0,3:2|0:0,0:0:0:0:
135,139,148085,2,0,P|89:156|51:203,1,95,0|0,3:0|0:0,0:0:0:0:
182,380,148352,2,0,P|226:364|258:330,1,95,8|0,0:0|0:0,0:0:0:0:
385,183,148619,6,0,P|333:192|226:99,1,190,2|0,3:2|0:0,0:0:0:0:
411,67,149019,2,0,P|374:96|328:102,1,95,8|0,0:0|0:0,0:0:0:0:
341,16,149285,1,8,0:0:0:0:
476,130,149419,2,0,B|494:175|494:175|482:243,1,95,2|0,3:2|0:0,0:0:0:0:
313,360,149685,2,0,B|295:315|295:315|307:247,1,95,0|0,3:0|0:0,0:0:0:0:
385,183,149952,1,8,0:0:0:0:
189,292,150219,6,0,L|-24:314,1,190,2|0,3:2|0:0,0:0:0:0:
50,91,150619,2,0,P|103:120|116:182,1,95,8|0,0:0|0:0,0:0:0:0:
34,175,150885,1,8,0:0:0:0:
170,69,151019,2,0,P|202:131|178:233,1,142.5,6|0,3:2|0:0,0:0:0:0:
188,223,151285,1,8,3:0:0:0:
104,17,151419,5,8,3:0:0:0:
367,131,151552,1,4,3:0:0:0:
136,301,151685,1,4,3:0:0:0:
248,36,151819,6,0,L|357:19,1,95,6|0,3:2|0:0,0:0:0:0:
403,223,152085,1,0,0:0:0:0:
460,145,152219,2,0,L|351:128,1,95,8|0,0:0|0:0,0:0:0:0:
251,317,152485,1,8,0:0:0:0:
192,243,152619,2,0,P|256:229|348:330,1,190,2|0,3:2|3:0,0:0:0:0:
344,304,153019,1,0,0:0:0:0:
120,300,153152,2,0,P|105:252|118:185,1,95,8|0,0:0|0:0,0:0:0:0:
259,40,153419,6,0,P|274:88|261:155,1,95,2|0,3:2|0:0,0:0:0:0:
185,96,153685,1,0,0:0:0:0:
355,172,153819,2,0,L|455:160,1,95,8|0,0:0|0:0,0:0:0:0:
393,80,154085,1,8,0:0:0:0:
295,295,154219,2,0,L|123:282,1,142.5,2|0,3:2|0:0,0:0:0:0:
131,294,154485,2,0,B|117:248|117:248|130:172,1,95,0|0,3:0|0:0,0:0:0:0:
283,90,154752,2,0,B|297:136|297:136|284:212,1,95,8|0,0:0|0:0,0:0:0:0:
25,175,155019,6,0,B|133:191|95:124|214:144,1,190,2|0,3:2|0:0,0:0:0:0:
408,251,155419,2,0,P|350:266|305:264,1,95,8|0,0:0|0:0,0:0:0:0:
432,157,155685,1,8,0:0:0:0:
357,356,155819,2,0,P|301:354|208:249,2,190,2|0|8,3:2|3:0|0:0,0:0:0:0:
456,312,156485,1,0,0:0:0:0:
456,312,156619,6,0,L|438:192,1,95,10|0,0:0|0:0,0:0:0:0:
365,59,156885,1,0,3:0:0:0:
456,25,157019,2,0,L|438:145,1,95,8|0,0:0|0:0,0:0:0:0:
277,279,157285,1,0,3:0:0:0:
374,337,157419,2,0,L|345:164,1,142.5,10|0,0:0|0:0,0:0:0:0:
345,173,157685,1,8,0:0:0:0:
456,312,157819,1,8,0:0:0:0:
277,279,157952,1,0,3:0:0:0:
255,276,158219,6,0,L|151:287,1,104.500003189087,4|0,3:2|0:0,0:0:0:0:
337,91,158485,2,0,L|325:194,1,104.500003189087,12|0,0:0|3:0,0:0:0:0:
149,5,158752,2,0,L|252:16,1,104.500003189087,12|0,0:0|0:0,0:0:0:0:
54,227,159019,5,8,3:0:0:0:
27,46,159152,1,0,3:0:0:0:
183,239,159285,1,4,3:0:0:0:
11,356,159419,1,0,3:0:0:0:
128,117,159552,1,8,3:0:0:0:
223,376,159685,1,8,3:0:0:0:
54,227,159819,6,0,L|37:103,1,104.500003189087,12|0,3:2|0:0,0:0:0:0:
325,124,160085,2,0,L|310:227,1,104.500003189087,12|0,0:0|3:0,0:0:0:0:
126,33,160352,2,0,L|251:19,1,104.500003189087,12|0,0:0|0:0,0:0:0:0:
280,336,160619,5,8,3:0:0:0:
36,328,160752,1,0,3:0:0:0:
310,227,160885,5,4,3:0:0:0:
116,292,161019,1,0,3:0:0:0:
296,115,161152,5,4,3:0:0:0:
172,228,161285,1,4,3:0:0:0:
229,21,161419,6,0,P|282:16|331:38,1,104.500003189087,12|0,3:2|0:0,0:0:0:0:
139,255,161685,2,0,P|108:213|101:161,1,104.500003189087,12|0,0:0|3:0,0:0:0:0:
397,200,161952,2,0,P|372:270|293:303,1,156.750004783631,12|0,0:0|0:0,0:0:0:0:
284,322,162219,6,0,L|274:203,1,104.500003189087,8|0,3:0|3:0,0:0:0:0:
364,48,162485,1,4,3:0:0:0:
147,211,162619,1,0,3:0:0:0:
409,177,162752,1,8,3:0:0:0:
149,70,162885,1,8,3:0:0:0:
325,145,163019,5,8,0:0:0:0:
214,155,163152,1,0,0:0:0:0:
364,48,163285,2,0,P|414:83|432:154,1,104.500003189087,0|8,3:0|0:0,0:0:0:0:
368,317,163552,2,0,P|318:282|300:211,1,104.500003189087,0|8,3:0|0:0,0:0:0:0:
325,145,163819,5,8,0:0:0:0:
452,250,163952,1,0,3:0:0:0:
449,240,164019,1,0,3:0:0:0:
446,230,164085,2,0,L|375:219,1,52.2500015945435,0|0,3:0|0:0,0:0:0:0:
214,341,164219,2,0,L|285:352,1,52.2500015945435,0|0,3:0|0:0,0:0:0:0:
325,145,164352,6,0,B|253:134|253:134|228:140|228:140|121:126,1,178.125,4|0,3:2|0:0,0:0:0:0:
126,114,164619,1,4,3:2:0:0:
126,114,164885,5,10,0:0:0:0:
376,36,165019,1,0,3:2:0:0:
140,248,165152,1,10,0:0:0:0:
404,280,165285,1,0,0:0:0:0:
232,32,165419,5,10,3:2:0:0:
272,320,165552,1,0,0:0:0:0:
472,136,165685,1,8,0:0:0:0:
200,170,165819,1,0,3:0:0:0:
383,254,165952,1,8,0:0:0:0:
359,54,166085,1,0,0:0:0:0:
112,68,166219,6,0,P|131:142|201:170,1,156.750004783631,10|0,3:2|0:0,0:0:0:0:
221,186,166485,2,0,L|213:73,1,104.500003189087,8|0,0:0|3:0,0:0:0:0:
9,231,166752,2,0,L|1:335,1,104.500003189087,8|0,0:0|0:0,0:0:0:0:
143,361,167019,5,10,3:2:0:0:
25,136,167152,1,0,0:0:0:0:
309,283,167285,5,10,0:0:0:0:
89,194,167419,1,0,3:0:0:0:
396,124,167552,5,10,0:0:0:0:
169,206,167685,1,0,0:0:0:0:
331,1,167819,5,10,3:2:0:0:
252,185,167952,1,0,0:0:0:0:
440,288,168085,1,10,0:0:0:0:
264,80,168219,1,0,3:0:0:0:
320,276,168352,1,10,0:0:0:0:
416,100,168485,1,0,0:0:0:0:
152,180,168619,6,0,P|100:160|104:52,1,156.750004783631,10|0,3:2|0:0,0:0:0:0:
108,48,168885,1,8,0:0:0:0:
448,192,169019,1,8,0:0:0:0:
108,336,169152,1,10,0:0:0:0:
256,8,169285,1,8,0:0:0:0:
404,336,169419,5,0,0:0:0:0:
412,347,169723,2,0,P|380:353|354:356,1,47.5
303,307,169994,2,0,P|274:304|257:299,1,47.5
451,272,170269,1,0,0:0:0:0:
