osu file format v14

[General]
AudioFilename: audio.mp3
AudioLeadIn: 0
PreviewTime: 348
Countdown: 0
SampleSet: Soft
StackLeniency: 0.4
Mode: 0
LetterboxInBreaks: 0
WidescreenStoryboard: 1

[Editor]
Bookmarks: 13419,26219,39019,55019,71019,77419,83819,96619,99819,106219,115819,128619,145419,158219
DistanceSpacing: 0.7
BeatDivisor: 4
GridSize: 16
TimelineZoom: 2.899999

[Metadata]
Title:Noise
TitleUnicode:ノイズ
Artist:MIOYAMAZAKI
ArtistUnicode:ミオヤマザキ
Creator:toybot
Version:Kalihas' Extra
Source:地獄少女 宵伽
Tags:jigoku shoujo yoi no togi opening delis aeril haruru irohas mugiwarasekai kalibe
BeatmapID:1501757
BeatmapSetID:664507

[Difficulty]
HPDrainRate:6
CircleSize:4.2
OverallDifficulty:8.7
ApproachRate:9.3
SliderMultiplier:1.79
SliderTickRate:2

[Events]
//Background and Video events
0,0,"noise bg.jpg",0,0
//Break Periods
2,116019,128065
//Storyboard Layer 0 (Background)
//Storyboard Layer 1 (Fail)
//Storyboard Layer 2 (Pass)
//Storyboard Layer 3 (Foreground)
//Storyboard Sound Samples

[TimingPoints]
619,266.666666666667,3,2,1,40,1,0
619,-200,3,2,1,40,0,0
12619,-166.666666666667,3,2,1,50,0,0
13085,-100,3,2,1,5,0,0
13152,-100,3,2,1,60,0,0
13352,-100,3,2,1,5,0,0
13419,-100,3,2,1,80,0,0
13619,-100,3,2,1,5,0,0
13685,-100,3,2,1,80,0,0
19219,-100,3,2,1,80,0,0
19285,-100,3,2,1,80,0,0
20285,-100,3,2,1,80,0,0
20352,-100,3,2,1,80,0,0
22685,-100,3,2,1,80,0,0
22752,-100,3,2,1,80,0,0
25419,-100,3,2,1,80,0,0
25619,-83.3333333333333,3,2,1,5,0,0
25685,-83.3333333333333,3,2,1,80,0,0
26219,-125,3,2,1,60,0,0
38219,-200,3,2,1,60,0,0
38752,-200,3,2,1,5,0,0
39019,-117.647058823529,3,2,1,70,0,0
39219,-117.647058823529,3,2,1,5,0,0
39285,-117.647058823529,3,2,1,70,0,0
41685,-95.238095238095,3,2,1,70,0,0
41885,-117.647058823529,3,2,1,70,0,0
41952,-117.647058823529,3,2,1,70,0,0
46752,-95.238095238095,3,2,1,70,0,0
46952,-117.647058823529,3,2,1,5,0,0
47019,-117.647058823529,3,2,1,70,0,0
48619,-117.647058823529,3,2,1,65,0,0
49152,-153.846153846153,3,2,1,65,0,0
49952,-133.333333333333,3,2,1,65,0,0
50219,-153.846153846153,3,2,1,70,0,0
51819,-153.846153846153,3,2,1,75,0,0
53419,-153.846153846153,3,2,1,40,0,0
53619,-153.846153846153,3,2,1,5,0,0
53685,-153.846153846153,3,2,1,45,0,0
53885,-153.846153846153,3,2,1,5,0,0
53952,-153.846153846153,3,2,1,50,0,0
54152,-153.846153846153,3,2,1,5,0,0
54219,-200,3,2,1,60,0,0
54752,-200,3,2,1,20,0,0
55019,-100,3,2,1,80,0,1
61152,-166.666666666667,3,2,1,80,0,1
61419,-100,3,2,1,80,0,1
64552,-100,3,2,1,5,0,1
64619,-100,3,2,1,80,0,1
64819,-100,3,2,1,80,0,1
64885,-100,3,2,1,80,0,1
69619,-100,3,2,1,5,0,1
69685,-100,3,2,1,80,0,1
70219,-200,3,2,1,80,0,0
71019,-100,3,2,1,75,0,0
71752,-100,3,2,1,75,0,0
71819,-100,3,2,1,75,0,0
73352,-100,3,2,1,5,0,0
73419,-100,3,2,1,75,0,0
75752,-100,3,2,1,5,0,0
75819,-100,3,2,1,75,0,0
76619,-200,3,2,1,75,0,0
76652,-200,3,2,1,20,0,0
77085,-200,3,2,1,20,0,0
77152,-83.3333333333333,3,2,1,20,0,0
77219,-83.3333333333333,3,2,1,30,0,0
77285,-83.3333333333333,3,2,1,40,0,0
77319,-83.3333333333333,3,2,1,45,0,0
77352,-83.3333333333333,3,2,1,50,0,0
77419,-111.111111111111,3,2,1,70,0,0
83552,-166.666666666666,3,2,1,60,0,0
83819,-142.857142857143,3,2,1,60,0,0
96619,-166.666666666667,3,2,1,50,0,0
99819,-142.857142857143,3,2,1,60,0,0
112619,-200,3,2,1,60,0,0
113952,-200,3,2,1,30,0,0
114219,-200,3,2,1,40,0,0
115019,-200,3,2,1,50,0,0
115752,-200,3,2,1,5,0,0
115819,-200,3,2,1,60,0,0
129352,-200,3,2,1,5,0,0
129419,-100,3,2,1,80,0,1
135219,-100,3,2,1,5,0,1
135285,-83.3333333333333,3,2,1,80,0,1
135819,-100,3,2,1,80,0,1
142419,-100,3,2,1,5,0,1
142485,-100,3,2,1,80,0,1
143219,-100,3,2,1,5,0,1
143285,-100,3,2,1,80,0,1
144019,-100,3,2,1,5,0,1
144085,-125,3,2,1,80,0,1
144619,-100,3,2,1,80,0,0
145419,-111.111111111111,3,2,1,75,0,0
151219,-111.111111111111,3,2,1,5,0,0
151285,-111.111111111111,3,2,1,75,0,0
154419,-111.111111111111,3,2,1,5,0,0
154485,-111.111111111111,3,2,1,75,0,0
157619,-111.111111111111,3,2,1,5,0,0
157685,-111.111111111111,3,2,1,75,0,0
158219,-100,3,2,1,75,0,1
159019,-142.857142857143,3,2,1,75,0,1
159819,-100,3,2,1,75,0,1
161352,-100,3,2,1,5,0,1
161419,-100,3,2,1,75,0,1
162152,-100,3,2,1,5,0,1
162219,-125,3,2,1,75,0,1
163752,-100,3,2,1,5,0,1
163819,-100,3,2,1,75,0,1
164552,-100,3,2,1,5,0,1
164619,-100,3,2,1,75,0,1
166419,-100,3,2,1,5,0,1
166485,-100,3,2,1,75,0,1
168819,-100,3,2,1,5,0,1
168885,-100,3,2,1,75,0,1
169419,304.568527918782,3,2,1,40,1,0
169419,-166.666666666667,3,2,1,40,0,0
169723,271.493212669683,3,2,1,20,1,0
169723,-166.666666666667,3,2,1,20,0,0
169858,-166.666666666667,3,2,1,15,0,0
169994,275.229357798165,3,2,1,20,1,0
169994,-166.666666666667,3,2,1,20,0,0
170131,-100,3,2,1,15,0,0
170269,-100,3,2,1,30,0,0

[Colours]
Combo1 : 128,128,255
Combo2 : 255,128,255
Combo3 : 0,128,255
Combo4 : 255,128,128

[HitObjects]
56,319,619,6,0,P|94:341|142:335,1,89.5,4|0,1:3|0:0,0:0:0:0:
196,284,1019,2,0,P|234:261|278:266,1,89.5,0|0,0:0|0:0,0:0:0:0:
335,320,1419,2,0,P|373:342|467:312,1,134.25,0|0,0:0|0:0,0:0:0:0:
465,324,1952,2,0,L|477:269,1,44.75,0|0,0:0|0:0,0:0:0:0:
508,182,2219,6,0,P|465:193|404:205,1,89.5,2|0,0:0|0:0,0:0:0:0:
354,243,2619,2,0,P|310:233|266:222,1,89.5,0|0,0:0|0:0,0:0:0:0:
206,174,3019,2,0,P|162:183|66:207,1,134.25,2|0,0:0|0:0,0:0:0:0:
69,209,3552,1,0,0:0:0:0:
0,77,3819,6,0,P|41:96|88:89,1,89.5,2|0,0:0|0:0,0:0:0:0:
144,41,4219,2,0,P|183:22|227:27,1,89.5,0|0,0:0|0:0,0:0:0:0:
288,77,4619,2,0,B|364:98|351:47|428:69,1,134.25,0|0,0:0|0:0,0:0:0:0:
423,72,5152,2,0,L|413:123,1,44.75,0|0,0:0|0:0,0:0:0:0:
440,204,5419,6,0,L|349:186,1,89.5,2|0,0:0|0:0,0:0:0:0:
297,242,5819,2,0,L|206:260,1,89.5,0|0,0:0|0:0,0:0:0:0:
177,188,6219,2,0,P|127:234|139:302,1,134.25,2|0,0:0|0:0,0:0:0:0:
192,347,6752,2,0,P|235:355|269:361,1,67.125,0|0,0:0|0:0,0:0:0:0:
276,351,7019,5,2,0:0:0:0:
390,281,7285,1,0,0:0:0:0:
390,281,7419,1,0,0:0:0:0:
327,162,7685,1,0,0:0:0:0:
327,162,7819,1,0,0:0:0:0:
442,94,8085,6,0,L|393:86,1,44.75,0|0,0:0|0:0,0:0:0:0:
336,36,8352,2,0,L|280:44,1,44.75,0|0,0:0|0:0,0:0:0:0:
204,108,8619,5,2,0:0:0:0:
264,227,8885,1,0,0:0:0:0:
264,227,9019,1,0,0:0:0:0:
157,308,9285,1,0,0:0:0:0:
157,308,9419,2,0,P|85:314|45:266,1,134.25,0|0,0:0|0:0,0:0:0:0:
4,204,9952,2,0,L|52:192,1,44.75,0|0,0:0|0:0,0:0:0:0:
232,236,10219,5,2,0:0:0:0:
297,151,10485,1,0,0:0:0:0:
197,60,10752,2,0,L|206:114,1,44.75,0|0,0:0|0:0,0:0:0:0:
240,328,11019,5,0,0:0:0:0:
309,246,11285,1,0,0:0:0:0:
212,152,11552,2,0,P|165:146|107:139,1,89.5,0|2,0:0|0:0,0:0:0:0:
92,128,12219,5,0,0:0:0:0:
92,128,12352,2,0,L|104:180,1,44.75,0|0,0:0|0:0,0:0:0:0:
24,284,12619,6,0,B|72:260|112:264|120:300|152:316|208:288,1,187.949994264221,0|0,0:0|0:0,0:0:0:0:
296,228,13152,6,0,P|231:224|190:275,1,134.25,4|0,3:0|0:0,0:0:0:0:
260,344,13419,6,0,P|330:329|407:314,1,134.25,4|0,3:2|0:0,0:0:0:0:
463,347,13685,1,8,0:0:0:0:
428,195,13819,1,2,3:2:0:0:
463,347,13952,2,0,P|471:303|480:239,1,89.5,10|0,3:2|0:0,0:0:0:0:
383,371,14219,5,14,3:2:0:0:
307,194,14352,1,0,0:0:0:0:
245,272,14485,5,10,0:0:0:0:
389,186,14619,1,0,3:0:0:0:
239,123,14752,5,10,3:2:0:0:
309,342,14885,1,2,0:0:0:0:
84,185,15019,6,0,P|98:275|113:371,1,179,14|8,3:2|0:0,0:0:0:0:
245,272,15419,2,0,P|238:316|228:378,1,89.5,2|8,3:2|0:0,0:0:0:0:
171,214,15685,1,0,0:0:0:0:
339,281,15819,6,0,B|362:240|362:240|341:200,1,89.5,14|0,3:2|0:0,0:0:0:0:
267,77,16085,2,0,B|245:116|245:116|268:156,1,89.5,10|0,0:0|3:0,0:0:0:0:
480,79,16352,5,10,3:2:0:0:
334,117,16485,1,2,3:2:0:0:
480,79,16619,6,0,P|429:71|367:61,1,89.5,14|0,3:2|0:0,0:0:0:0:
221,15,16885,2,0,P|252:0|311:14,1,89.5,8|2,0:0|3:2,0:0:0:0:
193,150,17152,2,0,P|151:162|110:146,1,89.5,10|2,3:2|0:0,0:0:0:0:
267,77,17419,5,12,3:2:0:0:
182,238,17552,1,2,0:0:0:0:
84,76,17685,2,0,P|90:120|98:164,1,89.5,8|2,0:0|3:2,0:0:0:0:
53,233,17952,5,10,3:2:0:0:
193,150,18085,1,2,0:0:0:0:
156,307,18219,5,12,3:2:0:0:
98,164,18352,1,0,0:0:0:0:
257,299,18485,5,8,0:0:0:0:
226,384,18619,1,2,3:2:0:0:
193,231,18752,5,8,0:0:0:0:
327,378,18885,1,0,0:0:0:0:
511,298,19019,6,0,P|472:304|369:322,1,134.25,14|0,3:2|0:0,0:0:0:0:
353,313,19285,6,0,P|342:290|364:210,1,89.5,10|0,0:0|3:0,0:0:0:0:
448,104,19552,2,0,P|459:127|437:207,1,89.5,8|2,3:2|0:0,0:0:0:0:
292,150,19819,6,0,P|340:146|393:142,1,89.5,12|0,3:2|0:0,0:0:0:0:
225,198,20085,2,0,P|177:194|83:186,1,134.25,8|0,0:0|0:0,0:0:0:0:
84,184,20352,5,8,3:2:0:0:
135,338,20485,1,2,0:0:0:0:
1,286,20619,6,0,P|36:270|91:286,1,89.5,12|0,3:2|0:0,0:0:0:0:
218,343,20885,2,0,P|175:354|134:337,1,89.5,8|0,0:0|3:0,0:0:0:0:
325,384,21152,1,8,3:2:0:0:
280,163,21285,1,2,0:0:0:0:
325,384,21419,6,0,P|335:311|351:205,1,179,12|8,3:2|0:0,0:0:0:0:
348,201,21819,1,0,3:0:0:0:
164,272,21952,2,0,P|155:227|149:183,1,89.5,8|2,3:2|0:0,0:0:0:0:
247,331,22219,6,0,P|256:287|265:243,1,89.5,12|0,3:2|0:0,0:0:0:0:
161,364,22485,2,0,P|117:380|33:330,1,134.25,8|0,0:0|0:0,0:0:0:0:
36,336,22752,5,8,3:2:0:0:
178,288,22885,1,2,0:0:0:0:
0,265,23019,6,0,B|-24:227|-24:227|3:177,1,89.5,12|0,3:2|0:0,0:0:0:0:
154,232,23285,2,0,P|113:228|47:221,1,89.5,8|2,0:0|3:2,0:0:0:0:
212,146,23552,1,8,0:0:0:0:
64,223,23685,1,0,0:0:0:0:
106,61,23819,6,0,P|116:117|127:173,1,89.5,14|0,3:2|0:0,0:0:0:0:
276,41,24085,2,0,P|233:29|192:46,1,89.5,8|2,0:0|3:2,0:0:0:0:
361,169,24352,1,10,3:2:0:0:
384,13,24485,1,0,0:0:0:0:
361,169,24619,6,0,P|354:124|349:80,1,89.5,14|0,3:2|0:0,0:0:0:0:
416,235,24885,2,0,P|410:279|404:323,1,89.5,8|0,0:0|3:0,0:0:0:0:
456,164,25152,5,10,3:2:0:0:
327,308,25285,1,0,0:0:0:0:
231,170,25419,2,0,P|236:214|242:258,1,89.5,12|0,3:2|0:0,0:0:0:0:
90,311,25685,5,8,0:0:0:0:
246,264,25819,1,8,3:2:0:0:
109,224,25952,5,8,3:2:0:0:
181,379,26086,1,8,0:0:0:0:
302,315,26219,1,6,3:2:0:0:
433,368,26485,5,0,0:0:0:0:
433,368,26619,2,0,P|463:322|441:233,1,143.2,2|0,3:2|3:0,0:0:0:0:
316,212,27019,6,0,L|332:291,1,71.6,2|0,0:3|0:0,0:0:0:0:
424,149,27285,2,0,L|440:224,1,71.6,0|0,3:0|0:0,0:0:0:0:
324,128,27552,1,0,3:0:0:0:
403,66,27685,1,0,0:0:0:0:
403,66,27819,6,0,P|348:23|272:41,1,143.2,2|0,3:2|0:0,0:0:0:0:
163,144,28219,2,0,B|249:150|215:195|293:200,1,143.2,2|0,3:2|3:0,0:0:0:0:
296,205,28619,2,0,P|304:170|316:136,1,71.6,2|0,0:3|0:0,0:0:0:0:
166,242,28885,2,0,P|177:275|186:310,1,71.6,0|0,3:0|0:0,0:0:0:0:
138,155,29152,5,0,3:0:0:0:
41,332,29285,1,0,0:0:0:0:
13,209,29419,6,0,P|84:225|156:243,1,143.2,2|0,3:2|0:0,0:0:0:0:
254,355,29819,2,0,P|289:351|321:337,1,71.6,2|0,3:2|0:0,0:0:0:0:
422,261,30085,1,0,3:0:0:0:
297,189,30219,6,0,P|278:219|270:263,1,71.6,2|0,0:3|0:0,0:0:0:0:
411,351,30485,2,0,P|430:320|437:286,1,71.6,0|0,3:0|0:0,0:0:0:0:
499,194,30752,6,0,P|463:186|429:177,1,71.6,0|0,3:0|0:0,0:0:0:0:
362,59,31019,2,0,P|432:48|503:36,1,143.2,2|0,3:2|0:0,0:0:0:0:
510,38,31419,2,0,L|493:121,1,71.6,2|0,3:2|0:0,0:0:0:0:
408,181,31685,1,0,3:0:0:0:
347,90,31819,6,0,P|312:80|278:69,1,71.6,2|0,0:3|0:0,0:0:0:0:
360,239,32085,2,0,P|369:204|380:170,1,71.6,0|0,3:0|0:0,0:0:0:0:
207,268,32352,2,0,P|241:277|275:288,1,71.6,0|0,3:0|0:0,0:0:0:0:
363,341,32619,6,0,P|292:334|232:380,1,143.2,2|0,3:2|0:0,0:0:0:0:
123,306,33019,2,0,L|142:381,1,71.6,2|0,3:2|0:0,0:0:0:0:
207,268,33285,1,0,3:0:0:0:
91,229,33419,6,0,P|59:244|11:259,1,71.6,2|0,0:3|0:0,0:0:0:0:
213,150,33685,2,0,P|246:161|279:176,1,71.6,0|0,3:0|0:0,0:0:0:0:
83,84,33952,2,0,P|67:51|56:17,1,71.6,0|0,3:0|0:0,0:0:0:0:
129,152,34219,5,2,3:2:0:0:
284,52,34485,1,0,0:0:0:0:
284,52,34619,2,0,P|354:44|412:90,1,143.2,2|0,3:2|3:0,0:0:0:0:
304,199,35019,6,0,P|310:161|326:131,1,71.6,2|0,0:3|0:0,0:0:0:0:
480,27,35285,2,0,P|496:58|502:93,1,71.6,0|0,3:0|0:0,0:0:0:0:
393,190,35552,5,0,3:0:0:0:
501,313,35685,1,0,0:0:0:0:
488,218,35819,6,0,P|417:221|363:269,1,143.2,2|0,3:2|0:0,0:0:0:0:
252,380,36219,2,0,P|267:345|284:303,1,71.6,2|0,3:2|0:0,0:0:0:0:
206,215,36485,1,0,3:0:0:0:
86,356,36619,6,0,P|119:342|163:331,1,71.6,2|0,0:3|0:0,0:0:0:0:
281,212,36885,2,0,P|246:202|213:188,1,71.6,0|0,3:0|0:0,0:0:0:0:
98,100,37152,1,0,3:0:0:0:
209,37,37285,1,0,0:0:0:0:
72,23,37419,6,0,P|138:68|200:51,1,143.2,4|0,3:2|0:0,0:0:0:0:
349,133,37819,2,0,P|280:121|225:164,1,143.2,0|0,3:0|3:0,0:0:0:0:
139,288,38219,6,0,B|181:208|104:197|151:115,1,179,2|0,3:2|0:0,0:0:0:0:
159,96,39019,6,0,P|117:78|22:136,1,152.150002902031,4|0,3:2|3:0,0:0:0:0:
40,267,39419,1,0,0:0:0:0:
58,189,39552,6,0,P|46:232|33:277,1,76.0750014510155,0|0,3:0|0:0,0:0:0:0:
114,384,39819,2,0,P|105:346|97:308,1,76.0750014510155,0|0,3:0|0:0,0:0:0:0:
213,368,40085,5,0,3:0:0:0:
283,338,40219,1,0,0:0:0:0:
349,374,40352,5,8,1:2:0:0:
359,374,40619,6,0,P|286:365|195:354,1,152.150002902031,0|0,3:0|3:0,0:0:0:0:
434,337,41019,2,0,P|454:300|416:199,1,152.150002902031,0|0,0:0|0:0,0:0:0:0:
420,202,41419,6,0,P|412:246|402:299,1,76.0750014510155,0|0,3:0|0:0,0:0:0:0:
366,138,41685,6,0,B|288:127|313:202|217:166,1,140.962495698166,0|0,3:0|0:0,0:0:0:0:
230,162,41952,6,0,P|235:133|246:70,1,76.0750014510155,8|0,1:2|0:0,0:0:0:0:
180,222,42219,6,0,P|189:297|201:384,1,152.150002902031,0|0,3:0|3:0,0:0:0:0:
339,288,42619,2,0,P|331:328|320:371,1,76.0750014510155,0|0,0:0|0:0,0:0:0:0:
282,228,42885,1,0,0:0:0:0:
427,290,43019,6,0,B|443:253|443:253|423:209,1,76.0750014510155,0|0,3:0|0:0,0:0:0:0:
356,95,43285,2,0,B|340:134|340:134|360:176,1,76.0750014510155,0|0,3:0|0:0,0:0:0:0:
406,35,43552,5,8,1:2:0:0:
269,145,43685,1,0,0:0:0:0:
109,31,43819,6,0,P|115:78|134:204,1,152.150002902031,0|0,3:0|3:0,0:0:0:0:
0,246,44219,6,0,B|85:227|56:298|162:281,1,152.150002902031,0|0,0:0|0:0,0:0:0:0:
141,283,44619,6,0,P|135:314|121:372,1,76.0750014510155,0|0,3:0|0:0,0:0:0:0:
200,222,44885,2,0,P|195:197|184:145,1,76.0750014510155,0|0,3:0|0:0,0:0:0:0:
284,298,45152,5,8,1:2:0:0:
308,212,45285,1,0,0:0:0:0:
208,356,45419,6,0,P|270:345|377:328,1,152.150002902031,4|0,3:2|3:0,0:0:0:0:
512,252,45819,2,0,P|468:271|383:212,1,152.150002902031,0|0,0:0|0:0,0:0:0:0:
426,73,46219,6,0,P|418:110|410:147,1,76.0750014510155,0|0,3:0|0:0,0:0:0:0:
302,44,46485,2,0,P|310:81|320:117,1,76.0750014510155,0|0,3:0|0:0,0:0:0:0:
367,5,46752,6,0,P|323:12|201:33,1,140.962495698166,8|0,1:2|0:0,0:0:0:0:
209,32,47019,6,0,P|204:67|222:106,1,76.0750014510155,0|0,3:0|0:0,0:0:0:0:
315,189,47285,1,0,3:0:0:0:
228,123,47419,6,0,P|158:111|70:99,1,152.150002902031,0|0,0:0|0:0,0:0:0:0:
77,99,47819,6,0,P|87:146|98:194,1,76.0750014510155,0|0,3:0|0:0,0:0:0:0:
127,306,48085,2,0,P|135:268|143:231,1,76.0750014510155,0|0,3:0|0:0,0:0:0:0:
170,376,48352,1,8,1:2:0:0:
10,344,48619,6,0,B|82:330|65:396|150:384,1,152.150002902031,4|0,3:2|0:0,0:0:0:0:
290,330,49019,1,0,3:0:0:0:
202,174,49152,6,0,P|211:223|227:313,1,116.34999467392,8|0,0:0|3:0,0:0:0:0:
219,296,49685,5,0,3:0:0:0:
292,140,49952,1,8,0:0:0:0:
292,140,50219,6,0,P|345:118|405:153,1,116.34999467392,0|0,3:0|0:0,0:0:0:0:
475,243,50619,1,0,3:0:0:0:
287,236,50752,6,0,P|337:228|428:211,1,116.34999467392,8|0,0:0|3:0,0:0:0:0:
406,212,51285,5,0,3:0:0:0:
197,337,51552,1,8,0:0:0:0:
197,337,51819,6,0,B|239:257|162:246|208:166,1,174.52499201088,0|0,3:0|3:0,0:0:0:0:
206,169,52352,2,0,P|220:208|228:243,1,58.17499733696,8|0,0:0|0:0,0:0:0:0:
274,384,52619,6,0,P|281:356|297:288,1,87.2624960054399,0|0,3:0|0:0,0:0:0:0:
297,292,52885,5,8,0:0:0:0:
372,373,53019,1,8,0:0:0:0:
195,337,53152,5,8,0:0:0:0:
446,198,53285,1,8,0:0:0:0:
394,262,53419,6,0,P|350:255|295:243,1,87.2624960054399,2|0,0:0|0:0,0:0:0:0:
255,297,53685,6,0,P|215:303|169:312,1,87.2624960054399,2|0,0:0|0:0,0:0:0:0:
119,260,53952,6,0,P|75:253|30:242,1,87.2624960054399,2|0,0:0|0:0,0:0:0:0:
33,244,54219,6,0,P|79:208|24:113,1,179,2|0,0:0|0:0,0:0:0:0:
24,129,55019,6,0,P|105:188|189:166,1,179,6|0,3:2|0:0,0:0:0:0:
337,99,55419,2,0,L|306:190,1,89.5,2|0,3:2|0:0,0:0:0:0:
211,67,55685,1,0,3:0:0:0:
406,194,55819,6,0,B|346:206|346:206|309:247|309:247|246:262,1,179,10|0,0:0|3:0,0:0:0:0:
98,225,56219,1,8,0:0:0:0:
222,152,56352,1,2,3:2:0:0:
392,283,56485,1,0,0:0:0:0:
168,267,56619,6,0,L|264:243,1,89.5,2|0,3:2|0:0,0:0:0:0:
365,73,56885,1,0,0:0:0:0:
276,20,57019,2,0,P|218:89|241:170,1,179,2|0,3:2|3:0,0:0:0:0:
422,292,57419,6,0,P|480:223|457:142,1,179,10|2,0:0|3:2,0:0:0:0:
365,73,57819,1,8,0:0:0:0:
236,264,57952,1,2,3:2:0:0:
363,191,58085,1,0,0:0:0:0:
363,191,58219,6,0,P|350:234|334:287,1,89.5,2|0,3:2|0:0,0:0:0:0:
410,349,58485,1,0,0:0:0:0:
255,240,58618,1,0,0:0:0:0:
456,143,58752,2,0,P|473:181|461:231,1,89.5,0|0,0:0|3:0,0:0:0:0:
330,367,59019,6,0,P|352:279|376:182,1,179,10|0,0:0|3:0,0:0:0:0:
259,37,59419,1,0,0:0:0:0:
368,112,59552,1,2,3:2:0:0:
219,243,59685,1,0,0:0:0:0:
211,149,59819,6,0,P|255:156|294:182,1,89.5,2|0,3:2|0:0,0:0:0:0:
378,327,60085,1,0,0:0:0:0:
452,249,60219,6,0,B|368:236|383:311|280:296,1,179,2|0,3:2|3:0,0:0:0:0:
141,208,60619,1,14,0:0:0:0:
131,217,60885,5,0,3:0:0:0:
260,154,61019,1,8,0:0:0:0:
174,322,61152,5,0,3:0:0:0:
105,139,61285,1,0,0:0:0:0:
50,294,61419,6,0,P|159:295|221:245,1,179,6|0,3:2|0:0,0:0:0:0:
370,121,61819,2,0,P|326:115|285:132,1,89.5,2|0,3:2|0:0,0:0:0:0:
202,230,62085,1,0,3:0:0:0:
335,363,62219,2,0,P|395:278|368:205,1,179,10|0,0:0|3:0,0:0:0:0:
281,138,62619,1,8,0:0:0:0:
461,45,62752,1,2,3:2:0:0:
281,138,62885,1,0,0:0:0:0:
358,31,63019,6,0,P|371:74|380:118,1,89.5,2|0,3:2|0:0,0:0:0:0:
212,255,63285,1,0,0:0:0:0:
135,198,63419,2,0,P|119:239|111:292,1,89.5,2|0,3:2|0:0,0:0:0:0:
288,72,63685,1,0,3:0:0:0:
354,149,63819,2,0,P|317:175|272:178,1,89.5,10|0,0:0|0:0,0:0:0:0:
125,95,64085,5,2,3:2:0:0:
200,240,64219,1,8,0:0:0:0:
79,303,64352,5,2,3:2:0:0:
210,121,64485,1,0,0:0:0:0:
200,240,64619,6,0,L|159:380,1,134.25,2|0,3:2|0:0,0:0:0:0:
146,384,64885,2,0,P|190:369|240:366,1,89.5,0|0,0:0|3:0,0:0:0:0:
431,276,65152,2,0,P|386:272|344:257,1,89.5,0|0,0:0|3:0,0:0:0:0:
175,119,65419,2,0,P|246:68|334:85,1,179,10|0,0:0|3:0,0:0:0:0:
404,199,65819,5,8,0:0:0:0:
268,141,65952,1,2,3:2:0:0:
379,0,66085,1,0,0:0:0:0:
445,84,66219,6,0,P|399:94|351:108,1,89.5,2|0,3:2|0:0,0:0:0:0:
216,225,66485,1,0,0:0:0:0:
130,204,66619,6,0,P|176:214|224:228,1,89.5,2|0,3:2|0:0,0:0:0:0:
291,322,66885,1,0,3:0:0:0:
420,168,67019,1,10,0:0:0:0:
429,185,67285,5,0,3:0:0:0:
268,119,67419,1,8,0:0:0:0:
327,29,67552,5,8,3:2:0:0:
206,234,67685,1,8,0:0:0:0:
166,29,67819,6,0,L|185:124,1,89.5,4|0,3:2|0:0,0:0:0:0:
74,57,68085,5,0,3:0:0:0:
268,119,68219,1,8,0:0:0:0:
76,203,68352,1,0,3:0:0:0:
223,263,68485,1,8,0:0:0:0:
53,367,68619,6,0,L|160:337,1,89.5,4|0,3:2|0:0,0:0:0:0:
386,217,68885,5,0,3:0:0:0:
318,380,69019,1,8,0:0:0:0:
459,315,69152,5,0,3:0:0:0:
289,223,69285,1,8,0:0:0:0:
426,111,69419,1,0,3:0:0:0:
426,111,69685,6,0,P|381:114|345:140,1,89.5,0|8,3:0|0:0,0:0:0:0:
233,332,69952,2,0,P|269:357|313:361,1,89.5,4|4,3:0|3:0,0:0:0:0:
512,256,70219,5,4,3:2:0:0:
512,256,71019,6,0,B|418:251|464:338|334:321,1,179,4|4,3:2|0:0,0:0:0:0:
212,160,71419,1,0,3:0:0:0:
264,225,71552,2,0,P|253:269|240:327,1,89.5,12|0,0:0|0:0,0:0:0:0:
73,312,71819,5,4,3:0:0:0:
161,285,71952,1,0,3:0:0:0:
9,365,72085,6,0,P|-8:328|4:277,1,89.5,8|0,3:0|3:0,0:0:0:0:
151,384,72352,5,8,3:0:0:0:
93,201,72485,1,8,3:0:0:0:
161,285,72619,6,0,P|205:287|246:264,1,89.5,4|0,3:2|0:0,0:0:0:0:
322,109,72885,1,4,0:0:0:0:
187,212,73019,1,0,3:0:0:0:
220,5,73152,6,0,P|229:62|246:159,1,134.25,12|0,0:0|0:0,0:0:0:0:
245,145,73419,5,4,3:0:0:0:
425,76,73552,1,0,3:0:0:0:
343,26,73685,5,8,3:0:0:0:
434,166,73819,1,0,3:0:0:0:
512,106,73952,5,4,3:0:0:0:
349,223,74085,1,4,3:0:0:0:
420,285,74219,6,0,P|428:241|438:197,1,89.5,4|0,3:2|0:0,0:0:0:0:
353,357,74485,2,0,P|325:364|260:329,1,89.5,4|0,0:0|3:0,0:0:0:0:
95,223,74752,6,0,P|136:205|219:255,1,134.25,12|0,0:0|0:0,0:0:0:0:
215,249,75019,5,4,3:0:0:0:
40,347,75152,1,0,3:0:0:0:
141,289,75285,6,0,P|131:332|122:376,1,89.5,8|0,3:0|3:0,0:0:0:0:
207,176,75552,2,0,P|198:132|176:28,1,134.25,4|0,3:0|0:0,0:0:0:0:
179,32,75819,6,0,P|209:21|268:39,1,89.5,4|0,3:2|0:0,0:0:0:0:
415,152,76085,2,0,P|377:161|328:139,1,89.5,4|0,0:0|3:0,0:0:0:0:
467,80,76352,5,12,0:0:0:0:
265,191,76485,1,0,0:0:0:0:
350,245,76619,6,0,P|287:225|216:273,1,156.625,8|0,0:0|0:0,0:0:0:0:
214,280,77152,6,2,L|243:285,6,26.8499991806031,0|0|0|0|0|0|0,0:0|0:0|0:0|0:0|0:0|0:0|0:0,0:0:0:0:
136,296,77419,6,0,L|294:326,1,161.099995083618,4|0,3:2|0:0,0:0:0:0:
456,248,77819,1,8,0:0:0:0:
377,182,77952,6,0,P|368:222|353:262,1,80.5499975418092,0|2,0:0|0:0,0:0:0:0:
482,348,78219,2,0,P|468:310|459:270,1,80.5499975418092,0|0,3:0|0:0,0:0:0:0:
471,151,78485,6,0,P|433:164|393:173,1,80.5499975418092,0|0,3:0|0:0,0:0:0:0:
219,24,78752,2,0,P|258:32|296:46,1,80.5499975418092,8|2,0:0|0:0,0:0:0:0:
411,90,79019,6,0,B|323:97|352:146|259:156,1,161.099995083618,0|0,3:0|0:0,0:0:0:0:
124,75,79419,1,8,0:0:0:0:
219,24,79552,1,0,0:0:0:0:
146,164,79685,1,10,0:0:0:0:
31,52,79819,6,0,P|70:62|118:73,1,80.5499975418092,0|0,3:0|0:0,0:0:0:0:
246,136,80085,2,0,P|207:146|153:161,1,80.5499975418092,0|0,3:0|0:0,0:0:0:0:
33,222,80352,2,0,P|8:251|5:298,1,80.5499975418092,8|2,0:0|0:0,0:0:0:0:
100,353,80619,6,0,B|160:340|160:340|193:358|193:358|255:344,1,161.099995083618,0|0,3:0|0:0,0:0:0:0:
344,200,81019,1,10,0:0:0:0:
211,270,81152,1,0,0:0:0:0:
341,352,81285,1,0,0:0:0:0:
211,270,81419,6,0,P|263:212|344:221,1,161.099995083618,0|0,3:0|3:0,0:0:0:0:
429,131,81819,1,0,0:0:0:0:
355,78,81952,2,0,P|316:94|268:101,1,80.5499975418092,8|0,0:0|0:0,0:0:0:0:
122,225,82219,6,0,P|161:232|198:247,1,80.5499975418092,2|0,3:2|0:0,0:0:0:0:
258,360,82485,1,0,0:0:0:0:
135,310,82619,5,8,0:0:0:0:
276,194,82752,1,0,0:0:0:0:
176,136,82885,5,8,0:0:0:0:
368,224,83019,1,2,0:0:0:0:
184,142,83552,5,0,0:0:0:0:
184,142,83685,1,0,0:0:0:0:
232,60,83819,6,0,P|224:121|210:210,1,125.299996176148,4|0,3:2|0:0,0:0:0:0:
116,334,84219,2,0,P|90:303|110:217,1,125.299996176148,0|0,3:0|3:0,0:0:0:0:
200,350,84619,6,0,P|255:342|341:330,1,125.299996176148,8|0,0:0|3:0,0:0:0:0:
392,271,85019,1,8,3:0:0:0:
313,226,85152,5,0,3:0:0:0:
417,373,85285,1,0,0:0:0:0:
491,327,85419,6,0,P|511:295|491:208,1,125.299996176148,0|0,3:0|0:0,0:0:0:0:
403,124,85819,2,0,P|413:161|428:206,1,62.6499980880738,0|0,3:0|0:0,0:0:0:0:
446,58,86085,1,0,3:0:0:0:
331,156,86219,6,0,P|283:168|213:123,1,125.299996176148,8|0,0:0|3:0,0:0:0:0:
132,35,86619,1,4,3:0:0:0:
225,18,86752,5,0,3:0:0:0:
93,119,86885,1,0,0:0:0:0:
161,186,87019,6,0,P|152:224|131:328,1,125.299996176148,0|0,3:0|0:0,0:0:0:0:
316,340,87419,2,0,P|279:325|198:367,1,125.299996176148,0|0,3:0|3:0,0:0:0:0:
204,356,87819,6,0,P|218:319|232:283,1,62.6499980880738,8|0,0:0|0:0,0:0:0:0:
289,173,88085,2,0,P|300:202|310:231,1,62.6499980880738,0|8,3:0|3:0,0:0:0:0:
420,377,88352,5,0,3:0:0:0:
476,309,88485,1,0,0:0:0:0:
420,377,88619,6,0,P|395:345|408:258,1,125.299996176148,0|0,3:0|0:0,0:0:0:0:
464,225,89019,5,0,3:0:0:0:
344,163,89152,1,0,0:0:0:0:
438,80,89285,1,0,3:0:0:0:
379,0,89419,6,0,P|392:61|410:138,1,125.299996176148,8|0,0:0|3:0,0:0:0:0:
474,163,89819,2,0,P|469:194|464:225,2,62.6499980880738,0|8|4,3:0|3:0|3:0,0:0:0:0:
418,300,90219,6,0,P|366:314|299:274,1,125.299996176148,4|0,3:2|0:0,0:0:0:0:
159,219,90619,2,0,P|212:188|271:201,1,125.299996176148,0|0,3:0|3:0,0:0:0:0:
271,201,91019,6,0,P|267:175|256:125,1,62.6499980880738,8|0,0:0|0:0,0:0:0:0:
235,273,91285,2,0,P|226:308|220:339,1,62.6499980880738,0|8,3:0|3:0,0:0:0:0:
88,243,91551,5,0,0:0:0:0:
119,328,91685,1,0,0:0:0:0:
153,189,91819,6,0,P|109:200|24:223,1,125.299996176148,0|0,3:0|0:0,0:0:0:0:
31,220,92219,2,0,P|47:178|57:151,1,62.6499980880738,0|0,3:0|0:0,0:0:0:0:
128,27,92485,1,0,3:0:0:0:
39,73,92619,6,0,P|91:59|158:99,1,125.299996176148,8|0,0:0|3:0,0:0:0:0:
207,158,93019,1,8,3:0:0:0:
312,6,93152,5,0,3:0:0:0:
230,67,93285,1,0,0:0:0:0:
298,154,93419,6,0,P|359:139|426:124,1,125.299996176148,0|0,3:0|0:0,0:0:0:0:
420,126,93819,2,0,P|410:172|402:205,1,62.6499980880738,0|0,3:0|0:0,0:0:0:0:
344,330,94085,1,0,3:0:0:0:
512,290,94219,6,0,P|458:259|399:272,1,125.299996176148,8|0,0:0|3:0,0:0:0:0:
319,183,94619,1,8,3:0:0:0:
319,183,94752,2,0,P|304:217|303:252,1,62.6499980880738,0|0,3:0|0:0,0:0:0:0:
254,384,95019,6,0,P|239:323|224:256,1,125.299996176148,0|0,3:0|0:0,0:0:0:0:
166,357,95419,2,8,P|106:369|53:338,1,125.299996176148,0|0,3:0|3:0,0:0:0:0:
88,216,95819,2,0,P|102:246|102:275,1,62.6499980880738,8|0,0:0|0:0,0:0:0:0:
18,262,96085,5,0,3:0:0:0:
174,189,96219,1,8,3:0:0:0:
48,109,96352,2,0,L|115:126,1,62.6499980880738,4|4,3:0|3:0,0:0:0:0:
259,102,96619,6,0,P|212:123|197:184,1,107.399996722412,2|0,3:2|0:0,0:0:0:0:
281,256,97019,1,0,3:0:0:0:
281,256,97152,2,0,L|214:242,1,53.6999983612061,0|0,0:0|3:0,0:0:0:0:
108,358,97419,2,0,P|158:345|226:333,1,107.399996722412,8|8,0:0|3:0,0:0:0:0:
327,384,97819,5,4,3:0:0:0:
420,334,97952,1,8,3:0:0:0:
359,253,98085,1,0,0:0:0:0:
473,220,98219,6,0,P|429:251|367:241,1,107.399996722412,0|0,3:0|0:0,0:0:0:0:
329,158,98619,1,0,3:0:0:0:
409,107,98752,2,0,P|435:114|470:120,1,53.6999983612061,0|0,0:0|3:0,0:0:0:0:
337,32,99019,2,0,L|219:55,1,107.399996722412,8|0,0:0|3:0,0:0:0:0:
118,174,99419,5,8,3:0:0:0:
169,98,99552,1,0,3:0:0:0:
118,174,99685,1,0,0:0:0:0:
61,42,99819,6,0,P|81:109|95:162,1,125.299996176148,4|0,3:2|0:0,0:0:0:0:
191,288,100219,1,0,3:0:0:0:
218,206,100352,5,0,0:0:0:0:
125,343,100485,1,0,3:0:0:0:
0,265,100619,6,0,P|58:256|137:242,1,125.299996176148,8|0,0:0|3:0,0:0:0:0:
252,298,101019,1,8,3:0:0:0:
252,298,101152,2,0,P|214:291|170:285,1,62.6499980880738,0|0,3:0|0:0,0:0:0:0:
340,269,101419,6,0,P|362:236|329:145,1,125.299996176148,0|0,3:0|0:0,0:0:0:0:
249,69,101819,1,0,3:0:0:0:
249,69,101952,2,0,P|256:103|264:140,1,62.6499980880738,0|0,0:0|3:0,0:0:0:0:
314,12,102219,6,0,P|373:-1|426:29,1,125.299996176148,8|0,0:0|3:0,0:0:0:0:
478,97,102619,1,8,3:0:0:0:
387,155,102752,5,0,3:0:0:0:
485,214,102885,1,0,0:0:0:0:
387,155,103019,6,0,P|407:222|421:275,1,125.299996176148,0|0,3:0|0:0,0:0:0:0:
295,319,103419,2,0,P|338:327|376:335,1,62.6499980880738,0|0,3:0|0:0,0:0:0:0:
245,250,103685,1,0,3:0:0:0:
221,372,103819,6,0,P|162:385|109:355,1,125.299996176148,8|0,0:0|3:0,0:0:0:0:
0,244,104219,1,8,3:0:0:0:
96,208,104352,2,0,P|89:242|81:279,1,62.6499980880738,0|0,3:0|0:0,0:0:0:0:
154,144,104619,6,0,P|147:113|121:8,1,125.299996176148,0|0,3:0|0:0,0:0:0:0:
226,194,105019,2,0,P|286:200|335:165,1,125.299996176148,0|0,3:0|3:0,0:0:0:0:
336,164,105419,6,0,P|329:198|319:245,1,62.6499980880738,8|0,0:0|0:0,0:0:0:0:
402,317,105685,1,8,3:0:0:0:
427,233,105819,5,8,0:0:0:0:
321,327,105952,1,8,3:0:0:0:
215,263,106085,1,4,3:0:0:0:
326,331,106219,6,0,P|264:342|200:358,1,125.299996176148,4|0,3:2|0:0,0:0:0:0:
117,270,106619,2,0,P|125:239|138:211,1,62.6499980880738,0|0,3:0|0:0,0:0:0:0:
240,150,106885,1,0,3:0:0:0:
106,31,107019,6,0,P|137:44|178:55,1,62.6499980880738,8|0,0:0|0:0,0:0:0:0:
311,117,107285,2,0,P|280:125|252:138,1,62.6499980880738,0|8,3:0|3:0,0:0:0:0:
146,215,107552,5,0,3:0:0:0:
295,292,107685,1,0,0:0:0:0:
229,356,107819,6,0,P|196:306|221:241,1,125.299996176148,0|0,3:0|0:0,0:0:0:0:
337,194,108219,2,0,L|409:211,1,62.6499980880738,0|0,3:0|0:0,0:0:0:0:
297,272,108485,5,0,3:0:0:0:
483,207,108619,2,0,L|416:190,1,62.6499980880738,8|0,0:0|0:0,0:0:0:0:
334,77,108885,5,0,3:0:0:0:
255,120,109019,1,8,3:0:0:0:
177,61,109152,5,0,3:0:0:0:
128,201,109285,1,0,0:0:0:0:
39,131,109419,6,0,P|1:177|14:240,1,125.299996176148,0|0,3:0|0:0,0:0:0:0:
151,275,109819,2,0,L|128:204,1,62.6499980880738,0|0,3:0|0:0,0:0:0:0:
17,320,110085,1,0,3:0:0:0:
95,381,110219,2,0,P|154:365|232:357,1,125.299996176148,8|0,0:0|3:0,0:0:0:0:
316,299,110619,5,8,3:0:0:0:
236,228,110752,1,0,3:0:0:0:
386,154,110885,1,0,0:0:0:0:
328,52,111019,6,0,P|313:113|295:188,1,125.299996176148,0|0,3:0|0:0,0:0:0:0:
409,249,111419,2,0,P|400:217|392:183,1,62.6499980880738,0|0,3:0|0:0,0:0:0:0:
459,24,111685,1,0,3:0:0:0:
510,99,111819,6,0,P|479:106|449:114,1,62.6499980880738,8|0,0:0|0:0,0:0:0:0:
298,173,112085,5,8,3:0:0:0:
481,286,112219,1,0,3:0:0:0:
316,277,112352,5,8,3:0:0:0:
403,244,112485,1,4,3:0:0:0:
384,352,112619,6,0,P|312:304|225:327,1,179,2|0,3:2|0:0,0:0:0:0:
99,384,113285,5,0,0:0:0:0:
40,329,113419,2,0,P|51:285|65:227,1,89.5,2|0,0:0|0:0,0:0:0:0:
213,118,113819,5,2,0:0:0:0:
159,176,113952,2,0,L|169:227,1,44.75
28,115,114219,5,2,0:0:0:0:
109,77,114485,5,2,0:0:0:0:
195,101,114752,5,2,0:0:0:0:
241,177,115019,6,0,B|379:128|340:244|487:185,1,246.125,2|0,0:0|0:0,0:0:0:0:
496,170,115819,1,4,1:2:0:0:
38,356,128619,5,8,0:0:0:0:
120,214,128752,1,0,3:0:0:0:
161,294,128885,5,8,0:0:0:0:
11,208,129019,1,0,3:0:0:0:
155,127,129152,2,0,P|122:122|73:111,1,67.125,8|0,0:0|0:0,0:0:0:0:
88,115,129419,6,0,B|147:103|147:103|193:136|193:136|267:116,1,179,4|8,0:0|0:0,0:0:0:0:
396,70,129819,2,0,L|365:161,1,89.5,2|8,0:0|0:0,0:0:0:0:
324,4,130085,1,0,3:0:0:0:
463,234,130219,6,0,P|428:198|304:230,1,179,8|8,0:0|0:0,0:0:0:0:
240,292,130619,1,0,3:0:0:0:
317,233,130752,5,8,0:0:0:0:
255,377,130885,1,0,3:0:0:0:
122,309,131019,6,0,L|217:293,1,89.5,4|2,0:0|0:0,0:0:0:0:
418,367,131285,5,8,0:0:0:0:
325,325,131419,2,0,B|422:296|395:382|507:347,1,179,0|0,3:0|3:0,3:0:0:0:
447,187,131819,6,0,L|465:274,1,89.5,4|2,0:0|0:0,0:0:0:0:
376,86,132085,2,0,L|357:173,1,89.5,8|2,0:0|0:0,0:0:0:0:
439,28,132352,1,8,0:0:0:0:
286,125,132485,1,8,0:0:0:0:
132,15,132619,6,0,B|153:73|153:73|121:116|121:116|143:194,1,179,4|8,0:0|0:0,0:0:0:0:
47,57,133019,1,0,3:0:0:0:
233,152,133152,2,0,P|247:94|257:43,1,89.5,8|0,0:0|0:0,0:0:0:0:
48,260,133419,6,0,P|127:292|199:244,1,179,8|8,0:0|0:0,0:0:0:0:
140,175,133819,1,0,0:0:0:0:
290,306,133952,5,8,0:0:0:0:
318,200,134085,1,0,3:0:0:0:
233,365,134219,6,0,P|276:386|334:370,1,89.5,6|0,0:0|0:0,0:0:0:0:
492,220,134485,2,0,P|448:215|408:235,1,89.5,8|0,0:0|0:0,0:0:0:0:
370,328,134752,5,8,0:0:0:0:
511,137,134885,1,2,0:0:0:0:
403,222,135019,6,0,P|339:208|253:186,1,134.25,6|0,0:0|0:0,0:0:0:0:
196,156,135285,5,12,0:0:0:0:
262,305,135419,1,0,0:0:0:0:
126,248,135552,5,12,0:0:0:0:
292,122,135685,1,0,0:0:0:0:
174,52,135819,6,0,P|190:141|214:251,1,179,4|8,0:0|0:0,0:0:0:0:
290,378,136219,2,0,P|246:383|207:362,1,89.5,0|8,3:0|0:0,0:0:0:0:
466,243,136485,1,0,0:0:0:0:
397,371,136619,6,0,P|382:307|356:188,1,179,4|8,0:0|0:0,0:0:0:0:
221,53,137019,1,0,0:0:0:0:
328,117,137152,1,8,0:0:0:0:
179,252,137285,1,0,0:0:0:0:
238,135,137419,6,0,P|250:182|268:249,1,89.5,12|0,0:0|0:0,0:0:0:0:
303,40,137685,1,8,0:0:0:0:
160,164,137819,2,0,P|101:185|8:124,1,179,0|0,3:0|3:0,0:0:0:0:
179,252,138219,6,0,P|202:288|191:361,1,89.5,6|0,0:0|0:0,0:0:0:0:
238,135,138485,2,0,P|250:74|260:25,1,89.5,8|0,0:0|3:0,0:0:0:0:
318,214,138752,2,0,P|361:219|400:198,1,89.5,8|8,0:0|0:0,0:0:0:0:
386,57,139019,5,4,0:0:0:0:
349,145,139152,1,0,3:0:0:0:
501,269,139285,5,8,0:0:0:0:
464,167,139419,1,0,3:0:0:0:
397,359,139552,5,8,0:0:0:0:
457,184,139685,1,0,3:0:0:0:
284,293,139819,6,0,P|341:286|472:270,1,179,4|8,0:0|0:0,0:0:0:0:
462,272,140219,1,0,0:0:0:0:
264,226,140352,2,0,P|249:184|263:141,1,89.5,8|0,0:0|0:0,0:0:0:0:
351,6,140619,6,0,P|366:48|352:91,1,89.5,8|0,0:0|0:0,0:0:0:0:
182,17,140885,1,8,0:0:0:0:
273,40,141019,6,0,B|183:23|203:103|106:74,1,179,0|8,3:0|0:0,0:0:0:0:
0,201,141419,6,0,P|38:194|107:182,1,89.5,6|0,0:0|0:0,0:0:0:0:
168,151,141685,5,0,3:0:0:0:
55,265,141819,1,0,3:0:0:0:
241,353,141952,5,8,0:0:0:0:
153,254,142085,1,8,0:0:0:0:
346,152,142219,6,0,P|335:203|314:300,1,134.25,4|0,0:0|0:0,0:0:0:0:
319,291,142485,5,0,3:0:0:0:
412,252,142619,1,0,3:0:0:0:
247,221,142752,5,8,0:0:0:0:
354,375,142885,1,8,0:0:0:0:
512,248,143019,6,0,P|471:230|388:280,1,134.25,12|0,0:0|0:0,0:0:0:0:
393,272,143285,5,0,3:0:0:0:
347,184,143419,1,0,3:0:0:0:
498,54,143552,5,8,0:0:0:0:
429,163,143685,1,8,0:0:0:0:
234,115,143819,6,0,P|304:107|389:95,1,134.25,6|0,0:0|0:0,0:0:0:0:
380,95,144085,6,0,P|332:89|290:84,2,71.6,0|0|0,3:0|3:0|3:0,3:0:0:0:
429,163,144485,1,0,0:0:0:0:
293,249,144619,5,4,0:0:0:0:
293,249,145419,6,0,B|391:258|351:309|436:321,1,161.099995083618,4|0,0:0|0:0,0:0:0:0:
436,244,145819,1,8,0:0:0:0:
301,332,145952,2,0,P|261:338|214:353,1,80.5499975418092,0|8,0:0|0:0,0:0:0:0:
106,381,146219,6,0,P|117:342|123:302,1,80.5499975418092,0|0,3:0|0:0,0:0:0:0:
271,164,146485,2,0,P|276:203|288:242,1,80.5499975418092,0|0,3:0|0:0,0:0:0:0:
292,248,146752,6,0,P|201:198|145:217,2,161.099995083618,8|2|0,0:0|0:0|0:0,0:0:0:0:
439,204,147419,2,0,L|361:185,1,80.5499975418092,8|0,0:0|0:0,0:0:0:0:
262,91,147685,1,8,0:0:0:0:
342,54,147819,6,0,B|280:65|280:65|249:44|249:44|184:56,2,161.099995083618,2|0|8,0:0|3:0|0:0,0:0:0:0:
337,36,148619,6,0,B|275:47|275:47|244:26|244:26|184:37,1,161.099995083618,2|0,0:0|0:0,0:0:0:0:
32,128,149019,2,0,P|114:181|178:159,1,161.099995083618,8|8,0:0|0:0,0:0:0:0:
273,139,149419,6,0,P|259:175|251:218,1,80.5499975418092,0|0,3:0|0:0,0:0:0:0:
71,329,149685,2,0,P|63:289|49:251,1,80.5499975418092,0|0,3:0|0:0,0:0:0:0:
207,305,149952,2,0,L|189:386,1,80.5499975418092,8|0,0:0|0:0,0:0:0:0:
271,240,150219,6,0,P|343:193|413:207,1,161.099995083618,0|2,3:0|0:0,0:0:0:0:
326,361,150619,1,8,0:0:0:0:
425,309,150752,5,2,0:0:0:0:
291,253,150885,1,0,3:0:0:0:
425,309,151019,6,0,L|406:178,1,120.824996312714,12|0,0:0|0:0,0:0:0:0:
421,171,151285,5,0,3:0:0:0:
325,113,151419,1,0,3:0:0:0:
359,33,151552,5,8,3:0:0:0:
214,83,151685,1,8,3:0:0:0:
124,40,151819,6,0,P|187:89|175:169,1,161.099995083618,4|0,0:0|0:0,0:0:0:0:
79,225,152219,2,0,P|57:189|64:144,1,80.5499975418092,8|2,0:0|0:0,0:0:0:0:
230,244,152485,1,8,0:0:0:0:
148,305,152619,2,0,B|61:310|86:361|-10:366,2,161.099995083618,2|0|8,3:2|3:0|0:0,0:0:0:0:
148,305,153419,6,0,P|231:352|292:330,1,161.099995083618,0|2,3:0|0:0,0:0:0:0:
409,233,153819,1,8,0:0:0:0:
300,177,153952,2,0,P|312:215|323:262,1,80.5499975418092,2|8,0:0|0:0,0:0:0:0:
471,355,154219,2,0,P|486:293|504:228,1,120.824996312714,2|0,3:2|0:0,0:0:0:0:
507,243,154485,6,0,L|426:257,1,80.5499975418092,0|0,3:0|0:0,0:0:0:0:
322,92,154752,2,0,L|241:106,1,80.5499975418092,8|0,0:0|0:0,0:0:0:0:
95,200,155019,6,0,P|176:192|237:242,1,161.099995083618,0|2,3:0|0:0,0:0:0:0:
330,99,155419,2,0,B|349:135|349:135|336:182,1,80.5499975418092,8|0,0:0|0:0,0:0:0:0:
218,345,155685,5,8,0:0:0:0:
324,288,155819,2,0,P|361:303|405:309,1,80.5499975418092,2|0,3:2|0:0,0:0:0:0:
235,239,156085,6,0,P|195:244|157:259,1,80.5499975418092,0|0,3:0|0:0,0:0:0:0:
18,359,156352,1,8,0:0:0:0:
18,359,156619,6,0,P|38:281|59:191,1,161.099995083618,8|0,0:0|3:0,0:0:0:0:
155,143,157019,1,8,0:0:0:0:
90,81,157152,5,2,0:0:0:0:
146,224,157285,1,0,3:0:0:0:
285,39,157419,6,0,P|267:117|258:164,1,120.824996312714,8|0,0:0|0:0,0:0:0:0:
266,162,157685,2,0,L|354:145,1,80.5499975418092,0|8,3:0|0:0,0:0:0:0:
420,217,157952,5,2,0:0:0:0:
368,368,158085,1,0,3:0:0:0:
512,237,158219,6,0,B|416:228|442:309|345:285,1,179,12|12,0:0|0:0,0:0:0:0:
296,225,158619,1,0,3:0:0:0:
133,322,158752,6,0,P|214:340|262:299,1,134.25,12|0,0:0|0:0,0:0:0:0:
256,307,159019,6,0,P|267:353|274:382,1,62.6499980880738,0|0,3:0|3:0,3:0:0:0:
197,236,159285,2,0,P|203:208|210:174,1,62.6499980880738,0|0,3:0|3:0,3:0:0:0:
309,61,159552,5,0,3:0:0:0:
309,61,159819,6,0,P|418:50|466:110,2,179,12|12|4,0:0|0:0|0:0,0:0:0:0:
254,125,160485,1,0,0:0:0:0:
120,2,160619,5,0,3:0:0:0:
149,92,160752,1,0,0:0:0:0:
213,0,160885,5,0,3:0:0:0:
59,109,161019,1,0,3:0:0:0:
178,181,161152,6,0,P|151:265|133:324,1,134.25,2|0,0:0|0:0,0:0:0:0:
116,334,161419,6,0,P|158:319|202:315,1,89.5,12|0,0:0|3:0,0:0:0:0:
391,260,161685,2,0,P|346:256|304:241,1,89.5,12|0,0:0|3:0,0:0:0:0:
105,126,161952,6,0,P|173:91|233:109,1,134.25,12|0,0:0|3:0,0:0:0:0:
265,172,162219,5,0,3:0:0:0:
406,62,162352,1,0,3:0:0:0:
311,38,162485,6,0,P|318:68|337:137,1,71.6,0|0,3:0|3:0,3:0:0:0:
364,245,162752,2,0,P|373:210|381:175,1,71.6,2|0,3:0|3:0,3:0:0:0:
456,294,163019,5,8,0:0:0:0:
239,210,163152,1,8,3:0:0:0:
309,145,163285,5,0,3:0:0:0:
228,303,163419,1,2,3:0:0:0:
146,220,163552,6,0,P|174:210|232:213,1,71.6,0|0,3:0|3:0,0:0:0:0:
438,367,163819,5,8,0:0:0:0:
410,381,163885,1,0,3:0:0:0:
378,381,163952,1,0,3:0:0:0:
349,368,164018,1,0,3:0:0:0:
329,342,164085,6,0,P|339:306|345:283,1,44.75,8|0,3:0|3:0,0:0:0:0:
239,210,164219,2,0,P|244:231|250:253,1,44.75,2|0,3:0|0:0,0:0:0:0:
180,361,164352,6,0,P|115:372|58:339,1,134.25,12|0,0:0|3:0,0:0:0:0:
49,320,164619,6,0,P|136:311|244:304,1,179,4|8,0:0|0:0,0:0:0:0:
234,306,165019,1,0,0:0:0:0:
33,242,165152,2,0,P|21:211|37:149,1,89.5,8|0,0:0|0:0,0:0:0:0:
118,19,165419,6,0,P|111:58|100:115,1,89.5,8|0,0:0|0:0,0:0:0:0:
256,184,165685,2,0,P|215:175|150:161,1,89.5,8|2,0:0|3:2,0:0:0:0:
367,89,165952,2,0,P|323:98|279:107,1,89.5,8|2,0:0|3:2,0:0:0:0:
437,220,166219,6,0,P|453:191|433:127,1,89.5,8|0,0:0|0:0,0:0:0:0:
373,324,166485,2,0,P|364:280|356:236,1,89.5,8|0,0:0|0:0,0:0:0:0:
460,353,166752,1,8,0:0:0:0:
356,236,166885,1,0,3:0:0:0:
276,364,167019,6,0,P|237:371|184:345,1,89.5,8|0,0:0|0:0,0:0:0:0:
19,288,167285,2,0,B|61:271|61:271|115:291,1,89.5,8|0,0:0|0:0,0:0:0:0:
259,254,167552,2,0,B|217:269|217:269|175:252,1,89.5,8|0,0:0|0:0,0:0:0:0:
91,113,167819,6,0,P|98:152|109:209,1,89.5,8|0,0:0|0:0,0:0:0:0:
176,60,168085,2,0,P|216:42|260:48,1,89.5,8|0,0:0|0:0,0:0:0:0:
407,109,168352,2,0,P|372:125|323:113,1,89.5,8|0,0:0|0:0,0:0:0:0:
499,66,168619,6,0,P|492:125|481:216,1,134.25,8|0,0:0|0:0,0:0:0:0:
486,209,168885,5,8,0:0:0:0:
300,109,169019,1,8,0:0:0:0:
343,202,169152,5,8,0:0:0:0:
379,26,169285,1,8,0:0:0:0:
194,112,169419,5,2,0:0:0:0:
194,112,169723,6,0,P|203:154|210:187,1,53.6999983612061,2|0,0:0|0:0,0:0:0:0:
266,210,169994,2,0,P|257:252|252:287,1,53.6999983612061,2|0,0:0|0:0,0:0:0:0:
204,322,170269,1,0,0:0:0:0:
