osu file format v14

[General]
AudioFilename: audio.mp3
AudioLeadIn: 0
PreviewTime: 348
Countdown: 0
SampleSet: Soft
StackLeniency: 0.7
Mode: 0
LetterboxInBreaks: 0
WidescreenStoryboard: 1

[Editor]
DistanceSpacing: 1.3
BeatDivisor: 4
GridSize: 4
TimelineZoom: 1.8

[Metadata]
Title:Noise
TitleUnicode:ノイズ
Artist:MIOYAMAZAKI
ArtistUnicode:ミオヤマザキ
Creator:toybot
Version:Hard
Source:地獄少女 宵伽
Tags:jigoku shoujo yoi no togi opening delis aeril haruru irohas mugiwarasekai kalibe
BeatmapID:1417055
BeatmapSetID:664507

[Difficulty]
HPDrainRate:5
CircleSize:3.8
OverallDifficulty:6
ApproachRate:8
SliderMultiplier:1.3
SliderTickRate:1

[Events]
//Background and Video events
0,0,"noise bg.jpg",0,0
//Break Periods
2,116019,127869
//Storyboard Layer 0 (Background)
//Storyboard Layer 1 (Fail)
//Storyboard Layer 2 (Pass)
//Storyboard Layer 3 (Foreground)
//Storyboard Sound Samples

[TimingPoints]
619,266.666666666667,3,2,1,40,1,0
619,-133.333333333333,3,2,1,40,0,0
12619,-100,3,2,1,50,0,0
13085,-100,3,2,1,5,0,0
13152,-100,3,2,1,60,0,0
13352,-100,3,2,1,5,0,0
13419,-100,3,2,1,80,0,0
13619,-100,3,2,1,5,0,0
13685,-100,3,2,1,80,0,0
25619,-100,3,2,1,5,0,0
25685,-100,3,2,1,80,0,0
26219,-111.111111111111,3,2,1,60,0,0
38219,-133.333333333333,3,2,1,60,0,0
38752,-100,3,2,1,5,0,0
39019,-100,3,2,1,70,0,0
39219,-100,3,2,1,5,0,0
39285,-100,3,2,1,70,0,0
46952,-100,3,2,1,5,0,0
47019,-100,3,2,1,70,0,0
48619,-133.333333333333,3,2,1,65,0,0
50219,-111.111111111111,3,2,1,70,0,0
51819,-100,3,2,1,75,0,0
53419,-100,3,2,1,40,0,0
53685,-100,3,2,1,45,0,0
53952,-100,3,2,1,50,0,0
54219,-100,3,2,1,60,0,0
54752,-100,3,2,1,20,0,0
55019,-100,3,2,1,80,0,1
64552,-100,3,2,1,5,0,1
64619,-100,3,2,1,80,0,1
69619,-100,3,2,1,5,0,1
69685,-100,3,2,1,80,0,1
70219,-100,3,2,1,80,0,0
71019,-100,3,2,1,75,0,1
73352,-100,3,2,1,5,0,1
73419,-100,3,2,1,75,0,1
75752,-100,3,2,1,5,0,1
75819,-100,3,2,1,75,0,1
76619,-100,3,2,1,75,0,0
76652,-100,3,2,1,20,0,0
77219,-100,3,2,1,30,0,0
77285,-100,3,2,1,40,0,0
77319,-100,3,2,1,45,0,0
77352,-100,3,2,1,50,0,0
77419,-100,3,2,1,70,0,0
83552,-100,3,2,1,60,0,0
83819,-111.111111111111,3,2,1,60,0,0
96619,-133.333333333333,3,2,1,50,0,0
99819,-111.111111111111,3,2,1,60,0,0
109419,-133.333333333333,3,2,1,60,0,0
111019,-111.111111111111,3,2,1,60,0,0
112619,-133.333333333333,3,2,1,60,0,0
113952,-100,3,2,1,30,0,0
114219,-100,3,2,1,40,0,0
115019,-100,3,2,1,50,0,0
115752,-100,3,2,1,5,0,0
115819,-100,3,2,1,60,0,0
129152,-100,3,2,1,60,0,0
129352,-100,3,2,1,5,0,0
129419,-100,3,2,1,80,0,1
144619,-100,3,2,1,80,0,0
145419,-100,3,2,1,75,0,0
151219,-100,3,2,1,5,0,0
151285,-100,3,2,1,75,0,0
154419,-100,3,2,1,5,0,0
154485,-100,3,2,1,75,0,0
157619,-100,3,2,1,5,0,0
157685,-100,3,2,1,75,0,0
158219,-100,3,2,1,75,0,1
162152,-100,3,2,1,5,0,1
162219,-100,3,2,1,75,0,1
163752,-100,3,2,1,5,0,1
163819,-100,3,2,1,75,0,1
164352,-100,3,2,1,75,0,1
164552,-100,3,2,1,5,0,1
164619,-100,3,2,1,75,0,1
166419,-100,3,2,1,5,0,1
166485,-100,3,2,1,75,0,1
168819,-100,3,2,1,5,0,1
168885,-100,3,2,1,75,0,1
169419,304.568527918782,3,2,1,40,1,0
169419,-100,3,2,1,40,0,0
169723,271.493212669683,3,2,1,20,1,0
169723,-100,3,2,1,20,0,0
169994,275.229357798165,3,2,1,35,1,0
169994,-100,3,2,1,35,0,0
170131,-100,3,2,1,15,0,0
170269,-100,3,2,1,30,0,0

[Colours]
Combo1 : 185,0,92
Combo2 : 0,62,123
Combo3 : 102,171,255
Combo4 : 128,128,192

[HitObjects]
92,118,619,6,0,P|139:125|185:111,1,97.50000371933,4|0,1:3|0:0,0:0:0:0:
224,80,1019,2,0,L|334:97,1,97.50000371933,0|0,0:0|0:0,0:0:0:0:
365,76,1419,2,0,P|387:122|378:178,1,97.50000371933
418,257,1952,1,0,0:0:0:0:
418,257,2085,1,0,0:0:0:0:
417,257,2219,6,0,P|387:294|341:309,1,97.50000371933,2|0,0:0|0:0,0:0:0:0:
301,282,2619,2,0,L|190:267,1,97.50000371933,0|0,0:0|0:0,0:0:0:0:
164,297,3019,2,0,L|61:307,1,97.50000371933,2|0,0:0|0:0,0:0:0:0:
93,212,3552,1,0,0:0:0:0:
67,117,3819,6,0,L|181:129,1,97.50000371933,2|0,0:0|0:0,0:0:0:0:
209,110,4219,2,0,P|238:149|295:158,1,97.50000371933,0|0,0:0|0:0,0:0:0:0:
332,152,4619,2,0,P|371:126|385:80,1,97.50000371933,0|0,0:0|0:0,0:0:0:0:
309,19,5152,1,0,0:0:0:0:
309,19,5285,1,0,0:0:0:0:
309,19,5419,6,0,L|200:9,1,97.50000371933,2|0,0:0|0:0,0:0:0:0:
168,34,5819,2,0,P|149:77|161:123,1,97.50000371933,0|0,0:0|0:0,0:0:0:0:
195,158,6219,2,0,L|207:254,1,97.50000371933,2|0,0:0|0:0,0:0:0:0:
167,343,6752,1,0,0:0:0:0:
260,370,7019,6,0,P|308:371|352:351,1,97.50000371933,2|0,0:0|0:0,0:0:0:0:
390,320,7419,2,0,L|380:209,1,97.50000371933,0|0,0:0|0:0,0:0:0:0:
353,182,7819,2,0,L|358:118,1,48.750001859665,0|0,0:0|0:0,0:0:0:0:
387,95,8085,1,0,0:0:0:0:
292,71,8352,1,0,0:0:0:0:
214,129,8619,6,0,P|177:145|113:137,1,97.50000371933,2|0,0:0|0:0,0:0:0:0:
72,134,9019,2,0,P|98:183|95:235,1,97.50000371933,0|0,0:0|0:0,0:0:0:0:
63,258,9419,2,0,L|73:368,1,97.50000371933,0|0,0:0|0:0,0:0:0:0:
161,315,9952,1,0,0:0:0:0:
161,315,10085,1,0,0:0:0:0:
161,315,10219,6,0,P|213:318|267:327,1,97.50000371933,2|0,0:0|0:0,0:0:0:0:
350,357,10752,1,0,0:0:0:0:
403,246,11019,2,0,P|352:253|301:256,1,97.50000371933,0|0,0:0|0:0,0:0:0:0:
217,214,11552,1,0,0:0:0:0:
293,153,11819,5,2,0:0:0:0:
293,153,11952,2,0,L|303:45,1,97.50000371933,0|0,0:0|0:0,0:0:0:0:
264,24,12352,1,0,0:0:0:0:
148,129,12619,6,0,P|84:81|159:55,1,195,0|0,0:0|0:0,0:0:0:0:
220,105,13152,1,4,3:0:0:0:
131,233,13419,6,0,L|56:225,1,65,4|0,3:2|0:0,0:0:0:0:
23,290,13685,2,0,P|38:333|63:352,1,65,8|2,0:0|3:2,0:0:0:0:
128,328,13952,2,0,P|193:319|282:317,1,130,10|14,3:2|3:2,0:0:0:0:
329,345,14352,1,0,0:0:0:0:
395,304,14485,2,0,P|402:269|400:214,1,65,10|0,0:0|3:0,0:0:0:0:
360,173,14752,2,0,L|347:93,1,65,10|2,3:2|0:0,0:0:0:0:
387,40,15019,6,0,P|334:76|270:78,1,130,14|8,3:2|0:0,0:0:0:0:
196,49,15419,2,0,P|131:50|78:86,1,130,2|0,3:2|0:0,0:0:0:0:
50,159,15819,2,0,P|55:191|56:223,1,65,14|0,3:2|0:0,0:0:0:0:
127,279,16085,2,0,P|132:246|133:214,1,65,10|0,0:0|3:0,0:0:0:0:
197,165,16352,2,0,L|265:182,1,65,10|2,3:2|3:2,0:0:0:0:
324,225,16619,5,14,3:2:0:0:
443,125,16885,2,0,P|428:64|344:35,1,130,8|10,0:0|3:2,0:0:0:0:
304,71,17285,1,2,0:0:0:0:
304,71,17419,2,0,L|236:82,1,65,12|2,3:2|0:0,0:0:0:0:
168,51,17685,2,0,P|149:98|148:130,1,65,8|2,0:0|3:2,0:0:0:0:
202,168,17952,2,0,P|218:195|227:229,1,65,10|2,3:2|0:0,0:0:0:0:
176,287,18219,6,0,L|35:268,2,130,12|8|0,3:2|0:0|0:0,0:0:0:0:
240,330,18885,1,0,0:0:0:0:
314,305,19019,2,0,P|331:271|336:229,1,65,14|0,3:2|0:0,0:0:0:0:
382,182,19285,2,0,L|361:113,1,65,10|0,0:0|3:0,0:0:0:0:
375,42,19552,1,8,3:2:0:0:
303,71,19685,1,2,0:0:0:0:
225,61,19819,6,0,L|78:47,1,130,12|8,3:2|0:0,0:0:0:0:
13,181,20352,1,8,3:2:0:0:
78,223,20485,1,2,0:0:0:0:
138,172,20619,2,0,P|196:147|259:160,1,130,12|8,3:2|0:0,0:0:0:0:
369,270,21152,2,0,P|376:304|380:341,1,65,8|2,3:2|0:0,0:0:0:0:
450,279,21419,6,0,P|458:218|471:137,1,130,12|8,3:2|0:0,0:0:0:0:
357,40,21952,2,0,P|409:61|431:68,1,65,8|2,3:2|0:0,0:0:0:0:
347,124,22219,2,0,B|279:115|292:158|223:150,1,130,12|8,3:2|0:0,0:0:0:0:
83,79,22752,1,8,3:2:0:0:
115,149,22885,1,2,0:0:0:0:
82,220,23019,6,0,L|65:348,1,130,12|8,3:2|0:0,0:0:0:0:
142,365,23419,2,0,P|186:326|270:330,1,130,2|0,3:2|0:0,0:0:0:0:
326,354,23819,2,0,L|409:344,1,65,14|0,3:2|0:0,0:0:0:0:
442,274,24085,2,0,L|359:264,1,65,8|2,0:0|3:2,0:0:0:0:
298,195,24352,2,0,L|381:185,1,65,10|0,3:2|0:0,0:0:0:0:
423,138,24619,6,0,L|435:4,1,130,14|8,3:2|0:0,0:0:0:0:
358,26,25019,1,0,3:0:0:0:
358,26,25152,2,0,P|320:36|288:37,1,65,10|0,3:2|0:0,0:0:0:0:
227,95,25419,2,0,P|179:56|100:60,1,130,12|8,3:2|0:0,0:0:0:0:
67,118,25819,1,8,3:2:0:0:
117,177,25952,1,8,3:2:0:0:
83,247,26085,1,8,0:0:0:0:
139,302,26219,6,0,L|275:312,1,116.999996429443,6|0,3:2|0:0,0:0:0:0:
325,341,26619,2,0,P|378:311|390:240,1,116.999996429443,2|0,3:2|3:0,0:0:0:0:
372,186,27019,1,2,0:3:0:0:
290,58,27285,1,0,3:0:0:0:
440,78,27552,2,0,P|394:101|363:109,1,58.4999982147217,0|0,3:0|0:0,0:0:0:0:
351,170,27819,6,0,L|210:160,1,116.999996429443,2|0,3:2|0:0,0:0:0:0:
164,192,28219,2,0,P|122:145|129:83,1,116.999996429443,2|0,3:2|3:0,0:0:0:0:
172,34,28619,2,0,P|235:40|288:22,1,116.999996429443,2|0,0:3|3:0,0:0:0:0:
437,35,29152,2,0,L|423:96,1,58.4999982147217,0|0,3:0|0:0,0:0:0:0:
463,157,29419,6,0,L|486:282,1,116.999996429443,2|0,3:2|0:0,0:0:0:0:
422,316,29819,2,0,P|363:269|301:277,1,116.999996429443,2|0,3:2|3:0,0:0:0:0:
255,303,30219,1,2,0:3:0:0:
110,349,30485,1,0,3:0:0:0:
159,204,30752,2,0,P|161:172|164:121,1,58.4999982147217,0|0,3:0|0:0,0:0:0:0:
158,69,31019,6,0,P|194:114|245:143,1,116.999996429443,2|0,3:2|0:0,0:0:0:0:
309,101,31419,2,0,L|437:115,1,116.999996429443,2|0,3:2|3:0,0:0:0:0:
492,76,31819,1,2,0:3:0:0:
404,200,32085,1,0,3:0:0:0:
505,313,32352,2,0,L|436:324,1,58.4999982147217,0|0,3:0|0:0,0:0:0:0:
375,349,32619,6,0,P|332:311|271:314,1,116.999996429443,2|0,3:2|0:0,0:0:0:0:
209,351,33019,2,0,P|147:368|86:367,1,116.999996429443,2|0,3:2|3:0,0:0:0:0:
31,324,33419,1,2,0:3:0:0:
119,200,33685,1,0,3:0:0:0:
49,64,33952,1,0,3:0:0:0:
49,64,34085,1,0,0:0:0:0:
49,64,34219,6,0,P|99:102|169:105,1,116.999996429443,2|0,3:2|0:0,0:0:0:0:
215,66,34619,2,0,L|337:86,1,116.999996429443,2|0,3:2|3:0,0:0:0:0:
402,58,35019,2,0,P|405:85|412:127,1,58.4999982147217,2|0,0:3|0:0,0:0:0:0:
355,168,35285,2,0,P|351:195|345:237,1,58.4999982147217,0|0,3:0|0:0,0:0:0:0:
398,282,35552,2,0,L|467:304,1,58.4999982147217,0|0,3:0|0:0,0:0:0:0:
333,328,35819,6,0,P|275:340|219:354,1,116.999996429443,2|0,3:2|0:0,0:0:0:0:
165,299,36219,2,0,P|158:254|188:186,1,116.999996429443,2|0,3:2|3:0,0:0:0:0:
246,144,36619,1,2,0:3:0:0:
120,59,36885,1,0,3:0:0:0:
40,188,37152,2,0,P|48:236|53:265,1,58.4999982147217,0|0,3:0|0:0,0:0:0:0:
26,318,37419,6,0,P|62:348|142:340,1,116.999996429443,4|0,3:2|0:0,0:0:0:0:
152,272,37819,2,0,P|188:242|268:250,1,116.999996429443,0|0,3:0|3:0,0:0:0:0:
296,312,38219,2,0,B|404:340|376:264|488:292,1,195.00000743866,2|0,3:2|0:0,0:0:0:0:
500,124,39019,6,0,L|368:148,1,130,4|0,3:2|3:0,0:0:0:0:
300,192,39419,2,0,P|292:232|292:260,2,65,0|0|0,0:0|3:0|0:0,0:0:0:0:
252,120,39819,2,0,P|212:114|180:108,1,65,0|0,3:0|0:0,0:0:0:0:
100,196,40085,2,0,P|139:190|172:184,1,65,0|0,3:0|0:0,0:0:0:0:
204,256,40352,2,0,P|204:292|196:324,1,65,8|0,1:2|0:0,0:0:0:0:
272,360,40619,6,0,P|312:324|392:328,1,130,0|0,3:0|3:0,0:0:0:0:
464,360,41019,2,0,L|452:208,1,130,0|0,0:0|0:0,0:0:0:0:
496,156,41419,2,0,L|500:88,1,65,0|0,3:0|0:0,0:0:0:0:
420,124,41685,2,0,L|426:48,1,65,0|0,3:0|0:0,0:0:0:0:
346,27,41952,2,0,P|307:40|274:45,1,65,8|0,1:2|0:0,0:0:0:0:
225,105,42219,6,0,P|174:66|110:59,1,130,0|0,3:0|3:0,0:0:0:0:
36,102,42619,2,0,P|29:70|29:37,2,65,0|0|0,0:0|3:0|0:0,0:0:0:0:
88,172,43019,2,0,L|68:318,1,130,0|0,3:0|3:0,0:0:0:0:
236,264,43552,1,8,1:2:0:0:
308,312,43685,1,0,0:0:0:0:
388,280,43819,6,0,P|432:280|480:200,1,130,0|0,3:0|3:0,0:0:0:0:
420,160,44219,2,0,L|404:20,1,130,0|0,0:0|0:0,0:0:0:0:
324,8,44619,1,0,3:0:0:0:
168,68,44885,2,0,P|176:112|176:140,1,65,0|0,3:0|0:0,0:0:0:0:
240,188,45152,2,0,P|233:219|231:252,1,65,8|0,1:2|0:0,0:0:0:0:
128,320,45419,6,0,B|200:304|184:352|280:328,1,130,4|0,3:2|3:0,0:0:0:0:
336,360,45819,2,0,P|376:336|384:240,1,130,0|0,0:0|0:0,0:0:0:0:
328,204,46219,2,0,L|312:128,1,65,0|0,3:0|0:0,0:0:0:0:
372,80,46485,2,0,P|420:96|456:100,1,65,0|0,3:0|0:0,0:0:0:0:
308,24,46752,2,0,L|220:48,1,65,8|0,1:2|0:0,0:0:0:0:
184,100,47019,6,0,P|120:96|64:36,1,130,0|0,3:0|3:0,0:0:0:0:
24,124,47419,2,0,L|40:276,1,130,0|0,0:0|0:0,0:0:0:0:
20,336,47819,1,0,3:0:0:0:
172,264,48085,2,0,P|212:256|256:252,1,65,0|0,3:0|0:0,0:0:0:0:
320,272,48352,2,0,L|313:207,1,65,8|0,1:2|0:0,0:0:0:0:
368,108,48619,6,0,P|318:126|228:80,1,146.250005578995,4|0,3:2|3:0,0:0:0:0:
196,24,49152,1,8,0:0:0:0:
96,104,49419,2,0,L|104:216,2,97.50000371933,0|0|8,3:0|3:0|0:0,0:0:0:0:
42,255,50219,6,0,P|124:280|183:217,1,175.499994644165,0|0,3:0|3:0,0:0:0:0:
185,146,50752,1,8,0:0:0:0:
321,213,51019,2,0,L|330:275,1,58.4999982147217,0|0,3:0|0:0,0:0:0:0:
412,287,51285,2,0,L|403:225,1,58.4999982147217,0|0,3:0|0:0,0:0:0:0:
459,171,51552,2,0,P|468:143|470:114,1,58.4999982147217,8|0,0:0|0:0,0:0:0:0:
414,50,51819,6,0,B|304:33|331:114|206:93,1,195,0|0,3:0|3:0,0:0:0:0:
251,13,52352,1,8,0:0:0:0:
380,131,52619,1,0,3:0:0:0:
245,233,52885,1,8,0:0:0:0:
245,233,53019,1,8,0:0:0:0:
245,233,53152,2,0,L|161:224,1,65,8|8,0:0|0:0,0:0:0:0:
97,264,53419,5,2,0:0:0:0:
285,156,53685,1,2,0:0:0:0:
155,144,53952,1,2,0:0:0:0:
316,283,54219,1,2,0:0:0:0:
316,283,55019,6,0,P|367:287|429:215,1,130,6|0,3:2|0:0,0:0:0:0:
479,174,55419,2,0,L|452:31,1,130,2|0,3:2|3:0,0:0:0:0:
373,22,55819,1,10,0:0:0:0:
277,160,56085,1,0,3:0:0:0:
207,111,56219,1,8,0:0:0:0:
146,170,56352,2,0,P|118:184|86:192,1,65,2|0,3:2|0:0,0:0:0:0:
27,131,56619,6,0,P|47:72|127:57,1,130,2|0,3:2|0:0,0:0:0:0:
184,16,57019,2,0,L|314:49,1,130,2|0,3:2|3:0,0:0:0:0:
375,102,57419,1,10,0:0:0:0:
375,102,57685,2,0,P|389:70|390:30,1,65,2|8,3:2|0:0,0:0:0:0:
304,145,57952,2,0,L|320:218,1,65,2|0,3:2|0:0,0:0:0:0:
404,269,58219,6,0,P|361:279|299:349,1,130,2|0,3:2|0:0,0:0:0:0:
471,325,58752,2,0,L|494:256,1,65,0|0,0:0|3:0,0:0:0:0:
500,178,59019,2,0,P|458:186|356:146,1,130,10|0,0:0|0:0,0:0:0:0:
317,100,59419,1,8,0:0:0:0:
237,129,59552,2,0,P|181:140|156:142,1,65,2|0,3:2|0:0,0:0:0:0:
63,116,59819,6,0,L|79:251,1,130,2|0,3:2|0:0,0:0:0:0:
165,273,60219,2,0,L|149:138,1,130,2|0,3:2|3:0,0:0:0:0:
174,62,60619,1,14,0:0:0:0:
174,62,60885,1,0,3:0:0:0:
252,94,61019,1,8,0:0:0:0:
322,47,61152,2,0,P|360:38|404:37,1,65,0|0,3:0|0:0,0:0:0:0:
486,124,61419,6,0,P|453:149|341:141,1,130,6|0,3:2|0:0,0:0:0:0:
295,200,61819,2,0,L|165:180,1,130,2|0,3:2|3:0,0:0:0:0:
98,129,62219,2,0,P|82:172|86:208,1,65,10|0,0:0|0:0,0:0:0:0:
28,287,62485,2,0,P|73:279|102:257,1,65,0|8,3:0|0:0,0:0:0:0:
166,180,62752,1,2,3:2:0:0:
241,217,62885,1,0,0:0:0:0:
321,190,63019,6,0,P|372:194|427:278,1,130,2|0,3:2|0:0,0:0:0:0:
355,300,63419,2,0,P|304:304|249:388,1,130,2|0,3:2|3:0,0:0:0:0:
334,381,63819,1,10,0:0:0:0:
486,310,64085,2,0,P|503:282|511:251,1,65,2|8,3:2|0:0,0:0:0:0:
448,193,64352,2,0,L|438:101,1,65,2|0,3:2|0:0,0:0:0:0:
490,34,64619,6,0,P|443:49|351:8,1,130,2|0,3:2|0:0,0:0:0:0:
225,116,65152,2,0,P|235:162|235:210,1,65,0|0,0:0|3:0,0:0:0:0:
153,160,65419,2,0,P|97:150|25:189,1,130,10|0,0:0|3:0,0:0:0:0:
98,234,65819,1,8,0:0:0:0:
51,303,65952,2,0,P|97:326|132:329,1,65,2|0,3:2|0:0,0:0:0:0:
178,277,66219,6,0,B|247:258|241:297|324:275,1,130,2|0,3:2|0:0,0:0:0:0:
386,221,66619,2,0,P|334:184|274:200,1,130,2|0,3:2|3:0,0:0:0:0:
171,152,67019,1,10,0:0:0:0:
171,152,67285,2,0,L|159:85,1,65,0|8,3:0|0:0,0:0:0:0:
251,114,67552,2,0,L|239:47,1,65,8|8,3:2|0:0,0:0:0:0:
331,76,67819,6,0,L|480:90,1,130,4|0,3:2|3:0,0:0:0:0:
506,159,68219,1,8,0:0:0:0:
422,170,68352,2,0,P|382:179|343:192,1,65,0|8,3:0|0:0,0:0:0:0:
333,268,68619,2,0,P|388:299|453:299,2,130,4|0|0,3:2|3:0|0:0,0:0:0:0:
258,229,69285,1,8,0:0:0:0:
170,253,69419,6,0,L|182:189,1,65,0|0,3:0|0:0,0:0:0:0:
108,66,69685,2,0,L|157:108,1,65,0|8,3:0|0:0,0:0:0:0:
238,127,69952,2,0,L|299:105,1,65,4|4,3:0|3:0,0:0:0:0:
407,66,70219,5,4,3:2:0:0:
407,66,71019,6,0,B|436:125|436:125|418:197,1,130,4|4,3:2|0:0,0:0:0:0:
339,162,71419,1,0,3:0:0:0:
274,216,71552,2,0,L|196:225,1,65,12|0,0:0|0:0,0:0:0:0:
108,167,71819,2,0,P|105:136|96:100,2,65,4|0|8,3:0|3:0|3:0,0:0:0:0:
63,239,72219,1,0,3:0:0:0:
103,312,72352,2,0,P|134:339|169:348,1,65,8|8,3:0|3:0,0:0:0:0:
274,301,72619,5,4,3:2:0:0:
274,301,72752,2,0,L|262:221,1,65,0|4,0:0|0:0,0:0:0:0:
317,170,73019,2,0,L|326:82,1,65,0|12,3:0|0:0,0:0:0:0:
329,21,73285,1,0,0:0:0:0:
252,58,73419,2,0,P|207:73|175:82,1,65,4|0,3:0|3:0,0:0:0:0:
116,137,73685,2,0,P|161:152|193:161,1,65,8|0,3:0|3:0,0:0:0:0:
122,32,73952,2,0,P|81:44|56:57,1,65,4|4,3:0|3:0,0:0:0:0:
19,127,74219,6,0,L|34:266,1,130,4|4,3:2|0:0,0:0:0:0:
182,334,74752,1,12,0:0:0:0:
257,295,74885,1,0,0:0:0:0:
328,341,75019,2,0,P|367:348|406:344,1,65,4|0,3:0|3:0,0:0:0:0:
402,217,75285,2,0,P|376:247|360:283,1,65,8|0,3:0|3:0,0:0:0:0:
472,343,75552,2,0,P|458:305|435:273,1,65,4|0,3:0|0:0,0:0:0:0:
309,204,75819,6,0,L|294:63,1,130,4|4,3:2|0:0,0:0:0:0:
369,32,76219,1,0,3:0:0:0:
446,65,76352,2,0,L|454:0,1,65,12|0,0:0|0:0,0:0:0:0:
386,130,76619,6,0,B|420:182|489:179|489:179|436:191|398:225|398:225|425:239|446:260|446:260|420:284|409:307,1,325,8|0,0:0|0:0,0:0:0:0:
417,291,77419,6,0,P|345:279|292:322,1,130,4|0,3:2|0:0,0:0:0:0:
225,349,77819,2,0,L|69:340,1,130,8|2,0:0|0:0,0:0:0:0:
13,365,78219,1,0,3:0:0:0:
110,227,78485,2,0,P|112:181|106:134,1,65,0|0,3:0|0:0,0:0:0:0:
67,89,78752,1,8,0:0:0:0:
67,89,78885,1,2,0:0:0:0:
67,89,79019,6,0,P|122:124|195:120,1,130,0|0,3:0|0:0,0:0:0:0:
258,80,79419,2,0,L|410:104,1,130,8|10,0:0|0:0,0:0:0:0:
464,66,79819,1,0,3:0:0:0:
359,198,80085,2,0,P|369:232|373:268,2,65,0|0|8,3:0|0:0|0:0,0:0:0:0:
281,163,80485,1,2,0:0:0:0:
220,223,80619,6,0,L|140:233,1,65,0|0,3:0|0:0,0:0:0:0:
77,200,80885,1,0,0:0:0:0:
77,200,81019,2,0,P|58:153|104:77,1,130,10|0,0:0|0:0,0:0:0:0:
164,125,81419,2,0,L|315:140,2,130,0|0|8,3:0|3:0|0:0,0:0:0:0:
307,35,82219,6,0,L|399:25,1,65,2|0,3:2|0:0,0:0:0:0:
450,57,82485,2,0,P|434:105|432:127,1,65,0|8,0:0|0:0,0:0:0:0:
473,193,82752,1,0,0:0:0:0:
441,271,82885,1,8,0:0:0:0:
360,243,83019,5,2,0:0:0:0:
360,243,83819,6,0,L|224:259,1,116.999996429443,4|0,3:2|0:0,0:0:0:0:
171,295,84219,1,0,3:0:0:0:
41,225,84485,1,0,3:0:0:0:
41,225,84619,2,0,L|46:107,1,116.999996429443,8|0,0:0|3:0,0:0:0:0:
107,53,85019,1,8,3:0:0:0:
173,99,85152,2,0,L|185:180,1,58.4999982147217,0|0,3:0|0:0,0:0:0:0:
251,199,85419,6,0,P|300:208|361:170,1,116.999996429443,0|0,3:0|0:0,0:0:0:0:
394,103,85819,1,0,3:0:0:0:
486,222,86085,1,0,3:0:0:0:
486,222,86219,2,0,L|473:349,1,116.999996429443,8|0,0:0|3:0,0:0:0:0:
402,364,86619,2,0,L|338:355,1,58.4999982147217,4|0,3:0|3:0,0:0:0:0:
279,305,86885,1,0,0:0:0:0:
211,353,87019,6,0,P|165:365|90:344,1,116.999996429443,0|0,3:0|0:0,0:0:0:0:
44,279,87419,2,0,P|90:267|165:288,1,116.999996429443,0|0,3:0|3:0,0:0:0:0:
224,236,87819,2,0,L|210:109,1,116.999996429443,8|0,0:0|3:0,0:0:0:0:
275,69,88219,1,8,3:0:0:0:
336,123,88352,2,0,P|368:136|397:136,1,58.4999982147217,0|0,3:0|0:0,0:0:0:0:
468,153,88619,6,0,P|424:167|374:226,1,116.999996429443,0|0,3:0|0:0,0:0:0:0:
307,251,89019,2,0,P|304:297|338:358,1,116.999996429443,0|0,3:0|3:0,0:0:0:0:
412,328,89419,1,8,0:0:0:0:
307,170,89685,2,0,L|247:163,1,58.4999982147217,0|0,3:0|3:0,0:0:0:0:
196,224,89952,2,0,L|137:230,1,58.4999982147217,8|4,3:0|3:0,0:0:0:0:
65,186,90219,6,0,L|69:50,1,116.999996429443,4|0,3:2|0:0,0:0:0:0:
136,22,90619,1,0,3:0:0:0:
279,100,90885,1,0,3:0:0:0:
279,100,91019,2,0,P|347:106|406:72,2,116.999996429443,8|0|0,0:0|3:0|0:0,0:0:0:0:
197,109,91685,1,0,0:0:0:0:
230,184,91819,6,0,P|236:231|239:309,1,116.999996429443,0|0,3:0|0:0,0:0:0:0:
313,336,92219,2,0,P|344:295|426:280,1,116.999996429443,0|0,3:0|3:0,0:0:0:0:
482,305,92619,1,8,0:0:0:0:
387,171,92885,1,0,3:0:0:0:
493,46,93152,2,0,L|410:57,1,58.4999982147217,0|0,3:0|0:0,0:0:0:0:
358,85,93419,6,0,L|241:73,1,116.999996429443,0|0,3:0|0:0,0:0:0:0:
167,38,93819,2,0,P|115:55|90:115,1,116.999996429443,0|0,3:0|3:0,0:0:0:0:
147,167,94219,2,0,P|152:199|155:243,1,58.4999982147217,8|0,0:0|0:0,0:0:0:0:
81,269,94485,2,0,P|75:236|73:193,2,58.4999982147217,0|8|0,3:0|3:0|3:0,0:0:0:0:
149,315,94885,1,0,0:0:0:0:
225,281,95019,6,0,L|364:293,1,116.999996429443,0|0,3:0|0:0,0:0:0:0:
389,224,95419,2,0,L|528:236,1,116.999996429443,0|0,3:0|3:0,0:0:0:0:
488,153,95819,1,8,0:0:0:0:
325,173,96085,2,0,L|250:181,1,58.4999982147217,0|8,3:0|3:0,0:0:0:0:
185,192,96352,1,4,3:0:0:0:
185,192,96619,6,0,P|172:236|181:293,2,97.50000371933,2|0|0,3:2|0:0|0:0,0:0:0:0:
250,71,97419,2,0,P|218:37|164:17,2,97.50000371933,8|8|8,0:0|3:0|3:0,0:0:0:0:
310,124,98085,1,0,0:0:0:0:
388,96,98219,6,0,L|506:84,2,97.50000371933,0|0|0,3:0|0:0|0:0,0:0:0:0:
299,208,99019,2,0,L|313:317,1,97.50000371933,8|0,0:0|3:0,0:0:0:0:
241,347,99419,1,8,3:0:0:0:
172,303,99552,1,0,3:0:0:0:
172,303,99819,6,0,L|185:173,1,116.999996429443,4|0,3:2|0:0,0:0:0:0:
153,111,100219,2,0,P|212:149|274:147,1,116.999996429443,0|0,3:0|3:0,0:0:0:0:
326,106,100619,1,8,0:0:0:0:
410,245,100885,1,0,3:0:0:0:
477,95,101152,2,0,P|445:108|418:136,1,58.4999982147217,0|0,3:0|0:0,0:0:0:0:
367,180,101419,6,0,L|359:300,1,116.999996429443,0|0,3:0|0:0,0:0:0:0:
293,346,101819,2,0,P|241:332|223:269,1,116.999996429443,0|0,3:0|3:0,0:0:0:0:
240,196,102219,2,0,L|108:180,1,116.999996429443,8|0,0:0|3:0,0:0:0:0:
66,123,102619,1,8,3:0:0:0:
113,56,102752,2,0,L|196:46,1,58.4999982147217,0|0,3:0|0:0,0:0:0:0:
249,24,103019,6,0,P|282:66|356:78,1,116.999996429443,0|0,3:0|0:0,0:0:0:0:
420,56,103419,1,0,3:0:0:0:
384,215,103685,1,0,3:0:0:0:
384,215,103819,2,0,L|448:197,2,58.4999982147217,8|0|0,0:0|0:0|3:0,0:0:0:0:
316,262,104219,1,8,3:0:0:0:
239,232,104352,2,0,P|226:200|228:161,1,58.4999982147217,0|0,3:0|0:0,0:0:0:0:
256,100,104619,6,0,L|140:86,1,116.999996429443,0|0,3:0|0:0,0:0:0:0:
121,167,105019,2,0,L|5:153,1,116.999996429443,0|0,3:0|3:0,0:0:0:0:
9,68,105419,1,8,0:0:0:0:
161,10,105685,2,0,L|240:18,1,58.4999982147217,8|8,3:0|0:0,0:0:0:0:
278,73,105952,2,0,L|336:67,1,58.4999982147217,8|4,3:0|3:0,0:0:0:0:
406,24,106219,6,0,P|418:76|421:143,1,116.999996429443,4|0,3:2|0:0,0:0:0:0:
380,210,106619,2,0,P|349:220|267:183,1,116.999996429443,0|0,3:0|3:0,0:0:0:0:
209,139,107019,1,8,0:0:0:0:
269,290,107285,1,0,3:0:0:0:
339,141,107552,2,0,L|328:75,1,58.4999982147217,0|0,3:0|0:0,0:0:0:0:
260,38,107819,6,0,P|205:63|138:65,1,116.999996429443,0|0,3:0|0:0,0:0:0:0:
68,49,108219,2,0,P|112:85|121:141,1,116.999996429443,0|0,3:0|3:0,0:0:0:0:
61,198,108619,2,0,L|71:262,1,58.4999982147217,8|0,0:0|0:0,0:0:0:0:
148,326,108885,2,0,L|157:268,1,58.4999982147217,0|8,3:0|3:0,0:0:0:0:
224,215,109152,1,0,3:0:0:0:
298,247,109285,1,0,0:0:0:0:
373,213,109419,6,0,P|370:170|273:121,1,146.250005578995,0|0,3:0|3:0,0:0:0:0:
213,142,109952,1,0,0:0:0:0:
86,90,110219,2,0,L|95:202,1,97.50000371933,8|0,0:0|3:0,0:0:0:0:
139,257,110619,1,8,3:0:0:0:
139,257,110752,2,0,L|135:315,1,48.750001859665,0|0,3:0|0:0,0:0:0:0:
70,354,111019,6,0,B|165:330|144:382|243:356,1,175.499994644165,0|0,3:0|3:0,0:0:0:0:
323,364,111552,1,0,0:0:0:0:
418,230,111819,2,0,L|406:96,1,116.999996429443,8|8,0:0|3:0,0:0:0:0:
339,67,112219,2,0,L|346:-4,2,58.4999982147217,0|8|4,3:0|3:0|3:0,0:0:0:0:
271,115,112619,6,0,P|213:119|149:7,1,195.00000743866,2|0,3:2|0:0,0:0:0:0:
233,37,113419,2,0,B|226:111|226:111|235:158|235:158|226:236,1,195.00000743866,0|0,0:0|0:0,0:0:0:0:
209,323,114219,5,0,0:0:0:0:
152,169,114485,1,0,0:0:0:0:
314,196,114752,1,0,0:0:0:0:
209,323,115019,1,2,0:0:0:0:
226,230,115819,5,4,1:2:0:0:
80,96,128619,6,0,L|176:104,1,65,8|0,0:0|3:0,0:0:0:0:
92,180,128885,2,0,L|188:188,1,65,8|0,0:0|3:0,0:0:0:0:
104,264,129152,2,0,L|216:272,1,97.5,8|0,0:0|0:0,0:0:0:0:
240,292,129419,6,0,P|276:252|368:260,1,130,0|8,3:2|0:0,0:0:0:0:
420,348,129819,2,0,B|400:272|448:304|424:196,1,130,0|0,3:0|3:0,0:0:0:0:
456,140,130219,2,0,P|418:135|380:128,1,65,8|0,3:2|0:0,0:0:0:0:
328,76,130485,2,0,L|248:88,1,65,8|0,0:0|3:0,0:0:0:0:
184,60,130752,1,8,0:0:0:0:
120,116,130885,1,0,3:0:0:0:
44,80,131019,6,0,P|36:120|92:200,1,130,8|8,3:2|0:0,0:0:0:0:
104,275,131419,2,0,P|165:256|230:253,1,130,0|0,3:0|3:0,0:0:0:0:
308,288,131819,2,0,P|324:324|328:360,1,65,8|0,0:0|0:0,0:0:0:0:
388,260,132085,2,0,L|396:188,1,65,8|0,0:0|3:0,0:0:0:0:
360,116,132352,1,8,0:0:0:0:
284,84,132485,1,0,3:0:0:0:
232,148,132619,6,0,P|184:152|104:100,1,130,8|8,0:0|0:0,0:0:0:0:
248,12,133152,1,8,0:0:0:0:
284,84,133285,1,0,3:0:0:0:
360,116,133419,2,0,L|500:96,1,130,8|8,0:0|0:0,0:0:0:0:
492,268,133952,2,0,L|408:248,1,65,8|0,0:0|3:0,0:0:0:0:
355,295,134219,6,0,P|306:255|242:255,1,130,8|8,3:2|0:0,0:0:0:0:
168,296,134619,2,0,B|140:220|188:236|156:156,1,130,0|0,3:0|3:0,0:0:0:0:
180,88,135019,1,8,3:2:0:0:
180,88,135285,2,0,L|104:72,1,65,12|0,0:0|3:0,0:0:0:0:
36,52,135552,2,0,L|48:140,1,65,12|0,0:0|3:0,0:0:0:0:
84,192,135819,6,0,L|68:352,1,130,4|8,3:2|0:0,0:0:0:0:
152,348,136219,2,0,B|216:332|212:372|280:352,1,130,0|0,3:0|3:0,0:0:0:0:
359,324,136619,2,0,P|375:295|380:263,1,65,8|0,3:2|0:0,0:0:0:0:
316,208,136885,2,0,L|312:144,1,65,8|0,0:0|3:0,0:0:0:0:
328,60,137152,1,8,0:0:0:0:
248,84,137285,1,0,3:0:0:0:
168,60,137419,6,0,L|20:48,1,130,8|8,3:2|0:0,0:0:0:0:
48,132,137819,2,0,L|123:139,2,65,0|8|0,3:0|0:0|3:0,0:0:0:0:
1,202,138219,2,0,P|12:232|18:264,1,65,8|0,3:2|0:0,0:0:0:0:
75,325,138485,2,0,P|93:299|104:268,1,65,8|0,0:0|3:0,0:0:0:0:
172,218,138752,2,0,L|251:239,1,65,8|0,0:0|3:0,0:0:0:0:
307,277,139019,6,0,P|354:232|417:226,1,130,8|8,3:2|0:0,0:0:0:0:
496,258,139419,1,0,3:0:0:0:
496,258,139552,2,0,P|507:221|505:179,1,65,8|0,0:0|3:0,0:0:0:0:
492,111,139819,2,0,L|350:130,1,130,8|8,3:2|0:0,0:0:0:0:
195,153,140352,1,8,0:0:0:0:
242,83,140485,1,0,3:0:0:0:
276,160,140619,6,0,P|285:214|281:239,1,65,8|0,3:2|0:0,0:0:0:0:
322,306,140885,1,8,0:0:0:0:
322,306,141019,2,0,P|268:271|196:273,1,130,0|0,3:0|3:0,0:0:0:0:
123,297,141419,1,8,3:2:0:0:
123,297,141685,2,0,L|131:364,1,65,8|0,0:0|3:0,0:0:0:0:
41,261,141952,2,0,L|33:194,1,65,8|0,0:0|3:0,0:0:0:0:
79,122,142219,5,4,3:2:0:0:
232,191,142485,2,0,L|310:179,1,65,8|8,0:0|0:0,0:0:0:0:
368,135,142752,1,8,0:0:0:0:
421,200,142885,1,8,0:0:0:0:
491,153,143019,6,0,L|481:16,1,130,4|8,3:2|0:0,0:0:0:0:
398,7,143419,1,8,0:0:0:0:
324,48,143552,2,0,P|288:55|248:55,1,65,8|8,0:0|0:0,0:0:0:0:
151,25,143819,2,0,L|160:89,1,65,4|0,3:2|0:0,0:0:0:0:
203,161,144085,1,8,0:0:0:0:
160,234,144219,2,0,P|206:203|288:214,1,130,0|0,3:0|3:0,0:0:0:0:
230,279,144619,5,12,0:0:0:0:
230,279,145419,6,0,L|85:296,1,130,6|0,3:2|0:0,0:0:0:0:
24,257,145819,2,0,P|8:207|47:123,1,130,8|8,0:0|0:0,0:0:0:0:
109,100,146219,1,2,3:2:0:0:
266,160,146485,1,0,3:0:0:0:
171,19,146752,1,8,0:0:0:0:
177,188,147019,6,0,L|182:337,1,130,2|0,3:2|0:0,0:0:0:0:
263,341,147419,2,0,P|313:328|338:330,2,65,8|0|8,0:0|0:0|0:0,0:0:0:0:
261,256,147819,2,0,P|295:208|380:197,1,130,2|0,3:2|3:0,0:0:0:0:
502,253,148352,1,8,0:0:0:0:
496,91,148619,6,0,L|362:102,1,130,2|0,3:2|0:0,0:0:0:0:
288,67,149019,2,0,L|128:50,1,130,8|8,0:0|0:0,0:0:0:0:
80,87,149419,1,2,3:2:0:0:
80,87,149685,2,0,P|91:131|93:163,1,65,0|0,3:0|0:0,0:0:0:0:
37,214,149952,2,0,P|40:246|49:277,1,65,8|0,0:0|0:0,0:0:0:0:
119,325,150219,6,0,L|265:306,1,130,2|0,3:2|0:0,0:0:0:0:
327,338,150619,2,0,L|455:354,1,130,8|8,0:0|0:0,0:0:0:0:
509,289,151019,2,0,P|507:255|500:207,1,65,6|0,3:2|0:0,0:0:0:0:
440,167,151285,1,8,3:0:0:0:
495,102,151419,1,8,3:0:0:0:
461,24,151552,1,4,3:0:0:0:
461,24,151819,6,0,P|374:38|321:38,1,130,6|0,3:2|0:0,0:0:0:0:
270,97,152219,2,0,P|227:97|185:78,1,65,8|0,0:0|0:0,0:0:0:0:
124,111,152485,1,8,0:0:0:0:
76,40,152619,2,0,L|62:169,2,130,2|0|8,3:2|3:0|0:0,0:0:0:0:
228,112,153419,6,0,L|214:241,1,130,2|0,3:2|0:0,0:0:0:0:
288,283,153819,2,0,L|363:273,1,65,8|0,0:0|0:0,0:0:0:0:
433,298,154085,1,8,0:0:0:0:
479,226,154219,1,2,3:2:0:0:
349,117,154485,2,0,L|356:40,2,65,0|0|8,3:0|0:0|0:0,0:0:0:0:
273,269,155019,6,0,P|218:302|154:297,1,130,2|0,3:2|0:0,0:0:0:0:
198,224,155419,2,0,P|157:217|106:139,1,130,8|8,0:0|0:0,0:0:0:0:
191,145,155819,2,0,L|203:6,2,130,2|0|8,3:2|3:0|0:0,0:0:0:0:
333,236,156619,6,0,P|384:226|415:226,1,65,10|0,0:0|0:0,0:0:0:0:
471,187,156885,1,0,3:0:0:0:
404,133,157019,2,0,P|347:116|264:124,1,130,8|0,0:0|3:0,0:0:0:0:
210,173,157419,2,0,P|145:177|83:160,1,130,10|8,0:0|0:0,0:0:0:0:
43,85,157819,1,8,0:0:0:0:
113,38,157952,1,0,3:0:0:0:
113,38,158219,6,0,L|195:51,1,65,4|0,3:2|0:0,0:0:0:0:
257,22,158485,2,0,L|339:35,1,65,12|0,0:0|3:0,0:0:0:0:
401,6,158752,1,12,0:0:0:0:
487,151,159019,2,0,P|447:164|409:165,1,65,8|0,3:0|3:0,0:0:0:0:
344,137,159285,2,0,P|303:133|263:115,1,65,4|0,3:0|3:0,0:0:0:0:
223,62,159552,1,8,3:0:0:0:
74,142,159819,6,0,L|80:208,1,65,12|0,3:2|0:0,0:0:0:0:
56,288,160085,2,0,L|143:296,1,65,12|0,0:0|0:0,0:0:0:0:
192,244,160352,1,12,0:0:0:0:
300,116,160619,2,0,P|344:109|389:116,1,65,8|0,3:0|3:0,0:0:0:0:
425,52,160885,2,0,P|447:78|461:113,1,65,4|0,3:0|3:0,0:0:0:0:
512,172,161152,1,4,3:0:0:0:
387,284,161419,6,0,L|301:271,1,65,12|0,3:2|0:0,0:0:0:0:
245,240,161685,2,0,L|225:317,1,65,12|0,0:0|3:0,0:0:0:0:
152,339,161952,2,0,L|66:326,1,65,12|0,0:0|0:0,0:0:0:0:
33,264,162219,2,0,P|24:216|25:194,1,65,8|0,3:0|3:0,0:0:0:0:
95,154,162485,2,0,P|102:185|103:217,1,65,4|0,3:0|3:0,0:0:0:0:
178,258,162752,1,8,3:0:0:0:
306,147,163019,6,0,P|280:90|222:62,1,130,8|0,0:0|3:0,0:0:0:0:
219,147,163419,2,0,P|221:185|213:219,2,65,8|0|0,0:0|3:0|0:0,0:0:0:0:
143,107,163819,2,0,L|8:94,1,130,8|0,0:0|3:0,0:0:0:0:
39,175,164219,1,0,3:0:0:0:
3,251,164352,2,0,L|13:322,1,65,4|0,3:2|0:0,0:0:0:0:
85,357,164619,5,4,3:2:0:0:
85,357,164885,2,0,P|135:338|161:336,1,65,10|0,0:0|3:2,0:0:0:0:
220,295,165152,2,0,P|248:321|276:330,1,65,10|0,0:0|0:0,0:0:0:0:
347,369,165419,2,0,P|381:338|386:247,1,130,10|8,3:2|0:0,0:0:0:0:
323,102,165952,1,8,0:0:0:0:
467,185,166219,6,0,L|324:177,1,130,10|8,3:2|0:0,0:0:0:0:
186,100,166752,1,8,0:0:0:0:
195,268,167019,1,10,3:2:0:0:
273,118,167285,2,0,P|271:79|255:41,1,65,10|0,0:0|3:0,0:0:0:0:
175,36,167552,2,0,P|177:75|193:113,1,65,10|0,0:0|0:0,0:0:0:0:
130,164,167819,5,10,3:2:0:0:
270,257,168085,2,0,L|336:241,1,65,10|0,0:0|3:0,0:0:0:0:
395,184,168352,2,0,L|447:225,1,65,10|0,0:0|0:0,0:0:0:0:
473,144,168619,2,0,B|485:84|485:84|467:11,1,130,10|8,3:2|0:0,0:0:0:0:
390,51,169019,1,8,0:0:0:0:
310,24,169152,2,0,L|239:28,1,65,10|8,0:0|0:0,0:0:0:0:
172,84,169419,5,0,0:0:0:0:
172,84,169723,2,0,P|133:57|51:60,1,130,0|0,0:0|0:0,0:0:0:0:
97,141,170269,1,0,0:0:0:0:
