osu file format v14

[General]
AudioFilename: audio.mp3
AudioLeadIn: 0
PreviewTime: 348
Countdown: 0
SampleSet: Soft
StackLeniency: 0.7
Mode: 0
LetterboxInBreaks: 0
WidescreenStoryboard: 0

[Editor]
DistanceSpacing: 1
BeatDivisor: 4
GridSize: 4
TimelineZoom: 1.8

[Metadata]
Title:Noise
TitleUnicode:ノイズ
Artist:MIOYAMAZAKI
ArtistUnicode:ミオヤマザキ
Creator:toybot
Version:Easy
Source:地獄少女 宵伽
Tags:jigoku shoujo yoi no togi opening delis aeril haruru irohas mugiwarasekai kalibe
BeatmapID:1416845
BeatmapSetID:664507

[Difficulty]
HPDrainRate:2
CircleSize:3
OverallDifficulty:3
ApproachRate:3
SliderMultiplier:0.899999999999999
SliderTickRate:1

[Events]
//Background and Video events
0,0,"noise bg.jpg",0,0
//Break Periods
2,115824,127979
//Storyboard Layer 0 (Background)
//Storyboard Layer 1 (Fail)
//Storyboard Layer 2 (Pass)
//Storyboard Layer 3 (Foreground)
//Storyboard Sound Samples

[TimingPoints]
619,266.666666666667,3,2,1,40,1,0
619,-100,3,2,1,40,0,0
12619,-100,3,2,1,50,0,0
13085,-100,3,2,1,5,0,0
13152,-100,3,2,1,60,0,0
13352,-100,3,2,1,5,0,0
13419,-100,3,2,1,80,0,0
13619,-100,3,2,1,5,0,0
13685,-100,3,2,1,80,0,0
25619,-100,3,2,1,5,0,0
25685,-100,3,2,1,80,0,0
26219,-100,3,2,1,60,0,0
38752,-100,3,2,1,5,0,0
39019,-100,3,2,1,70,0,0
39219,-100,3,2,1,5,0,0
39285,-100,3,2,1,70,0,0
46952,-100,3,2,1,5,0,0
47019,-100,3,2,1,70,0,0
48619,-100,3,2,1,65,0,0
50219,-100,3,2,1,70,0,0
51819,-100,3,2,1,75,0,0
53419,-100,3,2,1,40,0,0
53685,-100,3,2,1,45,0,0
53952,-100,3,2,1,50,0,0
54219,-100,3,2,1,60,0,0
54752,-100,3,2,1,20,0,0
55019,-100,3,2,1,80,0,1
64552,-100,3,2,1,5,0,1
64619,-100,3,2,1,80,0,1
69619,-100,3,2,1,5,0,1
69685,-100,3,2,1,80,0,1
70219,-100,3,2,1,80,0,0
71019,-100,3,2,1,75,0,1
73352,-100,3,2,1,5,0,1
73419,-100,3,2,1,75,0,1
75752,-100,3,2,1,5,0,1
75819,-100,3,2,1,75,0,1
76619,-100,3,2,1,75,0,0
76652,-100,3,2,1,20,0,0
77219,-100,3,2,1,30,0,0
77285,-100,3,2,1,40,0,0
77319,-100,3,2,1,45,0,0
77352,-100,3,2,1,50,0,0
77419,-100,3,2,1,70,0,0
83552,-100,3,2,1,60,0,0
95019,-100,3,2,1,60,0,0
96619,-100,3,2,1,50,0,0
99819,-100,3,2,1,60,0,0
111019,-100,3,2,1,60,0,0
113952,-100,3,2,1,30,0,0
114219,-100,3,2,1,40,0,0
115019,-100,3,2,1,50,0,0
115752,-100,3,2,1,5,0,0
115819,-100,3,2,1,60,0,0
129152,-100,3,2,1,60,0,0
129352,-100,3,2,1,5,0,0
129419,-100,3,2,1,80,0,1
144619,-100,3,2,1,80,0,0
145419,-100,3,2,1,75,0,0
151219,-100,3,2,1,5,0,0
151285,-100,3,2,1,75,0,0
154419,-100,3,2,1,5,0,0
154485,-100,3,2,1,75,0,0
157619,-100,3,2,1,5,0,0
157685,-100,3,2,1,75,0,0
158219,-100,3,2,1,75,0,1
162152,-100,3,2,1,5,0,1
162219,-100,3,2,1,75,0,1
163752,-100,3,2,1,5,0,1
163819,-100,3,2,1,75,0,1
164352,-100,3,2,1,75,0,1
164552,-100,3,2,1,5,0,1
164619,-100,3,2,1,75,0,1
166419,-100,3,2,1,5,0,1
166485,-100,3,2,1,75,0,1
168819,-100,3,2,1,5,0,1
168885,-100,3,2,1,75,0,1
169419,304.568527918782,3,2,1,40,1,0
169419,-100,3,2,1,40,0,0
169723,271.493212669683,3,2,1,20,1,0
169723,-100,3,2,1,20,0,0
169994,275.229357798165,3,2,1,35,1,0
169994,-100,3,2,1,35,0,0
170131,-100,3,2,1,15,0,0
170269,-100,3,2,1,30,0,0

[Colours]
Combo1 : 185,0,92
Combo2 : 0,62,123
Combo3 : 102,171,255
Combo4 : 128,128,192

[HitObjects]
208,122,619,6,0,P|142:113|79:136,2,135,4|0|0,1:3|0:0|0:0,0:0:0:0:
368,208,1952,1,0,0:0:0:0:
448,164,2219,2,0,P|456:112|392:48,1,135,2|0,0:0|0:0,0:0:0:0:
304,140,3019,2,0,B|212:124|224:188|124:168,1,180,2|0,0:0|0:0,0:0:0:0:
52,216,3819,6,0,P|40:172|80:92,2,135,2|0|0,0:0|0:0|0:0,0:0:0:0:
200,316,5152,1,0,0:0:0:0:
276,268,5419,2,0,P|320:252|420:264,1,135,2|0,0:0|0:0,0:0:0:0:
508,168,6219,2,0,P|440:172|368:76,1,180,2|0,0:0|0:0,0:0:0:0:
312,23,7019,6,0,P|376:43|443:42,2,135,2|0|0,0:0|0:0|0:0,0:0:0:0:
232,64,8085,2,0,L|124:48,1,89.9999999999999,0|0,0:0|0:0,0:0:0:0:
60,88,8619,2,0,P|36:128|60:228,2,135,2|0|0,0:0|0:0|0:0,0:0:0:0:
172,228,9952,1,0,0:0:0:0:
248,176,10219,6,0,L|356:160,2,89.9999999999999,2|0|0,0:0|0:0|0:0,0:0:0:0:
168,132,11019,2,0,L|72:120,2,89.9999999999999,0|0|0,0:0|0:0|0:0,0:0:0:0:
240,80,11819,2,0,L|388:60,1,135,2|0,0:0|0:0,0:0:0:0:
484,140,12619,2,0,P|464:208|356:232,1,180,0|4,0:0|3:0,0:0:0:0:
292,284,13419,6,0,B|260:184|320:208|288:104,1,180,4|10,3:2|3:2,0:0:0:0:
208,64,14219,1,14,3:2:0:0:
96,204,14752,1,10,3:2:0:0:
156,271,15019,2,0,P|71:291|9:232,1,180,14|0,3:2|0:0,0:0:0:0:
28,144,15819,2,0,L|16:40,2,89.9999999999999,14|10|10,3:2|0:0|3:2,0:0:0:0:
96,204,16619,6,0,B|196:220|164:144|280:160,1,180,14|10,3:2|3:2,0:0:0:0:
336,208,17419,1,12,3:2:0:0:
432,56,17952,1,10,3:2:0:0:
512,100,18219,2,0,P|476:136|352:100,1,180,12|0,3:2|0:0,0:0:0:0:
304,44,19019,1,14,3:2:0:0:
140,120,19552,1,8,3:2:0:0:
56,92,19819,6,0,L|40:280,1,180,12|8,3:2|3:2,0:0:0:0:
124,299,20619,2,0,L|140:111,1,180,12|8,3:2|3:2,0:0:0:0:
216,72,21419,2,0,P|264:88|320:88,1,89.9999999999999,12|8,3:2|0:0,0:0:0:0:
352,12,21952,1,8,3:2:0:0:
428,60,22219,2,0,P|384:120|408:224,1,180,12|8,3:2|3:2,0:0:0:0:
484,260,23019,6,0,B|336:228|360:320|216:288,1,270,12|14,3:2|3:2,0:0:0:0:
92,168,24352,1,10,3:2:0:0:
84,256,24619,2,0,P|176:188|168:124,1,180,14|10,3:2|3:2,0:0:0:0:
132,52,25419,1,12,3:2:0:0:
216,20,25685,2,0,L|320:32,1,89.9999999999999,8|8,0:0|3:2,0:0:0:0:
376,88,26219,6,0,P|416:52|504:48,2,135,6|2|2,3:2|3:2|0:3,0:0:0:0:
320,160,27285,2,0,P|340:228|348:260,1,89.9999999999999,0|0,3:0|3:0,0:0:0:0:
292,320,27819,2,0,P|252:356|164:360,2,135,2|2|2,3:2|3:2|0:3,0:0:0:0:
180,180,29152,1,0,3:0:0:0:
100,224,29419,6,0,L|84:376,2,135,2|2|2,3:2|3:2|0:3,0:0:0:0:
44,152,30485,2,0,L|28:48,1,89.9999999999999,0|0,3:0|3:0,0:0:0:0:
115,31,31019,2,0,P|168:73|234:74,2,135,2|2|2,3:2|3:2|0:3,0:0:0:0:
292,4,32352,1,0,3:0:0:0:
368,56,32619,6,0,L|352:204,1,135,2|2,3:2|3:2,0:0:0:0:
264,292,33419,2,0,P|232:304|164:304,2,89.9999999999999,2|0|0,0:3|3:0|3:0,0:0:0:0:
336,348,34219,2,0,P|388:324|472:336,2,135,2|2|2,3:2|3:2|0:3,0:0:0:0:
208,224,35552,1,0,3:0:0:0:
148,292,35819,6,0,L|0:300,1,135,2|2,3:2|3:2,0:0:0:0:
28,164,36619,2,0,L|124:172,1,89.9999999999999,2|0,0:3|3:0,0:0:0:0:
196,124,37152,1,0,3:0:0:0:
212,36,37419,2,0,B|140:32|160:64|80:60,2,135,4|0|2,3:2|3:0|3:2,0:0:0:0:
468,116,39019,6,0,P|408:104|332:196,1,180,4|0,3:2|3:0,0:0:0:0:
268,244,39819,2,0,P|305:267|350:269,2,89.9999999999999,0|0|8,3:0|3:0|1:2,0:0:0:0:
184,272,40619,2,0,L|164:72,1,180,0|0,3:0|0:0,0:0:0:0:
104,28,41419,2,0,P|141:4|186:3,2,89.9999999999999,0|0|8,3:0|3:0|1:2,0:0:0:0:
40,92,42219,6,0,B|56:148|56:148|12:208|44:276,1,180,0|0,3:0|0:0,0:0:0:0:
108,320,43019,2,0,L|204:312,1,89.9999999999999,0|0,3:0|3:0,0:0:0:0:
272,264,43552,1,8,1:2:0:0:
340,324,43819,2,0,L|488:308,2,135,0|0|0,3:0|0:0|3:0,0:0:0:0:
212,196,45152,1,8,1:2:0:0:
276,132,45419,6,0,P|332:112|420:188,1,180,4|0,3:2|3:0,0:0:0:0:
468,256,46219,2,0,P|498:223|509:179,2,89.9999999999999,0|0|8,3:0|3:0|1:2,0:0:0:0:
392,304,47019,2,0,B|296:284|320:352|216:332,1,180,0|0,3:0|3:0,0:0:0:0:
172,256,47819,2,0,P|141:288|130:332,2,89.9999999999999,0|0|8,3:0|3:0|1:2,0:0:0:0:
244,204,48619,6,0,P|240:136|128:96,1,180,4|8,3:2|0:0,0:0:0:0:
96,164,49419,2,0,L|-4:172,2,89.9999999999999,0|0|8,3:0|3:0|0:0,0:0:0:0:
156,232,50219,2,0,L|340:216,1,180,0|8,3:0|0:0,0:0:0:0:
412,168,51019,2,0,P|424:212|412:264,2,89.9999999999999,0|0|8,3:0|3:0|0:0,0:0:0:0:
360,92,51819,5,0,3:0:0:0:
256,192,51952,12,2,53419,0:0:0:0:
132,23,55019,6,0,P|100:63|4:67,2,135,6|2|10,3:2|3:2|0:0,0:0:0:0:
319,38,56352,1,2,3:2:0:0:
235,71,56619,2,0,P|267:111|363:115,2,135,2|2|10,3:2|3:2|0:0,0:0:0:0:
170,133,57685,2,0,P|161:171|176:225,1,89.9999999999999,2|2,3:2|3:2,0:0:0:0:
106,281,58219,6,0,P|154:307|258:240,1,180,2|0,3:2|0:0,0:0:0:0:
342,270,59019,2,0,P|355:206|460:167,1,180,10|2,0:0|3:2,0:0:0:0:
495,85,59819,2,0,P|460:50|368:52,2,135,2|2|14,3:2|3:2|0:0,0:0:0:0:
316,111,61152,1,0,3:0:0:0:
232,76,61419,6,0,P|165:77|114:119,2,135,6|2|10,3:2|3:2|0:0,0:0:0:0:
311,238,62752,1,2,3:2:0:0:
392,196,63019,2,0,P|390:129|336:68,2,135,2|2|10,3:2|3:2|0:0,0:0:0:0:
481,182,64085,2,0,P|477:226|453:264,1,89.9999999999999,2|2,3:2|3:2,0:0:0:0:
398,336,64619,5,2,3:2:0:0:
308,328,64885,2,0,P|263:336|208:319,1,89.9999999999999,0|0,0:0|0:0,0:0:0:0:
137,360,65419,2,0,P|97:321|113:200,1,180,10|2,0:0|3:2,0:0:0:0:
194,180,66219,2,0,P|153:127|75:124,2,135,2|2|10,3:2|3:2|0:0,0:0:0:0:
272,224,67285,1,0,3:0:0:0:
283,313,67552,1,8,3:2:0:0:
208,362,67819,6,0,P|165:368|124:351,2,89.9999999999999,4|0|0,3:2|3:0|3:0,0:0:0:0:
283,313,68619,2,0,P|329:303|436:378,1,180,4|0,3:2|0:0,0:0:0:0:
499,310,69419,2,0,P|484:262|493:204,1,89.9999999999999,0|0,3:0|3:0,0:0:0:0:
512,138,69952,1,4,3:0:0:0:
464,60,70219,5,4,3:2:0:0:
226,184,71019,6,0,L|123:198,2,89.9999999999999,4|4|12,3:2|0:0|0:0,0:0:0:0:
288,119,71819,2,0,B|357:132|357:132|383:148|383:148|465:162,1,180,4|8,3:0|3:0,0:0:0:0:
504,240,72619,1,4,3:2:0:0:
441,304,72885,2,0,L|340:318,1,89.9999999999999,4|12,0:0|0:0,0:0:0:0:
277,264,73419,2,0,B|202:309|202:309|91:290,1,180,4|4,3:0|3:0,0:0:0:0:
23,272,74219,6,0,L|18:374,2,89.9999999999999,4|4|12,3:2|0:0|0:0,0:0:0:0:
71,196,75019,2,0,B|60:120|60:120|70:93|70:93|58:11,1,180,4|4,3:0|3:0,0:0:0:0:
148,29,75819,2,0,L|251:18,1,89.9999999999999,4|4,3:2|0:0,0:0:0:0:
306,77,76352,2,0,L|395:86,1,89.9999999999999,12|8,0:0|0:0,0:0:0:0:
467,304,77419,6,0,P|451:255|483:174,2,135,4|8|0,3:2|0:0|3:0,0:0:0:0:
387,345,78485,2,0,L|293:333,1,89.9999999999999,0|8,3:0|0:0,0:0:0:0:
213,366,79019,2,0,L|74:354,2,135,0|8|0,3:0|0:0|3:0,0:0:0:0:
287,314,80085,2,0,P|292:270|274:230,1,89.9999999999999,0|8,3:0|0:0,0:0:0:0:
213,163,80619,6,0,P|156:231|69:225,1,180,0|0,3:0|0:0,0:0:0:0:
121,151,81419,2,0,L|110:51,1,89.9999999999999,0|0,3:0|3:0,0:0:0:0:
184,9,81952,1,8,0:0:0:0:
257,61,82219,2,0,B|360:82|332:29|442:50,1,180,2|0,3:2|0:0,0:0:0:0:
501,107,83019,5,2,0:0:0:0:
256,221,83819,6,0,L|114:245,2,135,4|0|8,3:2|3:0|0:0,0:0:0:0:
334,263,84885,2,0,P|343:222|322:160,1,89.9999999999999,0|0,3:0|3:0,0:0:0:0:
308,88,85419,2,0,L|450:112,2,135,0|0|8,3:0|3:0|0:0,0:0:0:0:
136,36,86752,1,0,3:0:0:0:
184,112,87019,6,0,P|208:176|200:248,2,135,0|0|8,3:0|3:0|0:0,0:0:0:0:
120,176,88085,2,0,P|96:220|56:244,1,89.9999999999999,0|0,3:0|3:0,0:0:0:0:
32,156,88619,2,0,P|12:112|20:16,2,135,0|0|8,3:0|3:0|0:0,0:0:0:0:
188,64,89952,1,8,3:0:0:0:
272,96,90219,6,0,L|420:76,2,135,4|0|8,3:2|3:0|0:0,0:0:0:0:
232,176,91285,2,0,P|239:221|248:264,1,89.9999999999999,0|0,3:0|0:0,0:0:0:0:
176,320,91819,2,0,L|28:300,2,135,0|0|8,3:0|3:0|0:0,0:0:0:0:
352,360,93152,1,0,3:0:0:0:
428,312,93419,6,0,P|448:260|424:168,1,135,0|0,3:0|3:0,0:0:0:0:
344,84,94219,2,0,L|244:104,1,89.9999999999999,8|0,0:0|3:0,0:0:0:0:
192,164,94752,1,0,3:0:0:0:
108,132,95019,2,0,P|43:136|10:192,2,135,0|0|8,3:0|3:0|0:0,0:0:0:0:
308,316,96619,6,0,P|368:288|264:192,1,270,2|8,3:2|0:0,0:0:0:0:
16,280,98219,2,0,B|-16:188|52:200|16:100,1,180,0|0,3:0|0:0,0:0:0:0:
80,40,99019,1,8,0:0:0:0:
332,132,99819,6,0,L|476:112,2,135,4|0|8,3:2|3:0|0:0,0:0:0:0:
260,188,100885,1,0,3:0:0:0:
280,276,101152,1,0,3:0:0:0:
212,336,101419,2,0,P|152:360|80:332,2,135,0|0|8,3:0|3:0|0:0,0:0:0:0:
149,271,102485,2,0,P|138:226|141:178,1,89.9999999999999,0|0,3:0|3:0,0:0:0:0:
198,113,103019,6,0,L|348:130,2,135,0|0|8,3:0|3:0|0:0,0:0:0:0:
116,75,104085,1,0,3:0:0:0:
47,134,104352,1,0,3:0:0:0:
85,215,104619,2,0,P|95:273|61:342,2,135,0|0|8,3:0|3:0|0:0,0:0:0:0:
7,52,105952,1,8,3:0:0:0:
94,74,106219,6,0,L|245:64,1,135,4|0,3:2|3:0,0:0:0:0:
361,91,107019,2,0,P|384:136|382:183,2,89.9999999999999,8|0|0,0:0|3:0|3:0,0:0:0:0:
296,154,107819,2,0,L|276:308,1,135,0|0,3:0|3:0,0:0:0:0:
146,316,108619,2,0,P|116:282|108:239,2,89.9999999999999,8|0|0,0:0|3:0|3:0,0:0:0:0:
198,243,109419,6,0,B|337:196|316:284|476:231,1,270,0|8,3:0|0:0,0:0:0:0:
415,61,110752,1,0,3:0:0:0:
342,114,111019,2,0,P|275:117|208:22,1,180,0|0,3:0|0:0,0:0:0:0:
129,77,111819,2,0,P|49:97|18:198,1,180,8|8,0:0|3:0,0:0:0:0:
47,263,112619,5,2,3:2:0:0:
256,192,112752,12,2,114219,0:0:0:0:
345,161,129419,6,0,P|411:161|463:120,2,135,0|0|8,3:2|3:0|3:2,0:0:0:0:
259,132,130485,1,8,0:0:0:0:
169,143,130752,1,8,0:0:0:0:
102,204,131019,2,0,P|73:266|91:330,2,135,8|0|8,3:2|3:0|0:0,0:0:0:0:
158,274,132085,2,0,P|197:281|252:268,1,89.9999999999999,8|8,0:0|0:0,0:0:0:0:
332,296,132619,6,0,P|384:250|375:133,1,180,8|8,0:0|0:0,0:0:0:0:
313,88,133419,2,0,P|273:128|139:128,1,180,8|8,0:0|0:0,0:0:0:0:
76,181,134219,2,0,P|65:142|113:56,2,135,8|0|8,3:2|3:0|3:2,0:0:0:0:
119,259,135285,1,12,0:0:0:0:
207,273,135552,1,12,0:0:0:0:
286,230,135819,6,0,P|347:221|411:270,2,135,4|0|8,3:2|3:0|3:2,0:0:0:0:
207,186,136885,2,0,P|192:143|199:99,1,89.9999999999999,8|8,0:0|0:0,0:0:0:0:
271,45,137419,2,0,P|318:92|384:96,2,135,8|0|8,3:2|3:0|3:2,0:0:0:0:
189,9,138485,1,8,0:0:0:0:
108,49,138752,1,8,0:0:0:0:
89,137,139019,6,0,P|82:183|107:238,2,89.9999999999999,8|8|8,3:2|0:0|0:0,0:0:0:0:
171,172,139819,2,0,B|275:192|238:120|340:137,1,180,8|8,3:2|0:0,0:0:0:0:
420,177,140619,2,0,P|432:222|425:268,1,89.9999999999999,8|8,3:2|0:0,0:0:0:0:
361,327,141152,1,8,0:0:0:0:
276,295,141419,2,0,P|231:293|190:311,2,89.9999999999999,12|8|8,3:2|0:0|0:0,0:0:0:0:
332,224,142219,6,0,P|312:145|352:48,1,180,4|8,3:2|0:0,0:0:0:0:
273,1,143019,2,0,P|214:57|110:71,1,180,4|8,3:2|0:0,0:0:0:0:
109,163,143819,2,0,P|175:176|219:225,2,135,4|0|12,3:2|3:0|0:0,0:0:0:0:
223,343,145419,6,0,B|392:356|300:264|482:274,1,270,6|2,3:2|3:2,0:0:0:0:
348,34,147019,2,0,P|299:89|187:93,1,180,2|0,3:2|0:0,0:0:0:0:
121,49,147819,2,0,L|30:62,2,89.9999999999999,2|0|8,3:2|3:0|0:0,0:0:0:0:
203,11,148619,5,2,3:2:0:0:
135,272,149419,1,2,3:2:0:0:
396,340,150219,1,2,3:2:0:0:
464,79,151019,2,0,L|373:88,1,89.9999999999999,6|8,3:2|3:0,0:0:0:0:
288,61,151552,1,4,3:0:0:0:
227,127,151819,6,0,P|160:146|80:82,1,180,6|0,3:2|0:0,0:0:0:0:
14,19,152619,2,0,B|41:125|-13:89|16:211,1,180,2|8,3:2|0:0,0:0:0:0:
56,274,153419,1,2,3:2:0:0:
310,182,154219,2,0,P|321:144|316:87,2,89.9999999999999,2|0|8,3:2|3:0|0:0,0:0:0:0:
248,247,155019,6,0,P|299:216|464:319,1,270,2|2,3:2|3:2,0:0:0:0:
194,351,156619,2,0,L|87:343,1,89.9999999999999,10|0,0:0|3:0,0:0:0:0:
20,312,157152,1,0,0:0:0:0:
74,240,157419,2,0,P|91:181|52:67,1,180,10|0,0:0|3:0,0:0:0:0:
138,35,158219,6,0,L|231:25,2,89.9999999999999,4|12|12,3:2|0:0|0:0,0:0:0:0:
175,116,159019,2,0,B|253:127|253:127|271:139|271:139|367:149,1,180,8|8,3:0|3:0,0:0:0:0:
432,111,159819,1,12,3:2:0:0:
476,189,160085,2,0,L|490:298,1,89.9999999999999,12|12,0:0|0:0,0:0:0:0:
414,331,160619,2,0,B|341:282|341:282|244:310,1,180,8|4,3:0|3:0,0:0:0:0:
173,351,161419,6,0,L|73:360,2,89.9999999999999,12|12|12,3:2|0:0|0:0,0:0:0:0:
170,260,162219,2,0,B|162:183|162:183|170:157|170:157|160:70,1,180,8|8,3:0|3:0,0:0:0:0:
229,23,163019,1,8,0:0:0:0:
376,126,163552,1,0,3:0:0:0:
455,167,163819,2,0,P|422:201|299:175,1,180,8|4,0:0|3:2,0:0:0:0:
251,105,164619,5,4,3:2:0:0:
168,140,164885,2,0,L|62:150,1,89.9999999999999,10|10,0:0|0:0,0:0:0:0:
23,220,165419,2,0,P|56:300|157:306,1,180,10|8,3:2|0:0,0:0:0:0:
213,260,166219,1,10,3:2:0:0:
380,326,166752,1,8,0:0:0:0:
450,269,167019,2,0,L|440:168,2,89.9999999999999,10|10|10,3:2|0:0|0:0,0:0:0:0:
363,242,167819,6,0,L|263:236,1,89.9999999999999,10|10,3:2|0:0,0:0:0:0:
198,287,168352,1,10,0:0:0:0:
131,226,168619,2,0,B|153:145|153:145|117:98|131:40,1,180,10|10,3:2|0:0,0:0:0:0:
217,79,169419,6,0,L|320:86,1,89.9999999999999,0|0,0:0|0:0,0:0:0:0:
384,127,169994,2,0,P|428:125|467:103,1,89.9999999999999,0|0,0:0|0:0,0:0:0:0:
