osu file format v14

[General]
AudioFilename: audio.mp3
AudioLeadIn: 0
PreviewTime: 348
Countdown: 0
SampleSet: Soft
StackLeniency: 0.7
Mode: 0
LetterboxInBreaks: 0
WidescreenStoryboard: 0

[Editor]
Bookmarks: 83824
DistanceSpacing: 0.5
BeatDivisor: 4
GridSize: 4
TimelineZoom: 1.8

[Metadata]
Title:Noise
TitleUnicode:ノイズ
Artist:MIOYAMAZAKI
ArtistUnicode:ミオヤマザキ
Creator:toybot
Version:Collab Extra
Source:地獄少女 宵伽
Tags:jigoku shoujo yoi no togi opening delis aeril haruru irohas mugiwarasekai kalibe
BeatmapID:1425667
BeatmapSetID:664507

[Difficulty]
HPDrainRate:6
CircleSize:3.8
OverallDifficulty:8.5
ApproachRate:9.2
SliderMultiplier:1.8
SliderTickRate:2

[Events]
//Background and Video events
0,0,"noise bg.jpg",0,0
//Break Periods
2,116019,128049
//Storyboard Layer 0 (Background)
//Storyboard Layer 1 (Fail)
//Storyboard Layer 2 (Pass)
//Storyboard Layer 3 (Foreground)
//Storyboard Sound Samples

[TimingPoints]
619,266.666666666667,3,2,1,40,1,0
619,-166.666666666667,3,2,1,40,0,0
12619,-166.666666666667,3,2,1,50,0,0
13085,-100,3,2,1,5,0,0
13152,-100,3,2,1,60,0,0
13352,-100,3,2,1,5,0,0
13419,-100,3,2,1,80,0,0
13619,-100,3,2,1,5,0,0
13685,-100,3,2,1,80,0,0
25419,-83.3333333333333,3,2,1,80,0,0
25619,-83.3333333333333,3,2,1,5,0,0
25685,-83.3333333333333,3,2,1,80,0,0
26219,-125,3,2,1,60,0,0
38219,-200,3,2,1,60,0,0
38752,-200,3,2,1,5,0,0
39019,-117.647058823529,3,2,1,70,0,0
39219,-117.647058823529,3,2,1,5,0,0
39285,-117.647058823529,3,2,1,70,0,0
46952,-117.647058823529,3,2,1,5,0,0
47019,-117.647058823529,3,2,1,70,0,0
48619,-117.647058823529,3,2,1,65,0,0
49152,-153.846153846153,3,2,1,65,0,0
50219,-153.846153846153,3,2,1,70,0,0
51819,-153.846153846153,3,2,1,75,0,0
53419,-153.846153846153,3,2,1,40,0,0
53685,-153.846153846153,3,2,1,45,0,0
53952,-153.846153846153,3,2,1,50,0,0
54219,-200,3,2,1,60,0,0
54752,-200,3,2,1,20,0,0
55019,-100,3,2,1,80,0,1
61152,-166.666666666667,3,2,1,80,0,1
61419,-100,3,2,1,80,0,1
64619,-100,3,2,1,80,0,1
64819,-100,3,2,1,5,0,1
64885,-100,3,2,1,80,0,1
69619,-100,3,2,1,5,0,1
69685,-100,3,2,1,80,0,1
70219,-100,3,2,1,80,0,0
71019,-100,3,2,1,75,0,0
73352,-100,3,2,1,5,0,0
73419,-100,3,2,1,75,0,0
75752,-100,3,2,1,5,0,0
75819,-100,3,2,1,75,0,0
76619,-200,3,2,1,75,0,0
76652,-200,3,2,1,20,0,0
77152,-83.3333333333333,3,2,1,20,0,0
77219,-83.3333333333333,3,2,1,30,0,0
77285,-83.3333333333333,3,2,1,40,0,0
77319,-83.3333333333333,3,2,1,45,0,0
77352,-83.3333333333333,3,2,1,50,0,0
77419,-111.111111111111,3,2,1,70,0,0
83552,-111.111111111111,3,2,1,60,0,0
83819,-142.857142857143,3,2,1,60,0,0
96619,-166.666666666667,3,2,1,50,0,0
99819,-142.857142857143,3,2,1,60,0,0
112619,-200,3,2,1,60,0,0
113952,-200,3,2,1,30,0,0
114219,-200,3,2,1,40,0,0
115019,-200,3,2,1,50,0,0
115752,-200,3,2,1,5,0,0
115819,-200,3,2,1,60,0,0
129352,-200,3,2,1,5,0,0
129419,-100,3,2,1,80,0,1
135285,-83.3333333333333,3,2,1,80,0,1
135819,-100,3,2,1,80,0,1
144619,-100,3,2,1,80,0,0
145419,-111.111111111111,3,2,1,75,0,0
151219,-111.111111111111,3,2,1,5,0,0
151285,-111.111111111111,3,2,1,75,0,0
154419,-111.111111111111,3,2,1,5,0,0
154485,-111.111111111111,3,2,1,75,0,0
157619,-111.111111111111,3,2,1,5,0,0
157685,-111.111111111111,3,2,1,75,0,0
158219,-100,3,2,1,75,0,1
162152,-100,3,2,1,5,0,1
162219,-100,3,2,1,75,0,1
163752,-100,3,2,1,5,0,1
163819,-100,3,2,1,75,0,1
164552,-100,3,2,1,5,0,1
164619,-100,3,2,1,75,0,1
166419,-100,3,2,1,5,0,1
166485,-100,3,2,1,75,0,1
168819,-100,3,2,1,5,0,1
168885,-100,3,2,1,75,0,1
169419,304.568527918782,3,2,1,40,1,0
169723,271.493212669683,3,2,1,20,1,0
169994,275.229357798165,3,2,1,35,1,0

[Colours]
Combo1 : 185,0,92
Combo2 : 0,62,123
Combo3 : 102,171,255
Combo4 : 128,128,192

[HitObjects]
25,253,619,6,0,P|74:222|131:234,1,107.999996704102,4|0,1:3|0:0,0:0:0:0:
202,276,1019,1,0,0:0:0:0:
169,147,1285,1,0,0:0:0:0:
169,147,1419,2,0,B|223:134|223:134|274:147|274:147|332:132,1,161.999995056153,0|0,0:0|0:0,0:0:0:0:
281,6,1952,2,0,P|274:34|278:75,1,53.9999983520508,0|0,0:0|0:0,0:0:0:0:
471,68,2219,6,0,L|345:52,1,107.999996704102,2|0,0:0|0:0,0:0:0:0:
238,141,2619,1,0,0:0:0:0:
381,205,2885,1,0,0:0:0:0:
381,205,3019,1,2,0:0:0:0:
70,338,3552,1,0,0:0:0:0:
70,338,3819,6,0,B|118:316|118:316|185:327,1,107.999996704102,2|0,0:0|0:0,0:0:0:0:
239,381,4219,2,0,P|236:313|266:262,1,107.999996704102,0|0,0:0|0:0,0:0:0:0:
386,368,4619,2,0,P|320:347|379:313,1,161.999995056153,0|0,0:0|0:0,0:0:0:0:
429,326,5152,1,0,0:0:0:0:
412,230,5285,1,0,0:0:0:0:
395,134,5419,6,0,L|274:120,1,107.999996704102,2|0,0:0|0:0,0:0:0:0:
264,213,5819,2,0,L|143:199,1,107.999996704102,0|0,0:0|0:0,0:0:0:0:
151,107,6219,1,2,0:0:0:0:
171,302,6752,2,0,L|113:294,1,53.9999983520508,0|0,0:0|0:0,0:0:0:0:
239,363,7019,6,0,B|259:313|259:313|250:247,1,107.999996704102,2|0,0:0|0:0,0:0:0:0:
184,107,7419,2,0,B|164:157|164:157|173:223,1,107.999996704102,0|0,0:0|0:0,0:0:0:0:
260,170,7819,2,0,L|318:178,1,53.9999983520508,0|0,0:0|0:0,0:0:0:0:
449,112,8085,1,0,0:0:0:0:
449,112,8352,2,0,L|391:120,1,53.9999983520508,0|0,0:0|0:0,0:0:0:0:
402,211,8619,6,0,L|508:195,1,107.999996704102,2|0,0:0|0:0,0:0:0:0:
307,83,9019,2,0,L|200:67,1,107.999996704102,0|0,0:0|0:0,0:0:0:0:
108,52,9419,1,0,0:0:0:0:
108,52,9952,2,0,L|118:115,1,53.9999983520508,0|0,0:0|0:0,0:0:0:0:
93,191,10219,6,0,P|133:165|208:169,2,107.999996704102,2|0|0,0:0|0:0|0:0,0:0:0:0:
252,226,10885,1,0,0:0:0:0:
252,226,11019,2,0,L|264:100,2,107.999996704102,0|0|0,0:0|0:0|0:0,0:0:0:0:
413,353,11819,5,2,0:0:0:0:
413,353,11952,2,0,L|401:227,1,107.999996704102,0|0,0:0|0:0,0:0:0:0:
395,162,12352,1,0,0:0:0:0:
311,308,12619,2,0,P|250:235|136:246,1,215.999993408203,0|4,0:0|3:0,0:0:0:0:
137,244,13419,6,0,B|124:201|124:201|141:130,1,90,4|0,3:2|0:0,0:0:0:0:
133,68,13685,1,8,0:0:0:0:
215,201,13819,1,2,3:2:0:0:
310,123,13952,2,0,L|191:108,1,90,10|0,3:2|0:0,0:0:0:0:
47,255,14219,2,0,L|166:240,2,90,14|0|10,3:2|0:0|0:0,0:0:0:0:
158,341,14619,2,0,L|277:326,1,90,0|10,3:0|3:2,0:0:0:0:
414,255,14885,1,2,0:0:0:0:
341,314,15019,6,0,P|321:274|327:215,1,90,14|0,3:2|0:0,0:0:0:0:
441,344,15285,1,8,0:0:0:0:
493,188,15419,2,0,P|512:227|512:272,1,90,2|8,3:2|0:0,0:0:0:0:
394,168,15685,1,0,0:0:0:0:
254,288,15819,6,0,L|141:271,1,90,14|0,3:2|0:0,0:0:0:0:
54,161,16085,1,10,0:0:0:0:
212,138,16219,1,0,3:0:0:0:
138,184,16352,1,10,3:2:0:0:
229,52,16485,1,2,3:2:0:0:
6,93,16619,5,14,3:2:0:0:
6,93,16885,2,0,L|23:206,1,90,8|2,0:0|3:2,0:0:0:0:
104,360,17152,2,0,L|117:271,1,90,10|2,3:2|0:0,0:0:0:0:
198,88,17419,5,12,3:2:0:0:
231,207,17552,1,2,0:0:0:0:
317,55,17685,5,8,0:0:0:0:
198,88,17818,1,2,3:2:0:0:
350,174,17952,5,10,3:2:0:0:
317,55,18085,1,2,0:0:0:0:
231,207,18219,2,0,L|125:194,1,90,12|0,3:2|0:0,0:0:0:0:
11,351,18485,2,0,P|76:296|175:321,1,180,8|8,0:0|0:0,0:0:0:0:
163,311,18885,1,0,0:0:0:0:
64,131,19019,6,0,B|48:173|48:173|57:236,1,90,14|0,3:2|0:0,0:0:0:0:
245,367,19285,2,0,B|261:325|261:325|252:262,1,90,10|0,0:0|3:0,0:0:0:0:
201,110,19552,1,8,3:2:0:0:
106,358,19685,1,2,0:0:0:0:
54,217,19819,6,0,L|152:211,1,90,12|0,3:2|0:0,0:0:0:0:
254,280,20085,2,0,L|451:266,1,180,8|8,0:0|3:2,0:0:0:0:
360,129,20485,1,2,0:0:0:0:
165,297,20619,6,0,B|153:342|153:342|164:388,1,90,12|0,3:2|0:0,0:0:0:0:
236,190,20885,2,0,B|259:101|259:101|227:2,1,180,8|8,0:0|3:2,0:0:0:0:
61,111,21285,1,2,0:0:0:0:
260,291,21419,6,0,L|355:273,1,90,12|0,3:2|0:0,0:0:0:0:
487,184,21685,2,0,P|383:157|350:79,1,180,8|8,0:0|3:2,0:0:0:0:
486,17,22085,1,2,0:0:0:0:
288,202,22219,6,0,L|193:184,1,90,12|0,3:2|0:0,0:0:0:0:
5,109,22485,2,0,P|48:46|174:56,1,180,8|8,0:0|3:2,0:0:0:0:
230,277,22885,1,2,0:0:0:0:
437,102,23019,6,0,L|242:129,1,180,12|8,3:2|0:0,0:0:0:0:
84,196,23419,1,2,3:2:0:0:
84,196,23552,2,0,L|173:207,1,90,8|0,0:0|0:0,0:0:0:0:
311,335,23819,6,0,P|326:261|310:222,1,90,14|0,3:2|0:0,0:0:0:0:
468,211,24085,2,0,P|439:141|403:117,1,90,8|2,0:0|3:2,0:0:0:0:
258,126,24352,1,10,3:2:0:0:
258,126,24619,5,14,3:2:0:0:
382,31,24752,1,0,0:0:0:0:
171,66,24885,2,0,B|155:108|155:108|161:159,1,90,8|0,0:0|3:0,0:0:0:0:
330,350,25152,1,10,3:2:0:0:
258,126,25285,1,0,0:0:0:0:
103,321,25419,6,0,B|88:272|88:272|107:207,1,107.999996704102,12|0,3:2|0:0,0:0:0:0:
258,126,25685,1,8,0:0:0:0:
254,148,25819,1,8,3:2:0:0:
251,170,25952,1,8,3:2:0:0:
248,192,26086,1,8,0:0:0:0:
245,215,26219,6,0,B|197:209|197:209|150:225|150:225|103:218,1,144,6|0,3:2|0:0,0:0:0:0:
24,71,26619,2,0,P|101:82|137:149,1,144,2|0,3:2|3:0,0:0:0:0:
208,300,27019,2,0,L|375:280,2,144,2|0|0,0:3|3:0|3:0,0:0:0:0:
208,300,27685,1,0,0:0:0:0:
432,355,27819,6,0,P|459:285|429:204,1,144,2|0,3:2|0:0,0:0:0:0:
273,64,28219,2,0,P|246:134|276:215,1,144,2|0,3:2|3:0,0:0:0:0:
422,124,28619,2,0,L|338:134,1,72,2|0,0:3|0:0,0:0:0:0:
191,189,28885,2,0,L|275:199,1,72,0|0,3:0|0:0,0:0:0:0:
367,240,29152,1,0,3:0:0:0:
361,275,29285,1,0,0:0:0:0:
356,311,29419,6,0,L|338:162,1,144,2|0,3:2|0:0,0:0:0:0:
328,70,29819,1,2,3:2:0:0:
242,320,30086,1,0,3:0:0:0:
168,239,30219,2,0,B|119:226|119:226|76:235|76:235|18:222,2,144,2|0|0,0:3|3:0|3:0,0:0:0:0:
128,25,31019,6,0,P|75:76|84:163,1,144,2|0,3:2|0:0,0:0:0:0:
168,239,31419,2,0,B|231:205|231:205|327:221,1,144,2|0,3:2|3:0,0:0:0:0:
266,368,31819,2,0,L|253:296,1,72,2|0,0:3|0:0,0:0:0:0:
393,195,32085,2,0,L|380:266,1,72,0|0,3:0|0:0,0:0:0:0:
167,238,32352,1,0,3:0:0:0:
158,191,32485,1,0,0:0:0:0:
149,144,32619,5,2,3:2:0:0:
110,384,32885,1,0,0:0:0:0:
68,311,33019,2,0,B|116:302|116:302|159:317|159:317|209:309,1,144,2|0,3:2|3:0,0:0:0:0:
375,206,33419,2,0,L|462:172,1,72,2|0,0:3|0:0,0:0:0:0:
217,150,33685,2,0,L|274:195,1,72,0|0,3:0|0:0,0:0:0:0:
333,121,33952,2,0,L|343:49,1,72,0|0,3:0|0:0,0:0:0:0:
134,89,34219,6,0,B|112:140|112:140|144:256,1,144,2|0,3:2|0:0,0:0:0:0:
129,321,34619,2,0,P|190:267|274:281,1,144,2|0,3:2|3:0,0:0:0:0:
364,376,35019,2,0,L|192:356,1,144,2|0,0:3|3:0,0:0:0:0:
422,78,35552,1,0,3:0:0:0:
391,176,35685,1,0,0:0:0:0:
325,100,35819,6,0,P|265:84|189:136,1,144,2|0,3:2|0:0,0:0:0:0:
25,183,36219,2,0,P|85:167|161:219,1,144,2|0,3:2|3:0,0:0:0:0:
191,289,36619,1,2,0:3:0:0:
114,84,36885,1,0,3:0:0:0:
5,279,37152,2,0,L|95:261,1,72,0|0,3:0|0:0,0:0:0:0:
276,174,37419,6,0,B|251:231|251:231|282:338,1,144,4|0,3:2|0:0,0:0:0:0:
398,349,37819,2,0,P|341:304|250:324,1,144,0|0,3:0|3:0,0:0:0:0:
59,308,38219,2,0,P|104:254|223:248,1,180,2|0,3:2|0:0,0:0:0:0:
208,241,39019,6,0,B|184:184|184:184|208:92,1,153.000002918243,4|0,3:2|3:0,0:0:0:0:
356,169,39419,2,0,L|280:176,2,76.5000014591217,0|0|0,0:0|3:0|0:0,0:0:0:0:
435,246,39819,2,0,L|512:240,1,76.5000014591217,0|0,3:0|0:0,0:0:0:0:
346,261,40085,2,0,B|338:298|338:298|355:357,1,76.5000014591217,0|0,3:0|0:0,0:0:0:0:
452,157,40352,2,0,B|460:120|460:120|443:61,1,76.5000014591217,8|0,1:2|0:0,0:0:0:0:
142,97,40619,6,0,P|197:158|280:157,1,153.000002918243,0|0,3:0|3:0,0:0:0:0:
253,0,41019,2,0,P|238:38|237:89,1,76.5000014591217,0|0,0:0|3:0,0:0:0:0:
296,253,41285,1,0,0:0:0:0:
422,173,41419,2,0,L|335:183,1,76.5000014591217,0|0,3:0|0:0,0:0:0:0:
138,222,41685,2,0,L|226:232,1,76.5000014591217,0|0,3:0|0:0,0:0:0:0:
317,91,41952,1,8,1:2:0:0:
432,376,42219,6,0,P|381:336|271:350,1,153.000002918243,0|0,3:0|3:0,0:0:0:0:
223,384,42619,2,0,L|122:368,1,76.5000014591217,0|0,0:0|3:0,0:0:0:0:
64,358,42885,1,0,0:0:0:0:
166,201,43019,2,0,B|176:238|176:238|167:295,1,76.5000014591217,0|0,3:0|0:0,0:0:0:0:
14,190,43285,2,0,B|4:153|4:153|13:96,1,76.5000014591217,0|0,3:0|0:0,0:0:0:0:
178,69,43552,1,8,1:2:0:0:
86,242,43685,1,0,0:0:0:0:
279,187,43819,6,0,P|359:198|403:286,1,153.000002918243,0|0,3:0|3:0,0:0:0:0:
313,354,44219,2,0,L|306:261,1,76.5000014591217,0|0,0:0|3:0,0:0:0:0:
307,277,44485,1,0,0:0:0:0:
461,333,44619,1,0,3:0:0:0:
431,170,44752,1,0,0:0:0:0:
307,277,44885,2,0,L|122:259,1,153.000002918243,0|8,3:0|1:2,0:0:0:0:
66,222,45285,1,0,0:0:0:0:
220,158,45419,6,0,P|243:71|205:10,1,153.000002918243,4|0,3:2|3:0,0:0:0:0:
0,114,45819,2,0,L|105:101,1,76.5000014591217,0|0,0:0|3:0,0:0:0:0:
75,104,46085,1,0,0:0:0:0:
145,168,46219,2,0,L|250:155,1,76.5000014591217,0|0,3:0|0:0,0:0:0:0:
58,194,46485,2,0,P|45:233|55:277,1,76.5000014591217,0|0,3:0|0:0,0:0:0:0:
179,384,46752,2,0,P|192:345|182:301,1,76.5000014591217,8|0,1:2|0:0,0:0:0:0:
331,93,47019,6,0,B|305:149|305:149|331:261,1,153.000002918243,0|0,3:0|0:0,0:0:0:0:
456,384,47419,2,0,B|467:348|467:348|461:289,1,76.5000014591217,0|0,0:0|3:0,0:0:0:0:
424,208,47685,1,0,0:0:0:0:
367,336,47819,2,0,L|271:324,1,76.5000014591217,0|0,3:0|0:0,0:0:0:0:
132,220,48085,2,0,L|228:208,1,76.5000014591217,0|0,3:0|0:0,0:0:0:0:
51,377,48352,2,0,B|29:325|29:325|43:255,1,114.750002188683,8|0,1:2|0:0,0:0:0:0:
51,228,48619,5,4,3:2:0:0:
51,228,49019,1,0,3:0:0:0:
164,319,49152,2,0,L|286:304,2,116.999994644165,8|0|0,0:0|3:0|3:0,0:0:0:0:
182,183,49952,1,8,0:0:0:0:
353,375,50219,6,0,B|381:316|381:316|355:203,1,175.499991966248,0|0,3:0|3:0,0:0:0:0:
356,208,50752,2,0,L|479:221,1,116.999994644165,8|0,0:0|3:0,0:0:0:0:
392,76,51285,2,0,L|269:88,1,116.999994644165,0|8,3:0|0:0,0:0:0:0:
61,275,51819,6,0,P|118:218|219:224,1,175.499991966248,0|0,3:0|3:0,0:0:0:0:
267,294,52352,2,0,L|406:278,1,116.999994644165,8|0,0:0|3:0,0:0:0:0:
336,101,52885,1,8,0:0:0:0:
433,179,53019,1,8,0:0:0:0:
423,91,53152,1,8,0:0:0:0:
347,189,53285,1,8,0:0:0:0:
382,22,53419,5,2,0:0:0:0:
505,129,53685,1,2,0:0:0:0:
396,253,53952,1,2,0:0:0:0:
273,145,54219,2,0,B|207:128|207:128|166:145|166:145|93:128,1,180,2|0,0:0|0:0,0:0:0:0:
100,129,55019,6,0,P|45:209|93:307,1,180,6|0,3:2|0:0,0:0:0:0:
170,359,55419,2,0,B|240:303|240:303|356:318,1,180,2|0,3:2|3:0,0:0:0:0:
435,360,55819,1,10,0:0:0:0:
435,360,56085,1,0,3:0:0:0:
298,237,56219,1,8,0:0:0:0:
459,151,56352,2,0,P|467:197|451:253,1,90,2|0,3:2|0:0,0:0:0:0:
321,327,56619,6,0,P|256:269|156:279,1,180,2|0,3:2|0:0,0:0:0:0:
41,384,57019,2,0,L|230:359,1,180,2|0,3:2|3:0,0:0:0:0:
386,205,57419,2,0,L|291:191,1,90,10|0,0:0|0:0,0:0:0:0:
90,287,57685,2,0,P|145:280|181:251,1,90,2|8,3:2|0:0,0:0:0:0:
118,96,57952,2,0,P|63:103|27:132,1,90,2|0,3:2|0:0,0:0:0:0:
242,323,58219,6,0,P|236:201|91:216,1,270,2|0,3:2|0:0,0:0:0:0:
111,193,58752,1,2,3:2:0:0:
201,69,58885,1,0,3:0:0:0:
334,137,59019,2,0,L|519:111,1,180,10|0,0:0|0:0,0:0:0:0:
361,25,59419,1,8,0:0:0:0:
253,189,59552,2,0,B|240:232|240:232|249:276,1,90,2|0,3:2|0:0,0:0:0:0:
441,373,59819,5,2,3:2:0:0:
329,236,60085,1,0,0:0:0:0:
361,224,60219,1,2,3:2:0:0:
512,132,60485,1,0,3:0:0:0:
480,120,60619,1,14,0:0:0:0:
480,120,60885,5,0,3:0:0:0:
301,43,61019,1,8,0:0:0:0:
417,13,61152,2,0,L|391:87,1,53.9999983520508,0|0,3:0|0:0,0:0:0:0:
379,227,61419,6,0,B|279:244|305:183|193:197,1,180,6|0,3:2|0:0,0:0:0:0:
100,372,61819,2,0,P|189:367|236:271,1,180,2|0,3:2|3:0,0:0:0:0:
141,113,62219,2,0,B|110:197|110:197|147:305,1,180,10|0,0:0|3:0,0:0:0:0:
346,135,62619,1,8,0:0:0:0:
451,269,62752,2,0,L|332:246,1,90,2|0,3:2|0:0,0:0:0:0:
253,76,63019,6,0,P|314:30|425:64,1,180,2|0,3:2|0:0,0:0:0:0:
345,222,63419,2,0,B|335:178|335:178|354:96,1,90,2|0,3:2|0:0,0:0:0:0:
497,112,63685,1,0,3:0:0:0:
241,188,63819,2,0,B|231:232|231:232|250:314,1,90,10|0,0:0|0:0,0:0:0:0:
404,383,64085,1,2,3:2:0:0:
345,222,64219,1,8,0:0:0:0:
259,367,64352,2,0,L|153:352,1,90,2|0,3:2|0:0,0:0:0:0:
23,186,64619,6,0,B|71:166|71:166|154:183,1,135,2|0,3:2|0:0,0:0:0:0:
178,200,64885,2,0,B|164:155|164:155|180:87,1,90,0|0,0:0|3:0,0:0:0:0:
356,24,65152,2,0,B|365:65|365:65|351:110,1,90,0|0,0:0|3:0,0:0:0:0:
432,316,65419,2,0,P|362:248|262:267,1,180,10|0,0:0|3:0,0:0:0:0:
136,163,65819,1,8,0:0:0:0:
100,346,65952,2,0,L|219:326,1,90,2|0,3:2|0:0,0:0:0:0:
462,165,66219,6,0,L|264:130,1,180,2|0,3:2|0:0,0:0:0:0:
35,182,66619,2,0,P|93:253|212:232,1,180,2|0,3:2|3:0,0:0:0:0:
151,49,67019,1,10,0:0:0:0:
151,49,67285,5,0,3:0:0:0:
289,231,67419,1,8,0:0:0:0:
49,258,67552,1,8,3:2:0:0:
253,129,67685,1,8,0:0:0:0:
46,37,67819,6,0,L|74:200,1,135,4|0,3:2|0:0,0:0:0:0:
139,235,68085,1,0,3:0:0:0:
242,40,68219,1,8,0:0:0:0:
312,285,68352,1,0,3:0:0:0:
162,142,68485,1,8,0:0:0:0:
104,350,68619,6,0,L|261:327,1,135,4|0,3:2|0:0,0:0:0:0:
314,374,68885,2,0,L|420:358,1,90,0|8,3:0|0:0,0:0:0:0:
382,177,69152,2,0,L|488:161,1,90,0|8,3:0|0:0,0:0:0:0:
273,48,69419,6,0,B|298:102|298:102|278:198,1,135,0|0,3:0|0:0,0:0:0:0:
295,254,69685,2,0,L|165:234,1,90,0|8,3:0|0:0,0:0:0:0:
51,261,69952,1,4,3:0:0:0:
204,110,70085,1,4,3:0:0:0:
217,323,70219,1,4,3:2:0:0:
233,314,71019,6,0,L|337:294,1,90,4|0,3:2|0:0,0:0:0:0:
512,279,71285,2,0,L|408:259,1,90,4|0,0:0|3:0,0:0:0:0:
192,210,71552,2,0,L|296:190,1,90,12|0,0:0|0:0,0:0:0:0:
512,75,71819,5,4,3:0:0:0:
406,54,71952,1,0,3:0:0:0:
384,158,72085,1,8,3:0:0:0:
489,181,72219,1,0,3:0:0:0:
390,36,72352,2,0,L|293:25,1,90,8|8,3:0|3:0,0:0:0:0:
75,174,72619,6,0,B|59:216|59:216|74:292,1,90,4|0,3:2|0:0,0:0:0:0:
295,384,72885,2,0,B|311:342|311:342|296:266,1,90,4|0,0:0|3:0,0:0:0:0:
206,70,73152,2,0,B|190:112|190:112|205:188,1,90,12|0,0:0|0:0,0:0:0:0:
488,209,73419,5,4,3:0:0:0:
384,231,73553,1,0,3:0:0:0:
405,336,73686,1,8,3:0:0:0:
512,315,73819,1,0,3:0:0:0:
359,216,73952,2,0,L|262:227,1,90,4|4,3:0|3:0,0:0:0:0:
69,362,74219,6,0,P|55:305|75:236,1,90,4|0,3:2|0:0,0:0:0:0:
221,72,74485,2,0,P|235:129|215:198,1,90,4|0,0:0|3:0,0:0:0:0:
0,135,74752,2,0,L|96:126,1,90,12|0,0:0|0:0,0:0:0:0:
289,332,75019,5,4,3:0:0:0:
191,344,75152,1,0,3:0:0:0:
150,252,75285,1,8,3:0:0:0:
224,186,75419,1,0,3:0:0:0:
309,235,75552,1,4,3:0:0:0:
309,235,75819,6,0,L|412:224,1,90,4|0,3:2|0:0,0:0:0:0:
328,41,76085,2,0,B|312:83|312:83|328:165,1,90,4|0,0:0|3:0,0:0:0:0:
486,280,76352,2,0,B|502:238|502:238|486:156,1,90,12|0,0:0|0:0,0:0:0:0:
293,363,76619,6,0,B|241:348|241:348|193:361|193:361|127:342,1,157.5,8|0,0:0|0:0,0:0:0:0:
128,322,77152,6,0,B|179:336|179:336|227:323|227:323|285:338,1,161.999995056153,0|0,0:0|0:0,0:0:0:0:
382,384,77419,6,0,B|400:339|400:339|378:249,1,121.499996292114,4|0,3:2|0:0,0:0:0:0:
373,236,77685,2,0,L|482:253,1,80.9999975280763,0|8,0:0|0:0,0:0:0:0:
274,126,77952,2,0,L|354:113,1,80.9999975280763,0|2,0:0|0:0,0:0:0:0:
218,210,78219,2,0,P|176:145|197:60,2,161.999995056153,0|0|8,3:0|3:0|0:0,0:0:0:0:
274,126,78885,1,2,0:0:0:0:
96,176,79019,6,0,L|112:284,1,80.9999975280763,0|0,3:0|0:0,0:0:0:0:
303,283,79285,2,0,L|292:364,1,80.9999975280763,0|8,0:0|0:0,0:0:0:0:
128,377,79552,1,0,0:0:0:0:
218,210,79685,1,10,0:0:0:0:
369,335,79819,2,0,L|462:325,1,80.9999975280763,0|0,3:0|0:0,0:0:0:0:
489,187,80085,2,0,P|411:177|361:100,1,161.999995056153,0|8,3:0|0:0,0:0:0:0:
465,85,80485,1,2,0:0:0:0:
276,25,80619,6,0,L|258:221,1,161.999995056153,0|0,3:0|0:0,0:0:0:0:
110,139,81019,1,10,0:0:0:0:
110,139,81152,2,0,L|102:231,1,80.9999975280763,0|0,0:0|0:0,0:0:0:0:
238,357,81419,2,0,B|251:319|251:319|246:258,1,80.9999975280763,0|0,3:0|0:0,0:0:0:0:
24,176,81685,2,0,B|11:214|11:214|16:275,1,80.9999975280763,0|0,3:0|0:0,0:0:0:0:
193,101,81952,1,8,0:0:0:0:
193,101,82219,6,0,P|231:83|294:93,1,80.9999975280763,2|0,3:2|0:0,0:0:0:0:
401,202,82485,1,0,0:0:0:0:
366,24,82619,1,8,0:0:0:0:
253,175,82752,2,0,L|268:263,1,80.9999975280763,0|8,0:0|0:0,0:0:0:0:
284,350,83019,1,2,0:0:0:0:
284,350,83552,1,0,0:0:0:0:
316,344,83685,1,0,0:0:0:0:
348,338,83819,6,0,L|484:348,1,125.999996154785,4|0,3:2|0:0,0:0:0:0:
504,196,84219,2,0,L|432:204,1,62.9999980773926,0|0,3:0|0:0,0:0:0:0:
372,252,84485,1,0,3:0:0:0:
256,140,84619,2,0,P|288:128|372:176,1,125.999996154785,8|0,0:0|3:0,0:0:0:0:
452,288,85019,1,8,3:0:0:0:
362,314,85152,2,0,L|372:252,1,62.9999980773926,0|0,3:0|0:0,0:0:0:0:
256,140,85419,6,0,B|244:92|244:92|248:64|248:64|236:8,1,125.999996154785,0|0,3:0|0:0,0:0:0:0:
79,0,85819,2,0,P|104:54|163:65,1,125.999996154785,0|0,3:0|3:0,0:0:0:0:
363,6,86219,2,0,L|237:16,1,125.999996154785,8|0,0:0|3:0,0:0:0:0:
156,152,86619,1,4,3:0:0:0:
256,100,86752,2,0,L|336:92,1,62.9999980773926,0|0,3:0|0:0,0:0:0:0:
421,237,87019,6,0,P|358:247|298:208,1,125.999996154785,0|0,3:0|0:0,0:0:0:0:
373,33,87419,2,0,P|391:58|398:88,1,62.9999980773926,0|0,3:0|0:0,0:0:0:0:
373,168,87685,1,0,3:0:0:0:
259,100,87819,2,0,B|196:90|196:90|138:122,1,125.999996154785,8|0,0:0|3:0,0:0:0:0:
70,248,88219,1,8,3:0:0:0:
151,210,88352,1,0,3:0:0:0:
151,210,88485,1,0,0:0:0:0:
55,157,88619,6,0,P|27:103|35:41,1,125.999996154785,0|0,3:0|0:0,0:0:0:0:
210,142,89019,2,0,P|238:196|230:258,1,125.999996154785,0|0,3:0|3:0,0:0:0:0:
110,347,89419,1,8,0:0:0:0:
110,347,89685,2,0,L|116:255,1,62.9999980773926,0|0,3:0|3:0,0:0:0:0:
55,157,89952,1,8,3:0:0:0:
136,195,90085,1,4,3:0:0:0:
210,142,90219,6,0,P|243:117|339:127,1,125.999996154785,4|0,3:2|0:0,0:0:0:0:
443,270,90619,2,0,L|300:259,1,125.999996154785,0|0,3:0|3:0,0:0:0:0:
280,190,91019,1,8,0:0:0:0:
434,46,91285,2,0,P|444:79|447:111,1,62.9999980773926,0|8,3:0|3:0,0:0:0:0:
392,170,91552,1,0,0:0:0:0:
366,93,91685,1,0,0:0:0:0:
475,182,91819,6,0,P|475:248|432:300,1,125.999996154785,0|0,3:0|0:0,0:0:0:0:
318,212,92219,2,0,L|171:201,1,125.999996154785,0|0,3:0|3:0,0:0:0:0:
105,230,92619,1,8,0:0:0:0:
281,106,92885,2,0,L|269:35,1,62.9999980773926,0|8,3:0|3:0,0:0:0:0:
92,71,93152,1,0,3:0:0:0:
140,2,93285,1,0,0:0:0:0:
174,77,93419,6,0,L|193:207,1,125.999996154785,0|0,3:0|0:0,0:0:0:0:
138,351,93819,2,0,P|86:309|87:241,1,125.999996154785,0|0,3:0|3:0,0:0:0:0:
223,320,94219,2,0,P|276:297|360:293,1,125.999996154785,8|0,0:0|3:0,0:0:0:0:
428,349,94619,1,8,3:0:0:0:
428,349,94752,2,0,L|437:272,1,62.9999980773926,0|0,3:0|0:0,0:0:0:0:
475,148,95019,5,0,3:0:0:0:
261,202,95285,1,0,0:0:0:0:
242,115,95419,2,0,B|290:121|290:121|311:135|311:135|385:145,1,125.999996154785,0|0,3:0|3:0,0:0:0:0:
476,196,95819,2,0,L|403:210,1,62.9999980773926,8|0,0:0|0:0,0:0:0:0:
195,293,96085,1,0,3:0:0:0:
261,202,96219,1,8,3:0:0:0:
306,304,96352,2,0,L|386:317,1,62.9999980773926,4|4,3:0|3:0,0:0:0:0:
261,202,96619,6,0,L|134:183,1,107.999996704102,2|0,3:2|0:0,0:0:0:0:
70,203,97019,2,0,P|69:243|77:271,2,53.9999983520508,0|0|0,3:0|0:0|3:0,0:0:0:0:
151,104,97419,2,0,P|132:54|69:33,1,107.999996704102,8|8,0:0|3:0,0:0:0:0:
73,107,97819,1,4,3:0:0:0:
218,46,97952,2,0,L|291:49,1,53.9999983520508,8|0,3:0|0:0,0:0:0:0:
384,159,98219,6,0,L|264:170,1,107.999996704102,0|0,3:0|0:0,0:0:0:0:
348,80,98619,2,0,P|353:45|350:15,2,53.9999983520508,0|0|0,3:0|0:0|3:0,0:0:0:0:
275,168,99019,2,0,P|262:219|271:272,1,107.999996704102,8|0,0:0|3:0,0:0:0:0:
416,352,99419,1,8,3:0:0:0:
471,212,99552,1,0,3:0:0:0:
471,212,99819,6,0,L|345:221,1,125.999996154785,4|0,3:2|0:0,0:0:0:0:
152,253,100219,2,0,B|216:245|216:245|282:277,1,125.999996154785,0|0,3:0|3:0,0:0:0:0:
276,168,100619,2,0,L|266:92,1,62.9999980773926,8|0,0:0|0:0,0:0:0:0:
336,10,100885,2,0,P|346:50|342:81,1,62.9999980773926,0|8,3:0|3:0,0:0:0:0:
180,89,101152,2,0,P|170:59|170:27,1,62.9999980773926,0|0,3:0|0:0,0:0:0:0:
298,147,101419,6,0,L|424:164,1,125.999996154785,0|0,3:0|0:0,0:0:0:0:
496,118,101819,1,0,3:0:0:0:
354,264,102085,1,0,3:0:0:0:
354,264,102219,2,0,L|282:272,1,62.9999980773926,8|0,0:0|0:0,0:0:0:0:
133,237,102485,2,0,L|144:322,1,62.9999980773926,0|8,3:0|3:0,0:0:0:0:
275,191,102752,2,0,L|203:199,1,62.9999980773926,0|0,3:0|0:0,0:0:0:0:
54,296,103019,6,0,L|39:156,1,125.999996154785,0|0,3:0|0:0,0:0:0:0:
164,92,103419,2,0,P|103:102|51:70,1,125.999996154785,0|0,3:0|3:0,0:0:0:0:
190,11,103819,2,0,P|218:14|260:18,1,62.9999980773926,8|0,0:0|0:0,0:0:0:0:
364,114,104085,2,0,P|335:117|294:121,1,62.9999980773926,0|8,3:0|3:0,0:0:0:0:
143,212,104352,1,0,3:0:0:0:
216,164,104485,1,0,0:0:0:0:
222,251,104619,6,0,L|214:386,1,125.999996154785,0|0,3:0|0:0,0:0:0:0:
22,352,105019,2,0,P|71:313|133:315,1,125.999996154785,0|0,3:0|3:0,0:0:0:0:
214,376,105419,2,0,L|295:367,1,62.9999980773926,8|0,0:0|0:0,0:0:0:0:
339,207,105685,2,0,L|327:125,1,62.9999980773926,8|8,3:0|0:0,0:0:0:0:
405,309,105952,1,8,3:0:0:0:
323,287,106085,1,4,3:0:0:0:
240,265,106219,6,0,P|277:216|338:206,1,125.999996154785,4|0,3:2|0:0,0:0:0:0:
205,169,106619,2,0,L|72:157,1,125.999996154785,0|0,3:0|3:0,0:0:0:0:
152,86,107019,1,8,0:0:0:0:
82,320,107285,1,0,3:0:0:0:
247,293,107419,1,8,3:0:0:0:
159,249,107552,2,0,L|171:329,1,62.9999980773926,0|0,3:0|0:0,0:0:0:0:
315,244,107819,6,0,P|333:198|313:111,1,125.999996154785,0|0,3:0|0:0,0:0:0:0:
156,38,108219,2,0,P|138:84|158:171,1,125.999996154785,0|0,3:0|3:0,0:0:0:0:
249,179,108619,1,8,0:0:0:0:
249,179,108885,2,0,L|238:101,1,62.9999980773926,0|8,3:0|3:0,0:0:0:0:
380,7,109152,2,0,L|388:69,1,62.9999980773926,0|0,3:0|0:0,0:0:0:0:
245,23,109419,6,0,B|146:13|165:76|38:54,1,188.999994232178,0|0,3:0|3:0,0:0:0:0:
215,106,109952,2,0,L|283:115,1,62.9999980773926,0|0,0:0|3:0,0:0:0:0:
143,223,110219,2,0,L|7:206,1,125.999996154785,8|0,0:0|3:0,0:0:0:0:
104,138,110619,1,8,3:0:0:0:
193,290,110752,2,0,P|164:303|133:305,1,62.9999980773926,0|0,3:0|0:0,0:0:0:0:
104,138,111019,6,0,L|229:153,1,125.999996154785,0|0,3:0|3:0,0:0:0:0:
386,198,111419,2,0,L|391:135,1,62.9999980773926,0|0,3:0|3:0,0:0:0:0:
316,70,111685,1,0,3:0:0:0:
316,70,111819,2,0,L|311:133,1,62.9999980773926,8|0,0:0|0:0,0:0:0:0:
278,321,112085,1,8,3:0:0:0:
266,235,112219,1,0,3:0:0:0:
359,304,112352,2,0,P|395:314|437:313,1,62.9999980773926,8|4,3:0|3:0,0:0:0:0:
266,235,112619,6,0,P|220:231|176:350,1,180,2|0,3:2|0:0,0:0:0:0:
349,275,113419,2,0,B|368:170|316:205|332:86,1,180,0|0,0:0|0:0,0:0:0:0:
402,37,114219,5,0,0:0:0:0:
235,92,114485,1,0,0:0:0:0:
330,99,114752,1,0,0:0:0:0:
172,19,115019,2,0,P|70:21|64:123,1,225,2|0,0:0|0:0,0:0:0:0:
122,75,115819,5,4,1:2:0:0:
211,160,128619,5,8,0:0:0:0:
228,335,128752,1,0,3:0:0:0:
386,143,128885,1,8,0:0:0:0:
403,318,129019,1,0,3:0:0:0:
211,160,129152,1,8,0:0:0:0:
210,160,129419,6,0,P|125:182|50:137,1,180,4|8,3:2|0:0,0:0:0:0:
131,4,129819,2,0,L|137:93,1,90,0|8,3:0|0:0,0:0:0:0:
168,283,130085,1,0,3:0:0:0:
0,289,130219,2,0,P|37:265|82:265,1,90,8|0,3:2|0:0,0:0:0:0:
232,341,130485,2,0,P|194:364|149:364,1,90,8|0,0:0|3:0,0:0:0:0:
218,183,130752,1,8,0:0:0:0:
318,311,130885,1,0,3:0:0:0:
168,283,131019,6,0,L|183:83,1,180,8|8,3:2|0:0,0:0:0:0:
339,19,131419,2,0,P|362:66|350:133,1,90,0|8,3:0|0:0,0:0:0:0:
296,184,131685,1,0,3:0:0:0:
273,85,131819,1,8,0:0:0:0:
446,173,131952,1,0,0:0:0:0:
291,275,132085,2,0,L|187:261,1,90,8|0,0:0|3:0,0:0:0:0:
258,71,132352,5,8,0:0:0:0:
408,263,132485,1,0,3:0:0:0:
509,57,132619,2,0,B|420:43|436:116|321:95,1,180,8|8,0:0|0:0,0:0:0:0:
142,118,133019,1,0,3:0:0:0:
260,248,133152,2,0,L|246:158,1,90,8|0,0:0|3:0,0:0:0:0:
85,36,133419,2,0,L|108:226,1,180,8|8,0:0|0:0,0:0:0:0:
30,369,133819,1,0,3:0:0:0:
0,286,133952,2,0,P|44:284|85:302,1,90,8|0,0:0|3:0,0:0:0:0:
241,362,134219,6,0,L|333:347,1,90,8|0,3:2|0:0,0:0:0:0:
154,362,134485,1,8,0:0:0:0:
268,272,134619,2,0,L|360:257,1,90,0|8,3:0|0:0,0:0:0:0:
133,358,134885,1,0,3:0:0:0:
295,182,135019,2,0,L|453:157,1,135,8|0,3:2|0:0,0:0:0:0:
451,143,135285,6,0,P|476:200|470:251,1,107.999996704102,12|0,0:0|3:0,0:0:0:0:
199,148,135552,2,0,P|228:103|276:78,1,107.999996704102,12|0,0:0|3:0,0:0:0:0:
362,355,135819,6,0,P|274:360|209:301,1,180,4|8,3:2|0:0,0:0:0:0:
56,219,136219,2,0,L|146:226,1,90,0|8,3:0|0:0,0:0:0:0:
309,276,136485,1,0,3:0:0:0:
289,115,136619,2,0,B|199:100|199:100|117:135,1,180,8|8,3:2|0:0,0:0:0:0:
91,307,137019,1,0,3:0:0:0:
230,194,137152,1,8,0:0:0:0:
56,219,137285,1,0,3:0:0:0:
220,289,137419,6,0,B|309:303|309:303|391:268,1,180,8|8,3:2|0:0,0:0:0:0:
333,108,137819,2,0,L|325:198,1,90,0|8,3:0|0:0,0:0:0:0:
394,358,138085,1,0,3:0:0:0:
478,248,138219,2,0,P|458:208|421:185,1,90,8|0,3:2|0:0,0:0:0:0:
359,27,138485,2,0,P|334:63|332:108,1,90,8|0,0:0|3:0,0:0:0:0:
227,241,138752,2,0,P|271:243|310:223,1,90,8|0,0:0|3:0,0:0:0:0:
418,92,139019,6,0,B|321:108|343:49|227:66,2,180,8|8|8,3:2|0:0|0:0,0:0:0:0:
463,264,139685,1,0,3:0:0:0:
497,176,139819,2,0,P|449:179|400:188,1,90,8|0,3:2|0:0,0:0:0:0:
243,285,140085,2,0,P|287:287|332:295,1,90,8|0,0:0|0:0,0:0:0:0:
414,350,140352,1,8,0:0:0:0:
298,200,140485,1,0,3:0:0:0:
158,323,140619,6,0,P|107:335|11:249,1,180,8|8,3:2|0:0,0:0:0:0:
88,59,141019,2,0,L|106:238,1,180,0|0,3:0|3:0,0:0:0:0:
0,104,141419,1,12,3:2:0:0:
0,104,141685,5,8,0:0:0:0:
188,143,141819,1,0,3:0:0:0:
13,261,141952,1,8,0:0:0:0:
88,59,142085,1,0,3:0:0:0:
193,247,142219,6,0,P|200:292|206:335,1,90,4|0,3:2|0:0,0:0:0:0:
109,308,142485,1,8,0:0:0:0:
291,279,142619,1,8,0:0:0:0:
177,161,142752,1,8,0:0:0:0:
206,336,142885,1,8,0:0:0:0:
287,98,143019,6,0,P|294:53|300:10,1,90,4|0,3:2|0:0,0:0:0:0:
203,37,143285,1,8,0:0:0:0:
385,66,143419,1,8,0:0:0:0:
271,184,143552,1,8,0:0:0:0:
300,9,143685,1,8,0:0:0:0:
370,252,143819,6,0,P|421:249|471:207,1,90,4|0,3:2|0:0,0:0:0:0:
291,336,144085,1,8,0:0:0:0:
200,276,144219,2,0,P|151:271|78:378,1,180,0|0,3:0|3:0,0:0:0:0:
271,184,144619,5,12,0:0:0:0:
271,184,145419,6,0,B|263:117|263:117|272:91|272:91|259:4,1,161.999995056153,6|0,3:2|0:0,0:0:0:0:
349,135,145819,2,0,L|436:148,1,80.9999975280763,8|0,0:0|0:0,0:0:0:0:
187,77,146085,1,8,0:0:0:0:
346,39,146219,2,0,L|514:8,2,161.999995056153,2|0|8,3:2|3:0|0:0,0:0:0:0:
142,159,147019,6,0,P|95:96|112:19,1,161.999995056153,2|0,3:2|0:0,0:0:0:0:
233,153,147419,2,0,P|228:192|203:224,1,80.9999975280763,8|0,0:0|0:0,0:0:0:0:
187,77,147685,1,8,0:0:0:0:
317,162,147819,2,0,B|403:153|383:209|486:196,2,161.999995056153,2|0|8,3:2|3:0|0:0,0:0:0:0:
150,286,148619,6,0,P|110:299|69:302,1,80.9999975280763,2|0,3:2|0:0,0:0:0:0:
93,216,148885,1,0,0:0:0:0:
218,338,149019,2,0,P|261:354|361:274,1,161.999995056153,8|8,0:0|0:0,0:0:0:0:
282,110,149419,2,0,L|272:272,2,161.999995056153,2|0|8,3:2|3:0|0:0,0:0:0:0:
237,36,150085,1,0,0:0:0:0:
367,121,150219,6,0,P|408:120|462:89,2,80.9999975280763,2|0|0,3:2|0:0|0:0,0:0:0:0:
237,36,150619,2,0,P|180:28|108:104,1,161.999995056153,8|8,0:0|0:0,0:0:0:0:
146,247,151019,1,6,3:2:0:0:
146,247,151285,5,8,3:0:0:0:
193,114,151419,1,8,3:0:0:0:
374,252,151553,1,4,3:0:0:0:
258,332,151686,1,4,3:0:0:0:
334,117,151819,6,0,B|419:102|404:164|507:146,1,161.999995056153,6|0,3:2|0:0,0:0:0:0:
359,201,152219,2,0,P|311:219|292:326,1,161.999995056153,8|8,0:0|0:0,0:0:0:0:
442,290,152619,2,0,L|362:284,1,80.9999975280763,2|0,3:2|0:0,0:0:0:0:
146,198,152885,2,0,L|226:191,1,80.9999975280763,0|0,3:0|0:0,0:0:0:0:
334,117,153152,2,0,L|253:110,1,80.9999975280763,8|0,0:0|0:0,0:0:0:0:
125,56,153419,6,0,B|190:51|190:51|213:31|213:31|299:23,1,161.999995056153,2|0,3:2|0:0,0:0:0:0:
438,14,153819,2,0,L|432:108,1,80.9999975280763,8|0,0:0|0:0,0:0:0:0:
358,44,154085,1,8,0:0:0:0:
512,101,154219,2,0,L|504:189,1,80.9999975280763,2|0,3:2|0:0,0:0:0:0:
388,367,154485,2,0,L|380:286,1,80.9999975280763,0|0,3:0|0:0,0:0:0:0:
405,210,154752,2,0,P|439:229|458:265,1,80.9999975280763,8|0,0:0|0:0,0:0:0:0:
305,341,155019,6,0,P|229:362|166:316,1,161.999995056153,2|0,3:2|0:0,0:0:0:0:
283,131,155419,2,0,L|293:213,1,80.9999975280763,8|0,0:0|0:0,0:0:0:0:
246,283,155685,1,8,0:0:0:0:
105,218,155819,2,0,B|90:162|90:162|110:90,1,121.499996292114,2|0,3:2|0:0,0:0:0:0:
106,78,156085,2,0,P|146:78|182:96,1,80.9999975280763,0|0,3:0|0:0,0:0:0:0:
246,283,156352,2,0,P|209:300|169:301,1,80.9999975280763,8|0,0:0|0:0,0:0:0:0:
23,153,156619,6,0,B|110:138|93:199|211:177,1,161.999995056153,10|0,0:0|3:0,0:0:0:0:
350,28,157019,2,0,P|271:31|227:96,1,161.999995056153,8|0,0:0|3:0,0:0:0:0:
318,252,157419,2,0,L|325:131,1,121.499996292114,10|0,0:0|0:0,0:0:0:0:
314,106,157685,1,8,0:0:0:0:
232,265,157819,1,8,0:0:0:0:
404,197,157952,1,0,3:0:0:0:
404,197,158219,6,0,P|425:157|429:113,1,90,4|0,3:2|0:0,0:0:0:0:
246,63,158485,2,0,P|224:102|221:147,1,90,12|0,0:0|3:0,0:0:0:0:
325,130,158752,1,12,0:0:0:0:
325,130,159019,5,8,3:0:0:0:
164,16,159152,1,0,3:0:0:0:
139,212,159285,1,4,3:0:0:0:
246,63,159419,1,0,3:0:0:0:
94,120,159552,2,0,P|161:115|220:146,1,135,8|0,3:0|0:0,0:0:0:0:
247,142,159819,6,0,L|245:231,1,90,12|0,3:2|0:0,0:0:0:0:
57,345,160085,2,0,L|55:255,1,90,12|0,0:0|3:0,0:0:0:0:
240,319,160352,1,12,0:0:0:0:
240,319,160619,5,8,3:0:0:0:
339,181,160752,1,0,3:0:0:0:
163,268,160885,1,4,3:0:0:0:
330,366,161019,1,0,3:0:0:0:
245,231,161152,2,0,L|251:73,1,135,4|0,3:0|0:0,0:0:0:0:
241,71,161419,6,0,P|278:94|323:98,1,90,12|0,3:2|0:0,0:0:0:0:
465,2,161685,2,0,P|425:22|399:59,1,90,12|0,0:0|3:0,0:0:0:0:
330,192,161952,1,12,0:0:0:0:
330,192,162219,5,8,3:0:0:0:
488,225,162352,1,0,3:0:0:0:
416,176,162485,1,4,3:0:0:0:
504,311,162619,1,0,3:0:0:0:
496,139,162752,2,0,P|496:93|500:42,1,90,8|8,3:0|3:0,0:0:0:0:
316,3,163019,6,0,P|314:54|313:92,1,90,8|0,0:0|0:0,0:0:0:0:
218,244,163285,1,0,3:0:0:0:
356,174,163419,2,0,B|256:196|280:135|164:163,1,180,8|0,0:0|0:0,0:0:0:0:
39,243,163819,6,0,L|32:309,3,45,8|0|0|0,0:0|0:0|3:0|3:0,0:0:0:0:
60,317,164085,2,0,L|170:298,1,90,0|0,3:0|3:0,0:0:0:0:
182,69,164352,2,0,L|28:93,1,135,4|0,3:2|0:0,0:0:0:0:
23,83,164619,6,0,P|25:167|105:192,1,180,4|10,3:2|0:0,0:0:0:0:
272,94,165019,1,0,3:2:0:0:
182,68,165152,2,0,P|182:113|199:155,1,90,10|0,0:0|0:0,0:0:0:0:
362,119,165419,6,0,P|361:74|344:32,2,90,10|0|8,3:2|0:0|0:0,0:0:0:0:
292,267,165819,1,0,3:0:0:0:
452,214,165952,2,0,L|363:208,1,90,8|0,0:0|0:0,0:0:0:0:
135,168,166219,6,0,P|203:173|272:84,1,180,10|8,3:2|0:0,0:0:0:0:
372,16,166619,1,0,3:0:0:0:
177,82,166752,2,0,L|87:75,1,90,8|0,0:0|0:0,0:0:0:0:
297,257,167019,6,0,L|386:250,1,90,10|0,3:2|0:0,0:0:0:0:
271,93,167285,2,0,P|251:137|232:173,1,90,10|0,0:0|3:0,0:0:0:0:
431,152,167552,2,0,P|404:116|380:78,1,90,10|0,0:0|0:0,0:0:0:0:
227,279,167819,6,0,L|394:263,1,135,10|0,3:2|0:0,0:0:0:0:
385,248,168085,2,0,P|401:291|400:335,1,90,10|0,0:0|3:0,0:0:0:0:
152,204,168352,2,0,P|151:159|166:117,1,90,10|0,0:0|0:0,0:0:0:0:
309,79,168619,5,10,3:2:0:0:
309,79,168885,1,8,0:0:0:0:
64,139,169019,1,8,0:0:0:0:
242,21,169152,1,10,0:0:0:0:
86,57,169285,1,8,0:0:0:0:
304,164,169419,5,0,0:0:0:0:
158,9,169723,1,0,0:0:0:0:
97,213,169994,1,0,0:0:0:0:
184,127,170269,1,0,0:0:0:0:
