osu file format v14

[General]
AudioFilename: audio.mp3
AudioLeadIn: 0
PreviewTime: 223185
Countdown: 0
SampleSet: Soft
StackLeniency: 0.7
Mode: 0
LetterboxInBreaks: 0
WidescreenStoryboard: 0

[Editor]
Bookmarks: 25370,54460,66096,77732,89369,101005,130095,141731,153367,165004,176640,199914,223913,235549,247185,258822
DistanceSpacing: 1.4
BeatDivisor: 4
GridSize: 32
TimelineZoom: 1.850002

[Metadata]
Title:Hoshikuzu no Shoumei
TitleUnicode:星屑の証明
Artist:minimum electric design
ArtistUnicode:minimum electric design
Creator:Gibune
Version:Collab Lunatic
Source:東方紅魔郷 ~ the Embodiment of Scarlet Devil.
Tags:pandahero touhou 東方project ZUN U.N.オーエンは彼女なのか? U.N Owen Was Her? フランドール・スカーレット Flandre Scarlet Mineko KANIHARA TRAIL III 3 Japanese Jp Rock J-rock video game
BeatmapID:2880786
BeatmapSetID:1395697

[Difficulty]
HPDrainRate:6
CircleSize:4
OverallDifficulty:7.5
ApproachRate:8.5
SliderMultiplier:1.6
SliderTickRate:1

[Events]
//Background and Video events
0,0,"minimum electric design.png",0,0
//Break Periods
//Storyboard Layer 0 (Background)
//Storyboard Layer 1 (Fail)
//Storyboard Layer 2 (Pass)
//Storyboard Layer 3 (Foreground)
//Storyboard Layer 4 (Overlay)
//Storyboard Sound Samples

[TimingPoints]
643,363.636363636364,4,2,1,40,1,0
1370,-133.333333333333,4,2,1,40,0,0
7915,-111.111111111111,4,2,1,55,0,0
13733,-83.3333333333333,4,2,1,75,0,0
25370,363.636363636364,5,2,2,50,1,0
31188,-133.333333333333,5,2,2,50,0,0
38097,-100,5,2,2,50,0,0
39915,-111.111111111111,5,2,2,50,0,0
54097,-249.999999999999,5,2,2,50,0,0
54460,363.636363636364,4,2,1,60,1,0
54460,-100,4,2,1,60,0,0
66096,-83.3333333333333,4,2,1,75,0,0
87914,-111.111111111111,4,2,1,75,0,0
88278,-83.3333333333333,4,2,1,75,0,0
94823,-125,4,2,1,75,0,0
95187,-83.3333333333333,4,2,1,75,0,0
101005,363.636363636364,5,2,2,50,1,0
115550,-111.111111111111,5,2,2,50,0,0
129732,-250,5,2,1,50,0,0
130095,363.636363636364,4,2,1,60,1,0
141731,-83.3333333333333,4,2,1,75,0,0
170458,-125,4,2,1,75,0,0
170822,-83.3333333333333,4,2,1,75,0,0
188276,333.333333333334,4,2,1,40,1,0
188276,-166.666666666667,4,2,2,40,0,0
188776,357.142857142857,4,2,1,40,1,0
188776,-166.666666666667,4,2,1,40,0,0
189133,378.548895899054,4,2,1,40,1,0
189133,-166.666666666667,4,2,1,40,0,0
189700,368.098159509202,4,2,1,40,1,0
189700,-166.666666666667,4,2,1,40,0,0
190804,364.188163884674,4,2,1,40,1,0
191168,363.086232980333,4,2,1,40,1,0
191168,-166.666666666667,4,2,1,40,0,0
192075,368.098159509203,4,2,1,40,1,0
192627,-166.666666666667,4,2,1,40,0,0
194283,377.358490566038,4,2,1,40,1,0
194283,-166.666666666667,4,2,1,40,0,0
194660,352.941176470588,4,2,1,40,1,0
195012,362.537764350453,4,2,1,40,1,0
195012,-166.666666666667,4,2,1,40,0,0
196099,377.358490566038,4,2,1,40,1,0
197042,-166.666666666667,4,2,1,40,0,0
197608,337.078651685392,4,2,1,40,1,0
197608,-166.666666666667,4,2,1,40,0,0
198113,373.831775700932,4,2,1,40,1,0
198486,338.983050847455,4,2,1,40,1,0
198486,-166.666666666667,4,2,1,40,0,0
198994,422.535211267603,4,2,1,40,1,0
198994,-166.666666666667,4,2,1,40,0,0
199205,374.999999999998,4,2,1,40,1,0
199205,-166.666666666667,4,2,1,40,0,0
199580,334.261838440109,4,2,1,40,1,0
199580,-166.666666666667,4,2,1,40,0,0
199914,348.837209302326,4,2,1,40,1,0
199914,-166.666666666667,4,2,1,40,0,0
200786,365.853658536585,4,2,1,40,1,0
200786,-166.666666666667,4,2,1,40,0,0
201883,326.086956521739,4,2,1,40,1,0
202372,468.75,4,2,1,40,1,0
202840,346.820809248552,4,2,1,40,1,0
202840,-166.666666666667,4,2,1,40,0,0
203707,397.350993377481,4,2,1,40,1,0
203707,-166.666666666667,4,2,1,40,0,0
204303,392.156862745096,4,2,1,40,1,0
204303,-166.666666666667,4,2,1,40,0,0
204793,410.958904109586,4,2,1,40,1,0
205203,397.35099337748,4,2,1,40,1,0
205501,461.538461538461,4,2,1,40,1,0
205731,370.37037037037,4,2,1,40,1,0
205731,-166.666666666667,4,2,1,40,0,0
206656,368.098159509202,4,2,1,40,1,0
207208,359.281437125748,4,2,1,40,1,0
207208,-166.666666666667,4,2,1,40,0,0
208285,368.098159509203,4,2,1,40,1,0
208653,361.44578313253,4,2,1,40,1,0
208653,-166.666666666667,4,2,1,40,0,0
211549,363.636363636364,4,2,1,60,1,0
211549,-100,4,2,1,60,0,0
223165,363.636363636364,4,2,1,40,1,0
223165,-133.333333333333,4,2,1,35,0,0
223913,363.636363636364,4,2,1,35,1,0
223913,-133.333333333333,4,2,1,35,0,0
229731,-111.111111111111,4,2,1,50,0,0
235549,-83.3333333333333,4,2,1,75,0,0

[Colours]
Combo1 : 17,254,176
Combo2 : 173,255,95
Combo3 : 255,88,100
Combo4 : 255,94,55

[HitObjects]
250,37,1370,6,0,P|252:77|254:105,3,60.0000022888184
324,160,2097,2,0,P|317:210|315:298,1,120.000004577637,2|0,0:0|0:0,0:0:0:0:
352,361,2643,1,2,0:0:0:0:
223,308,3006,1,0,0:0:0:0:
95,361,3370,6,0,P|83:321|76:232,1,120.000004577637,2|0,0:0|0:0,0:0:0:0:
138,105,4097,2,0,P|150:145|157:234,1,120.000004577637,2|0,0:0|0:0,0:0:0:0:
81,217,4643,1,0,0:0:0:0:
81,217,5006,6,0,L|151:232,1,60.0000022888184,2|0,0:0|0:0,0:0:0:0:
260,178,5552,2,0,P|267:222|276:309,1,120.000004577637,2|0,0:0|0:0,0:0:0:0:
366,369,6279,2,0,P|372:327|377:245,1,120.000004577637,2|0,0:0|0:0,0:0:0:0:
451,224,6824,2,0,P|456:193|463:160,2,60.0000022888184
451,224,7552,1,0,0:0:0:0:
225,60,7915,6,0,B|166:52|76:40|76:39,1,143.999995605469,2|0,1:2|0:0,0:0:0:0:
0,115,8461,2,0,B|83:127|142:135,1,143.999995605469,2|0,0:0|0:0,0:0:0:0:
221,243,9006,1,0,1:0:0:0:
130,222,9188,1,2,0:0:0:0:
228,155,9370,1,0,1:0:0:0:
228,155,9733,5,0,1:0:0:0:
312,189,9915,2,0,B|356:193|466:208,1,143.999995605469,2|0,0:0|0:0,0:0:0:0:
410,280,10461,2,0,P|402:315|397:353,1,71.9999978027344,0|0,1:0|0:0,0:0:0:0:
271,298,10824,5,2,1:2:0:0:
271,298,11188,1,0,1:0:0:0:
337,247,11370,2,0,P|329:172|316:103,1,143.999995605469,2|0,0:0|0:0,0:0:0:0:
358,41,11915,2,0,P|396:33|436:26,1,71.9999978027344,0|2,1:0|0:0,0:0:0:0:
255,5,12279,5,2,1:3:0:0:
186,43,12461,1,0,0:0:0:0:
284,125,12643,5,2,1:3:0:0:
410,194,12824,1,8,0:3:0:0:
410,194,12915,1,8,0:3:0:0:
410,194,13006,1,8,0:3:0:0:
296,346,13188,5,0,1:0:0:0:
287,322,13279,1,0,1:0:0:0:
278,298,13370,1,0,1:0:0:0:
269,274,13461,1,0,1:0:0:0:
260,250,13552,1,8,1:3:0:0:
260,250,13733,6,0,B|181:243|205:288|124:288,1,143.999995605469,4|0,1:0|0:0,0:0:0:0:
110,301,14097,2,0,P|94:252|93:200,1,95.9999970703126,8|0,0:0|0:0,0:0:0:0:
199,111,14461,1,0,1:0:0:0:
273,150,14643,1,0,0:0:0:0:
173,20,14824,2,0,P|167:68|160:119,1,95.9999970703126,8|0,0:0|0:0,0:0:0:0:
322,44,15188,6,0,P|402:33|472:19,1,143.999995605469,0|0,1:0|0:0,0:0:0:0:
464,20,15552,1,8,0:0:0:0:
393,206,15733,1,0,1:0:0:0:
393,206,15824,1,8,0:0:0:0:
393,206,15915,1,0,1:0:0:0:
464,114,16097,1,2,0:3:0:0:
297,155,16279,2,0,P|237:166|187:175,1,95.9999970703126,8|0,0:0|0:0,0:0:0:0:
58,52,16643,5,4,1:2:0:0:
152,72,16824,1,2,0:0:0:0:
116,255,17006,1,8,0:0:0:0:
22,235,17188,6,0,B|76:245|76:245|108:239|108:239|169:251,1,143.999995605469,0|0,3:0|0:0,0:0:0:0:
163,250,17552,1,0,0:0:0:0:
241,310,17733,1,8,0:0:0:0:
378,212,17915,2,0,P|392:145|366:10,1,191.999994140625,0|0,3:0|0:0,0:0:0:0:
175,104,18461,5,8,0:0:0:0:
278,157,18643,1,2,0:3:0:0:
273,42,18824,1,0,1:0:0:0:
193,281,19006,5,8,0:0:0:0:
273,42,19188,1,12,0:0:0:0:
273,42,19552,6,0,P|353:54|428:56,1,143.999995605469,4|0,1:0|0:0,0:0:0:0:
415,56,19915,2,0,P|406:113|403:159,1,95.9999970703126,8|0,0:0|0:0,0:0:0:0:
478,241,20279,1,0,1:0:0:0:
478,241,20461,1,0,0:0:0:0:
275,298,20643,2,0,P|329:287|377:275,1,95.9999970703126,8|0,0:0|0:0,0:0:0:0:
293,188,21006,6,0,P|233:176|175:229,1,143.999995605469,0|0,1:0|0:0,0:0:0:0:
175,227,21370,1,8,0:0:0:0:
237,94,21552,1,0,3:0:0:0:
237,94,21643,1,8,0:0:0:0:
237,94,21733,2,0,P|226:40|217:-6,1,95.9999970703126,0|2,1:0|0:3,0:0:0:0:
67,118,22097,2,0,P|57:165|48:212,1,95.9999970703126,8|0,0:0|0:0,0:0:0:0:
191,160,22461,5,4,1:2:0:0:
292,207,22643,1,2,0:0:0:0:
470,61,22824,5,8,0:0:0:0:
388,105,23006,2,0,B|288:88|301:144|186:139,1,191.999994140625,0|0,3:0|0:0,0:0:0:0:
92,285,23552,1,8,0:0:0:0:
181,239,23733,1,0,1:0:0:0:
181,239,23824,1,8,0:0:0:0:
181,239,23915,1,0,1:0:0:0:
94,173,24097,1,0,0:0:0:0:
201,340,24279,5,12,0:0:0:0:
289,298,24461,1,2,0:0:0:0:
296,211,24643,5,0,1:0:0:0:
296,211,24733,1,8,0:0:0:0:
179,128,24915,1,8,0:0:0:0:
179,128,25006,1,0,1:3:0:0:
354,1,25188,1,8,0:0:0:0:
359,19,25279,1,8,0:0:0:0:
363,34,25370,5,0,1:0:0:0:
414,94,25551,1,0,0:0:0:0:
356,150,25733,1,0,3:0:0:0:
411,221,25915,1,0,3:0:0:0:
411,221,26006,1,0,0:0:0:0:
411,221,26097,1,8,0:0:0:0:
349,272,26279,1,0,3:0:0:0:
404,329,26460,5,2,0:1:0:0:
423,333,26733,5,2,0:1:0:0:
442,338,27006,5,2,0:1:0:0:
322,307,27188,5,0,0:0:0:0:
266,356,27370,1,0,0:0:0:0:
195,333,27551,1,0,3:0:0:0:
185,259,27733,1,0,3:0:0:0:
185,259,27824,1,0,0:0:0:0:
185,259,27915,1,8,0:0:0:0:
242,203,28097,1,0,3:0:0:0:
256,280,28279,5,2,0:1:0:0:
23,225,28551,5,2,0:1:0:0:
180,62,28824,5,2,0:1:0:0:
121,154,29006,5,0,0:0:0:0:
42,137,29188,1,0,0:0:0:0:
30,59,29370,1,0,3:0:0:0:
132,140,29551,5,0,0:0:0:0:
53,123,29733,1,8,0:0:0:0:
41,45,29915,1,0,3:0:0:0:
112,8,30097,5,2,0:1:0:0:
118,27,30370,5,2,0:1:0:0:
124,45,30642,5,2,0:1:0:0:
139,129,30824,5,0,0:0:0:0:
210,93,31006,1,0,0:0:0:0:
281,131,31188,2,0,L|322:122,1,30.0000011444092,0|0,3:0|0:0,0:0:0:0:
293,116,31370,2,0,L|332:107,1,30.0000011444092,0|0,3:0|0:0,0:0:0:0:
397,61,31551,2,0,L|356:52,1,30.0000011444092,0|0,3:0|0:0,0:0:0:0:
385,46,31733,2,0,L|346:37,1,30.0000011444092,0|0,3:0|0:0,0:0:0:0:
285,10,31915,5,2,0:1:0:0:
226,279,32188,5,2,0:1:0:0:
481,206,32460,5,2,0:1:0:0:
387,184,32642,5,0,3:0:0:0:
360,259,32824,1,0,0:0:0:0:
411,320,33006,1,0,3:0:0:0:
369,188,33188,5,0,0:0:0:0:
342,263,33370,1,8,0:0:0:0:
393,324,33552,1,0,3:0:0:0:
483,294,33733,5,2,0:1:0:0:
477,274,34006,5,2,0:1:0:0:
471,254,34279,5,2,0:1:0:0:
447,182,34460,5,0,0:0:0:0:
395,126,34642,1,0,0:0:0:0:
318,123,34824,1,0,3:0:0:0:
267,180,35006,1,0,0:0:0:0:
200,216,35188,1,0,3:0:0:0:
132,181,35370,1,8,0:0:0:0:
144,106,35551,2,0,L|167:97,4,20.0000007629395,2|0|0|0|0,3:1|0:0|0:0|0:0|0:0,0:0:0:0:
239,71,35915,1,0,3:0:0:0:
179,19,36097,1,2,0:1:0:0:
78,35,36279,5,0,3:0:0:0:
37,103,36460,1,0,0:0:0:0:
73,174,36642,1,0,3:0:0:0:
151,158,36824,1,0,0:0:0:0:
217,202,37006,1,8,0:0:0:0:
200,280,37188,1,0,3:0:0:0:
138,234,37370,5,2,0:1:0:0:
263,360,37642,1,2,0:1:0:0:
263,360,37733,1,0,3:0:0:0:
312,298,37915,1,2,0:1:0:0:
385,308,38097,6,0,L|473:340,1,80,0|0,3:0|0:0,0:0:0:0:
475,329,38370,1,0,0:0:0:0:
489,322,38460,1,0,3:0:0:0:
398,193,38642,2,0,L|291:223,1,80,8|0,0:0|3:0,0:0:0:0:
245,240,39006,1,0,3:0:0:0:
255,125,39188,5,2,0:1:0:0:
276,361,39460,5,2,0:1:0:0:
47,256,39733,5,2,0:1:0:0:
134,218,39915,5,2,3:2:0:0:
134,218,40097,2,0,P|125:264|119:308,1,71.9999978027344,0|0,0:0|3:0,0:0:0:0:
31,112,40460,2,0,P|39:173|47:258,1,143.999995605469,2|0,3:2|0:0,0:0:0:0:
117,113,41006,2,0,P|109:76|100:23,2,71.9999978027344,2|0|8,3:2|0:0|0:0,0:0:0:0:
181,158,41551,1,0,3:0:0:0:
254,128,41733,6,0,P|316:103|404:76,1,143.999995605469,2|0,0:0|0:0,0:0:0:0:
496,138,42279,2,0,P|434:163|346:190,1,143.999995605469,2|0,3:2|0:0,0:0:0:0:
273,283,42824,2,0,P|313:275|361:271,2,71.9999978027344,8|0|0,0:0|3:0|0:0,0:0:0:0:
189,349,43370,1,0,0:0:0:0:
189,349,43551,6,0,P|145:245|114:192,1,143.999995605469,2|0,3:2|0:0,0:0:0:0:
129,217,44097,1,2,0:0:0:0:
32,246,44279,2,0,P|42:280|57:312,1,71.9999978027344,8|0,0:0|0:0,0:0:0:0:
68,164,44642,2,0,P|46:104|30:79,1,71.9999978027344,0|0,3:0|0:0,0:0:0:0:
42,97,45006,1,10,0:0:0:0:
166,151,45188,1,0,3:0:0:0:
211,42,45370,5,2,3:2:0:0:
211,42,45733,1,0,3:0:0:0:
193,42,45824,1,0,3:0:0:0:
175,44,45915,1,0,3:2:0:0:
157,46,46006,1,0,3:0:0:0:
139,47,46097,1,0,3:0:0:0:
42,97,46279,1,0,3:0:0:0:
59,100,46370,1,0,3:0:0:0:
76,104,46460,2,0,L|59:189,2,71.9999978027344,10|0|0,0:0|0:0|0:0,0:0:0:0:
158,199,47006,1,0,3:0:0:0:
158,199,47188,6,0,P|92:218|60:295,1,143.999995605469,2|0,3:2|0:0,0:0:0:0:
59,281,47733,1,2,0:0:0:0:
130,347,47915,2,0,P|175:321|203:282,1,71.9999978027344,8|0,0:0|0:0,0:0:0:0:
254,236,48279,2,0,P|285:273|323:286,2,71.9999978027344,2|0|0,0:0|0:0|0:0,0:0:0:0:
227,164,48824,1,0,3:0:0:0:
279,100,49006,6,0,P|332:99|434:114,1,143.999995605469,2|0,0:0|0:0,0:0:0:0:
479,56,49551,2,0,P|428:37|385:17,1,71.9999978027344,2|0,0:0|0:0,0:0:0:0:
411,29,49915,1,0,3:0:0:0:
493,153,50097,2,0,L|501:186,5,23.9999992675781,0|0|0|0|0|0,3:0|0:0|0:0|0:0|0:0|0:0,0:0:0:0:
458,134,50460,2,0,P|465:168|474:219,1,71.9999978027344,0|0,3:0|0:0,0:0:0:0:
432,284,50824,6,0,P|343:296|314:184,1,215.999993408203,2|0,3:2|0:0,0:0:0:0:
215,262,51551,2,0,P|221:324|218:366,1,71.9999978027344,8|0,0:0|0:0,0:0:0:0:
230,170,51915,2,0,P|224:108|227:66,1,71.9999978027344,2|0,3:2|0:0,0:0:0:0:
224,98,52188,1,0,0:0:0:0:
224,98,52279,1,8,0:0:0:0:
268,34,52460,1,0,3:0:0:0:
139,33,52642,5,2,0:0:0:0:
73,76,52824,1,0,0:0:0:0:
73,76,52915,1,0,0:0:0:0:
73,76,53006,1,0,3:0:0:0:
107,145,53188,1,10,0:0:0:0:
156,207,53370,1,0,3:0:0:0:
101,261,53551,1,0,3:0:0:0:
30,232,53733,1,10,0:0:0:0:
30,232,53915,1,8,0:0:0:0:
160,333,54097,6,0,L|211:318,1,48
258,249,54460,5,4,1:0:0:0:
375,369,54641,2,0,B|380:330|380:330|362:282,1,80,0|0,1:0|0:0,0:0:0:0:
310,171,55005,1,0,1:0:0:0:
373,120,55187,6,0,L|510:142,1,120,8|0,0:0|0:0,0:0:0:0:
491,139,55550,1,0,1:0:0:0:
437,31,55732,5,0,1:0:0:0:
437,31,55823,1,8,0:0:0:0:
437,31,55914,2,0,L|334:42,1,80,0|0,1:0|0:0,0:0:0:0:
264,46,56278,1,0,0:0:0:0:
215,126,56460,1,0,1:0:0:0:
143,182,56641,6,0,P|100:190|49:195,1,80,8|0,0:0|1:0,0:0:0:0:
4,140,57005,1,0,0:0:0:0:
87,273,57187,1,8,0:0:0:0:
82,300,57278,1,8,0:0:0:0:
76,327,57369,1,0,1:0:0:0:
182,277,57550,6,0,B|223:269|223:269|275:286,1,80,0|0,1:0|0:0,0:0:0:0:
211,123,57914,1,0,1:0:0:0:
152,72,58096,6,0,B|114:85|114:85|32:68,1,120,8|0,0:0|0:0,0:0:0:0:
35,68,58460,1,0,1:0:0:0:
226,14,58641,5,0,1:0:0:0:
226,14,58732,1,8,0:0:0:0:
226,14,58823,2,0,L|234:108,1,80,0|0,1:0|1:0,0:0:0:0:
301,153,59187,1,0,0:0:0:0:
374,13,59369,1,0,1:0:0:0:
452,15,59550,2,0,L|472:110,1,80,8|0,0:0|0:0,0:0:0:0:
441,275,59914,1,0,1:0:0:0:
425,202,60096,5,8,0:0:0:0:
425,202,60187,1,8,0:0:0:0:
425,202,60278,2,0,L|509:185,1,80,0|0,1:0|1:0,0:0:0:0:
370,318,60641,2,0,L|238:308,1,120
241,317,61005,2,0,L|230:219,1,80,8|0,0:0|1:0,0:0:0:0:
173,175,61369,1,0,1:0:0:0:
333,108,61550,5,0,1:0:0:0:
324,81,61641,1,8,0:0:0:0:
314,54,61732,2,0,L|231:72,1,80,0|0,1:0|1:0,0:0:0:0:
72,9,62096,2,0,L|155:27,1,80,0|0,0:0|1:0,0:0:0:0:
124,198,62460,2,0,L|149:117,1,80,8|0,0:0|1:0,0:0:0:0:
55,121,62823,1,0,1:0:0:0:
200,253,63005,5,8,0:0:0:0:
200,253,63096,1,8,0:0:0:0:
200,253,63187,1,0,1:0:0:0:
289,267,63369,2,0,L|385:258,1,80,0|0,1:0|0:0,0:0:0:0:
268,352,63732,1,0,1:0:0:0:
271,184,63914,6,0,L|279:79,1,80,8|0,0:0|1:0,0:0:0:0:
376,144,64278,1,0,1:0:0:0:
476,193,64460,5,0,1:0:0:0:
476,193,64550,1,8,0:0:0:0:
476,193,64641,1,0,1:0:0:0:
494,107,64823,1,0,1:0:0:0:
404,258,65005,5,8,0:0:0:0:
370,167,65187,1,0,1:0:0:0:
370,167,65278,1,8,0:0:0:0:
370,167,65369,1,0,1:0:0:0:
187,342,65550,5,0,1:0:0:0:
221,331,65641,1,0,1:0:0:0:
255,321,65732,1,0,1:0:0:0:
289,311,65823,1,8,0:3:0:0:
323,301,65914,1,8,0:3:0:0:
323,301,66096,6,0,P|305:244|265:152,1,143.999995605469,4|0,1:0|0:0,0:0:0:0:
253,169,66460,2,0,P|263:117|280:53,1,95.9999970703126,8|0,0:0|0:0,0:0:0:0:
172,219,66823,2,0,P|152:169|131:107,1,95.9999970703126,0|0,1:2|0:0,0:0:0:0:
145,314,67187,2,0,P|101:283|50:242,1,95.9999970703126,8|0,0:0|0:0,0:0:0:0:
229,354,67550,6,0,P|302:347|393:347,1,143.999995605469,0|0,1:2|0:0,0:0:0:0:
373,347,67914,1,8,0:0:0:0:
485,363,68096,1,0,3:0:0:0:
485,363,68187,1,8,0:0:0:0:
485,363,68278,2,0,P|460:312|448:255,1,95.9999970703126,0|2,1:0|0:3,0:0:0:0:
394,132,68641,2,0,P|367:210|336:267,1,143.999995605469,8|0,0:0|0:0,0:0:0:0:
320,257,69005,5,4,1:2:0:0:
236,209,69187,1,0,0:0:0:0:
247,113,69369,1,8,0:0:0:0:
338,86,69550,2,0,P|388:97|509:116,1,143.999995605469,0|0,3:0|0:0,0:0:0:0:
479,112,69914,1,2,0:3:0:0:
310,0,70096,2,0,P|265:10|183:23,1,95.9999970703126,8|0,0:0|0:0,0:0:0:0:
96,43,70460,5,0,1:0:0:0:
164,109,70641,1,0,3:0:0:0:
256,135,70823,5,8,0:0:0:0:
68,148,71005,1,2,3:0:0:0:
145,226,71187,5,0,1:0:0:0:
164,131,71369,1,8,0:0:0:0:
58,236,71550,2,0,P|71:283|86:340,1,95.9999970703126,12|0,0:1|0:0,0:0:0:0:
213,372,71914,6,0,P|222:300|240:231,1,143.999995605469,4|0,1:0|0:0,0:0:0:0:
240,231,72278,2,0,P|286:210|342:204,1,95.9999970703126,8|0,0:0|0:0,0:0:0:0:
476,275,72641,1,0,1:2:0:0:
396,328,72823,1,0,0:0:0:0:
415,194,73005,2,0,P|435:118|463:48,1,143.999995605469,8|0,0:0|0:0,0:0:0:0:
465,38,73369,6,0,P|492:97|510:126,1,95.9999970703126,0|0,1:2|0:0,0:0:0:0:
332,151,73732,1,8,0:0:0:0:
337,55,73914,1,0,3:0:0:0:
337,55,74005,1,8,0:0:0:0:
337,55,74096,1,0,1:0:0:0:
412,114,74278,1,2,0:3:0:0:
250,178,74460,2,0,B|173:160|185:211|86:186,1,143.999995605469,8|0,0:0|0:0,0:0:0:0:
90,185,74823,5,4,1:2:0:0:
8,285,75005,1,0,0:0:0:0:
76,351,75187,1,8,0:0:0:0:
173,324,75369,1,0,3:0:0:0:
173,324,75460,1,0,3:0:0:0:
173,324,75550,2,0,P|120:287|93:269,1,95.9999970703126,0|2,1:0|0:3,0:0:0:0:
279,269,75914,2,0,P|256:334|245:388,1,95.9999970703126,8|0,0:0|0:0,0:0:0:0:
249,360,76187,1,8,0:0:0:0:
249,360,76278,5,0,1:0:0:0:
377,257,76460,1,2,0:3:0:0:
377,257,76641,2,0,P|351:179|336:138,1,95.9999970703126,12|0,0:0|0:0,0:0:0:0:
291,51,77005,1,0,1:0:0:0:
291,51,77096,1,8,0:0:0:0:
467,116,77278,1,0,1:0:0:0:
467,116,77369,1,8,0:0:0:0:
404,43,77550,1,8,0:3:0:0:
325,150,77732,6,0,P|269:163|161:172,1,143.999995605469,4|0,1:0|0:0,0:0:0:0:
174,187,78096,2,0,P|162:128|140:81,1,95.9999970703126,8|0,0:0|0:0,0:0:0:0:
9,95,78460,1,0,1:0:0:0:
79,25,78641,1,0,0:0:0:0:
79,172,78823,2,0,P|75:226|65:282,1,95.9999970703126,8|0,0:0|0:0,0:0:0:0:
13,356,79187,6,0,P|98:345|179:337,1,143.999995605469,0|0,1:0|0:0,0:0:0:0:
155,339,79550,1,8,0:0:0:0:
263,214,79732,1,0,3:0:0:0:
263,214,79823,1,8,0:0:0:0:
263,214,79914,2,0,P|212:228|148:245,1,95.9999970703126,0|2,1:0|0:3,0:0:0:0:
349,362,80278,2,0,P|365:259|372:190,1,143.999995605469,8|0,0:0|0:0,0:0:0:0:
369,219,80641,5,4,1:2:0:0:
510,138,80823,1,0,0:0:0:0:
338,94,81005,5,8,0:0:0:0:
415,156,81187,2,0,P|421:96|417:-10,1,143.999995605469,0|0,3:0|0:0,0:0:0:0:
419,12,81550,1,2,0:3:0:0:
290,29,81732,2,0,P|234:45|189:58,1,95.9999970703126,8|0,0:0|0:0,0:0:0:0:
45,22,82096,5,0,1:0:0:0:
123,71,82278,1,0,3:0:0:0:
32,192,82460,5,8,0:0:0:0:
126,151,82641,1,2,3:0:0:0:
42,114,82823,5,0,1:0:0:0:
153,242,83005,1,8,0:0:0:0:
231,258,83187,2,0,P|242:207|240:141,1,95.9999970703126,12|0,0:1|0:1,0:1:0:0:
328,95,83550,6,0,P|329:171|346:246,1,143.999995605469,4|0,1:2|0:0,0:0:0:0:
343,237,83914,2,0,P|392:226|450:231,1,95.9999970703126,8|0,0:0|0:0,0:0:0:0:
336,361,84278,2,0,P|287:350|229:355,1,95.9999970703126,0|0,1:1|0:3,0:0:0:0:
183,259,84641,2,0,P|131:268|88:285,1,95.9999970703126,8|0,0:0|0:0,0:0:0:0:
5,146,85005,6,0,P|74:154|172:182,1,143.999995605469,0|0,1:0|0:0,0:0:0:0:
146,172,85369,1,8,0:0:0:0:
258,92,85550,1,0,3:0:0:0:
258,92,85641,1,8,0:0:0:0:
258,92,85732,2,0,P|251:33|231:-11,1,95.9999970703126,0|2,1:0|0:3,0:0:0:0:
360,36,86096,2,0,P|352:99|356:217,1,143.999995605469,8|0,0:0|0:0,0:0:0:0:
352,179,86460,5,4,1:2:0:0:
443,314,86641,1,2,0:3:0:0:
341,346,86823,5,8,0:0:0:0:
449,204,87005,2,0,P|459:138|468:35,1,143.999995605469,0|0,3:0|0:0,0:0:0:0:
466,61,87369,1,2,3:0:0:0:
369,97,87550,1,0,1:0:0:0:
369,97,87641,1,8,0:0:0:0:
282,42,87823,1,8,0:0:0:0:
282,42,87914,6,0,P|215:57|167:64,1,107.999996704102,0|0,1:0|0:0,0:0:0:0:
55,126,88278,2,0,P|108:132|204:157,1,143.999995605469,12|0,0:0|0:0,0:0:0:0:
220,143,88641,5,0,1:0:0:0:
204,183,88732,1,0,1:0:0:0:
206,226,88823,1,0,1:0:0:0:
227,263,88914,1,0,1:0:0:0:
259,291,89005,1,8,0:3:0:0:
299,305,89096,1,8,0:3:0:0:
342,309,89187,1,4,0:3:0:0:
384,299,89278,1,4,0:3:0:0:
417,270,89369,6,0,B|430:210|430:210|367:114,2,143.999995605469,4|2|0,1:0|0:3|0:0,0:0:0:0:
294,183,90096,2,0,L|319:51,1,95.9999970703126,0|0,1:0|0:0,0:0:0:0:
320,55,90369,1,0,0:0:0:0:
325,21,90460,1,8,0:0:0:0:
424,58,90641,1,0,0:0:0:0:
392,151,90823,5,0,1:0:0:0:
392,151,91096,1,0,3:0:0:0:
392,151,91187,1,8,0:0:0:0:
237,91,91369,1,0,3:0:0:0:
237,91,91460,1,8,0:0:0:0:
237,91,91550,1,0,1:0:0:0:
162,151,91732,1,0,0:0:0:0:
246,196,91914,1,12,0:0:0:0:
176,9,92096,1,2,0:3:0:0:
176,9,92278,6,0,B|132:57|132:57|35:82,2,143.999995605469,4|2|0,1:0|0:3|0:0,0:0:0:0:
211,127,93005,2,0,L|86:161,1,95.9999970703126,0|0,1:0|0:0,0:0:0:0:
85,160,93278,1,0,0:0:0:0:
53,170,93369,1,8,0:0:0:0:
17,261,93550,1,0,0:0:0:0:
109,311,93732,5,0,1:0:0:0:
109,311,94005,1,0,3:0:0:0:
109,311,94096,1,8,0:0:0:0:
243,236,94278,1,0,0:0:0:0:
354,351,94460,1,0,1:0:0:0:
359,225,94641,5,8,0:0:0:0:
239,352,94823,2,0,L|256:243,1,96,12|0,0:0|0:0,0:0:0:0:
282,218,95187,6,0,B|287:146|287:146|203:80,1,143.999995605469,4|2,1:0|0:3,0:0:0:0:
230,101,95550,2,0,L|105:132,1,95.9999970703126,8|0,0:0|0:0,0:0:0:0:
50,81,95914,1,0,1:0:0:0:
132,28,96096,1,0,3:0:0:0:
132,28,96187,1,0,0:0:0:0:
132,28,96278,1,8,0:0:0:0:
43,65,96460,1,2,0:3:0:0:
66,157,96641,6,0,L|84:270,1,95.9999970703126,0|0,1:0|0:0,0:0:0:0:
75,285,96914,1,0,0:0:0:0:
62,316,97005,1,8,0:0:0:0:
161,366,97187,1,0,3:0:0:0:
172,334,97278,1,8,0:0:0:0:
181,301,97369,1,0,1:0:0:0:
256,242,97550,1,0,0:3:0:0:
346,275,97732,1,8,0:0:0:0:
272,336,97914,1,2,0:3:0:0:
189,180,98096,6,0,P|221:106|306:19,1,191.999994140625,4|8,1:2|0:0,0:0:0:0:
296,25,98641,1,0,0:0:0:0:
461,42,98823,2,0,P|431:108|409:150,1,95.9999970703126,0|0,1:0|0:0,0:0:0:0:
349,248,99187,2,0,P|336:201|325:154,1,95.9999970703126,8|0,0:0|0:0,0:0:0:0:
325,154,99460,1,8,0:0:0:0:
325,154,99550,1,0,1:0:0:0:
460,249,99732,1,0,0:0:0:0:
267,361,99914,1,12,0:0:0:0:
383,350,100096,5,4,0:3:0:0:
383,350,100187,1,8,0:3:0:0:
383,350,100278,1,4,0:3:0:0:
231,252,100460,1,0,1:0:0:0:
188,248,100550,1,0,1:0:0:0:
148,265,100641,1,0,1:0:0:0:
121,299,100732,1,0,1:0:0:0:
88,327,100823,1,8,0:3:0:0:
47,342,100914,1,8,0:3:0:0:
13,328,101005,5,0,3:0:0:0:
41,253,101186,1,0,0:0:0:0:
7,180,101368,1,0,3:0:0:0:
72,129,101550,1,0,3:0:0:0:
72,129,101641,1,0,0:0:0:0:
72,129,101732,1,8,0:0:0:0:
29,57,101914,1,0,3:0:0:0:
94,11,102095,5,2,0:1:0:0:
216,55,102368,5,2,0:1:0:0:
336,107,102641,5,2,0:1:0:0:
249,154,102823,5,0,3:0:0:0:
262,233,103005,1,0,0:0:0:0:
341,242,103186,1,0,3:0:0:0:
226,164,103368,5,0,3:0:0:0:
243,244,103550,1,0,3:0:0:0:
328,269,103732,1,0,3:0:0:0:
405,186,103914,5,2,0:1:0:0:
171,206,104186,5,2,0:1:0:0:
300,348,104459,5,2,0:1:0:0:
328,269,104641,5,0,3:0:0:0:
322,243,104823,1,0,0:0:0:0:
315,217,105005,1,0,3:0:0:0:
263,165,105186,5,0,0:0:0:0:
269,141,105368,1,8,0:0:0:0:
275,117,105550,1,0,3:0:0:0:
357,74,105732,5,2,0:1:0:0:
421,38,106005,5,2,0:1:0:0:
489,9,106277,5,2,0:1:0:0:
456,106,106459,5,0,3:0:0:0:
506,165,106641,1,0,0:0:0:0:
452,223,106823,1,0,3:0:0:0:
436,227,106914,1,0,3:0:0:0:
420,231,107005,1,0,3:0:0:0:
404,235,107095,1,0,3:0:0:0:
388,238,107186,1,0,3:0:0:0:
327,301,107368,1,0,3:0:0:0:
406,348,107550,5,2,0:1:0:0:
296,229,107823,5,2,0:1:0:0:
181,337,108095,5,2,0:1:0:0:
126,280,108277,5,0,3:0:0:0:
163,213,108459,1,0,0:0:0:0:
120,148,108641,1,0,3:0:0:0:
168,88,108823,1,0,0:0:0:0:
168,88,108914,1,0,0:0:0:0:
168,88,109005,1,8,0:0:0:0:
104,33,109186,1,0,0:0:0:0:
48,97,109368,5,2,0:1:0:0:
120,148,109641,5,2,0:1:0:0:
192,199,109914,5,2,0:1:0:0:
264,163,110095,5,0,3:0:0:0:
343,181,110277,1,0,0:0:0:0:
354,260,110459,1,0,3:0:0:0:
266,144,110641,5,0,0:0:0:0:
356,172,110823,1,0,3:0:0:0:
373,264,111005,1,0,3:0:0:0:
245,276,111186,2,0,L|232:317,5,26.6666666666667,2|0|0|0|0|0,3:1|0:0|0:0|0:0|0:0|0:0,0:0:0:0:
263,384,111550,1,0,3:0:0:0:
317,325,111732,1,2,0:1:0:0:
406,339,111914,5,0,3:0:0:0:
473,294,112095,1,0,0:0:0:0:
443,219,112277,1,0,3:0:0:0:
416,351,112459,5,0,0:0:0:0:
488,291,112641,1,8,0:0:0:0:
452,207,112823,1,0,3:0:0:0:
333,255,113005,5,2,0:1:0:0:
253,147,113277,5,2,0:1:0:0:
382,94,113550,5,2,0:1:0:0:
295,21,113732,5,0,3:0:0:0:
234,68,113914,1,0,0:0:0:0:
161,44,114095,1,0,3:0:0:0:
91,71,114277,1,8,0:0:0:0:
92,149,114459,1,0,3:0:0:0:
151,199,114641,1,0,3:0:0:0:
168,125,114823,5,2,0:1:0:0:
19,240,115095,5,2,0:1:0:0:
126,354,115368,5,2,0:1:0:0:
207,288,115550,6,0,P|257:282|355:271,1,143.999995605469,2|0,3:2|0:0,0:0:0:0:
420,323,116095,2,0,P|436:281|426:175,1,143.999995605469,2|0,0:0|0:0,0:0:0:0:
326,162,116641,2,0,P|332:124|335:74,2,71.9999978027344
412,102,117186,1,0,0:0:0:0:
287,18,117368,6,0,L|203:28,1,71.9999978027344,2|0,3:2|0:0,0:0:0:0:
187,33,117641,1,0,3:0:0:0:
187,33,117732,1,0,3:0:0:0:
108,93,117914,2,0,P|121:153|136:246,1,143.999995605469,0|0,3:0|0:0,0:0:0:0:
99,326,118459,2,0,P|54:318|12:313,2,71.9999978027344,8|0|0,0:0|0:0|0:0,0:0:0:0:
158,378,119005,1,0,3:0:0:0:
235,311,119186,6,0,P|245:260|257:156,1,143.999995605469,2|0,0:0|0:0,0:0:0:0:
359,134,119732,2,0,P|349:185|337:289,1,143.999995605469,2|0,0:0|0:0,0:0:0:0:
392,340,120277,2,0,P|432:347|478:355,1,71.9999978027344,2|0,3:2|0:0,0:0:0:0:
320,369,120641,2,0,P|279:373|234:377,1,71.9999978027344,10|0,0:0|0:0,0:0:0:0:
171,304,121005,5,2,3:2:0:0:
171,304,121368,1,0,3:0:0:0:
175,286,121459,1,0,3:0:0:0:
180,268,121550,1,0,3:0:0:0:
185,250,121641,1,0,3:0:0:0:
190,232,121732,1,0,3:0:0:0:
102,166,121914,1,0,3:0:0:0:
102,166,122005,1,0,3:0:0:0:
102,166,122095,2,0,L|16:182,2,71.9999978027344,8|0|0,0:0|0:0|0:0,0:0:0:0:
153,104,122641,1,0,3:0:0:0:
204,41,122823,6,0,P|261:30|372:18,1,143.999995605469,2|0,0:0|0:0,0:0:0:0:
417,116,123368,2,0,P|424:75|432:30,2,71.9999978027344,2|0|0,0:0|0:0|0:0,0:0:0:0:
356,172,123914,2,0,P|318:181|265:174,1,71.9999978027344
212,216,124277,2,0,P|235:254|237:303,1,71.9999978027344,8|0,0:0|0:0,0:0:0:0:
286,353,124641,6,0,P|341:328|432:353,1,143.999995605469,2|0,0:0|0:0,0:0:0:0:
487,277,125186,1,0,0:0:0:0:
487,277,125368,2,0,L|474:175,1,71.9999978027344,0|0,3:0|0:0,0:0:0:0:
403,172,125732,2,0,L|410:129,5,23.9999992675781,0|0|0|0|0|0,3:0|0:0|0:0|0:0|0:0|0:0,0:0:0:0:
381,199,126095,2,0,L|308:209,1,71.9999978027344,2|0,0:0|0:0,0:0:0:0:
234,175,126459,6,0,P|214:115|215:12,1,143.999995605469,2|0,3:2|0:0,0:0:0:0:
211,34,127005,1,2,0:0:0:0:
134,126,127186,1,8,0:0:0:0:
134,126,127368,1,0,0:0:0:0:
52,23,127550,2,0,L|59:100,1,71.9999978027344
148,149,127914,2,0,L|136:221,1,71.9999978027344,8|0,0:0|0:0,0:0:0:0:
45,303,128277,6,0,B|131:294|106:348|215:330,1,143.999995605469,2|0,0:0|0:0,0:0:0:0:
297,240,128823,1,8,0:0:0:0:
208,256,129005,1,0,3:0:0:0:
278,335,129186,1,0,3:0:0:0:
285,149,129368,1,8,0:0:0:0:
285,149,129550,1,8,0:0:0:0:
415,53,129732,6,0,L|356:67,1,48,2|0,0:0|0:0,0:0:0:0:
292,55,130095,5,4,1:0:0:0:
388,150,130276,2,0,P|382:187|371:255,1,80,0|0,1:0|0:0,0:0:0:0:
476,344,130640,1,0,1:0:0:0:
476,344,130731,1,0,0:0:0:0:
476,344,130822,2,0,P|472:289|468:249,1,80,8|0,0:0|1:0,0:0:0:0:
324,289,131185,2,0,P|282:294|225:303,1,80,0|0,1:0|3:0,0:0:0:0:
217,308,131458,1,8,0:0:0:0:
189,314,131549,5,0,1:0:0:0:
110,245,131731,1,0,1:0:0:0:
197,188,131913,2,0,P|203:133|199:52,1,120
204,40,132276,2,0,P|138:66|104:66,1,80,8|0,0:0|1:0,0:0:0:0:
0,72,132640,2,0,P|41:111|60:163,1,80,0|8,0:0|0:0,0:0:0:0:
61,157,132913,1,0,3:0:0:0:
66,184,133004,5,0,1:0:0:0:
54,306,133185,1,0,1:0:0:0:
175,268,133367,1,0,0:0:0:0:
175,268,133731,5,8,0:0:0:0:
54,306,133913,1,0,1:0:0:0:
66,184,134095,1,0,1:0:0:0:
154,160,134276,5,0,1:0:0:0:
154,160,134367,1,8,0:0:0:0:
154,160,134458,2,0,L|131:249,1,80,0|0,1:0|1:0,0:0:0:0:
203,346,134822,2,0,L|226:257,1,80,0|0,0:0|1:0,0:0:0:0:
303,174,135185,2,0,L|348:318,1,120,8|0,0:0|0:0,0:0:0:0:
354,312,135549,1,0,1:0:0:0:
443,352,135731,5,8,0:0:0:0:
469,343,135822,1,8,0:0:0:0:
493,329,135913,1,0,1:0:0:0:
499,225,136095,1,0,1:0:0:0:
399,216,136276,1,0,0:0:0:0:
399,216,136640,5,8,0:0:0:0:
316,152,136822,1,0,1:0:0:0:
369,64,137004,1,0,1:0:0:0:
467,120,137185,1,0,1:0:0:0:
467,120,137276,1,8,0:0:0:0:
467,120,137367,6,0,L|386:160,1,80,0|0,1:0|1:0,0:0:0:0:
159,65,137731,2,0,L|279:91,1,120
276,90,138095,2,0,L|286:1,1,80,8|0,0:0|1:0,0:0:0:0:
169,151,138458,2,0,L|182:258,1,80,0|8,1:0|0:0,0:0:0:0:
170,257,138731,1,8,0:0:0:0:
155,281,138822,5,0,1:0:0:0:
258,287,139004,1,0,1:0:0:0:
124,357,139185,2,0,L|26:340,1,80,0|0,0:0|1:0,0:0:0:0:
37,232,139549,2,0,L|149:253,1,80,8|0,0:0|1:0,0:0:0:0:
195,120,139913,1,0,1:0:0:0:
99,143,140095,1,0,1:0:0:0:
99,143,140185,1,8,0:0:0:0:
99,143,140276,6,0,L|118:37,1,80,0|0,1:0|1:0,0:0:0:0:
287,17,140640,2,0,L|268:123,1,80,8|0,0:0|1:0,0:0:0:0:
266,123,140913,1,8,0:0:0:0:
258,150,141004,1,0,1:0:0:0:
354,288,141185,1,0,1:0:0:0:
371,256,141276,1,0,1:0:0:0:
387,224,141367,1,0,1:0:0:0:
403,191,141458,1,8,0:3:0:0:
419,159,141549,1,8,0:3:0:0:
419,159,141731,6,0,B|344:147|362:196|265:192,1,143.999995605469,4|0,1:0|0:0,0:0:0:0:
282,192,142095,2,0,P|272:244|273:294,1,95.9999970703126,8|0,0:0|0:0,0:0:0:0:
164,278,142458,2,0,P|169:333|179:377,1,95.9999970703126,0|0,1:0|0:0,0:0:0:0:
76,237,142822,2,0,P|66:189|47:133,1,95.9999970703126,8|2,0:0|0:3,0:0:0:0:
14,49,143185,6,0,P|81:68|178:93,1,143.999995605469,0|0,1:0|0:0,0:0:0:0:
152,86,143549,1,8,0:0:0:0:
293,13,143731,1,0,3:0:0:0:
293,13,143822,1,8,0:0:0:0:
293,13,143913,2,0,P|284:65|280:123,1,95.9999970703126,0|2,1:0|0:3,0:0:0:0:
503,197,144276,2,0,P|427:176|347:145,1,143.999995605469,8|0,0:0|0:0,0:0:0:0:
355,141,144640,5,4,1:2:0:0:
278,211,144822,1,0,0:0:0:0:
378,239,145004,1,8,0:0:0:0:
469,73,145185,2,0,P|402:64|316:51,1,143.999995605469,0|0,3:0|0:0,0:0:0:0:
326,52,145549,1,0,0:0:0:0:
171,150,145731,2,0,P|175:101|188:55,1,95.9999970703126,8|0,0:0|0:0,0:0:0:0:
278,211,146095,5,0,1:0:0:0:
292,299,146276,1,0,3:0:0:0:
362,337,146458,5,8,0:0:0:0:
408,188,146640,1,2,3:0:0:0:
431,268,146822,5,0,1:0:0:0:
270,107,147004,1,8,0:0:0:0:
351,65,147185,2,0,P|386:58|459:56,1,95.9999970703126,12|0,0:0|0:0,0:0:0:0:
240,34,147549,6,0,P|224:123|205:200,1,143.999995605469,4|0,1:0|0:0,0:0:0:0:
221,186,147913,2,0,P|167:198|116:197,1,95.9999970703126,8|0,0:0|0:0,0:0:0:0:
31,152,148276,1,0,1:0:0:0:
31,152,148458,1,0,0:0:0:0:
72,295,148640,2,0,P|125:307|171:319,1,95.9999970703126,8|0,0:0|0:0,0:0:0:0:
229,378,149004,6,0,P|259:329|309:246,1,143.999995605469,0|0,1:0|0:0,0:0:0:0:
317,233,149367,1,8,0:0:0:0:
237,83,149549,1,0,3:0:0:0:
237,83,149640,1,8,0:0:0:0:
237,83,149731,2,0,P|227:142|218:190,1,95.9999970703126,0|2,1:0|0:3,0:0:0:0:
348,81,150095,2,0,B|426:57|420:107|502:80,1,143.999995605469,8|0,0:0|0:0,0:0:0:0:
489,83,150458,5,4,1:2:0:0:
511,182,150640,1,0,0:0:0:0:
440,249,150822,1,8,0:0:0:0:
345,239,151004,2,0,P|267:225|168:216,1,143.999995605469,0|0,3:0|0:0,0:0:0:0:
202,218,151367,1,0,0:0:0:0:
103,263,151549,2,0,P|112:327|113:372,1,95.9999970703126,8|0,0:0|0:0,0:0:0:0:
111,378,151822,1,8,0:0:0:0:
111,378,151913,5,0,1:0:0:0:
15,279,152095,1,0,3:0:0:0:
106,175,152276,2,0,P|129:136|151:78,1,95.9999970703126,12|0,0:0|0:0,0:0:0:0:
391,63,152640,1,0,1:0:0:0:
391,63,152731,1,8,0:0:0:0:
211,27,152913,1,0,1:0:0:0:
211,27,153004,1,8,0:0:0:0:
308,1,153185,1,8,0:3:0:0:
288,169,153367,6,0,P|364:154|435:152,1,143.999995605469,4|0,1:0|0:0,0:0:0:0:
430,151,153731,2,0,P|415:198|405:249,1,95.9999970703126,8|0,0:0|0:0,0:0:0:0:
486,348,154095,2,0,P|501:301|511:250,1,95.9999970703126,0|0,1:0|0:0,0:0:0:0:
303,262,154458,1,8,0:0:0:0:
357,352,154640,5,0,3:0:0:0:
357,352,154731,1,0,3:0:0:0:
357,352,154822,1,0,1:0:0:0:
407,270,155004,1,0,0:0:0:0:
233,197,155185,2,0,P|184:207|138:220,1,95.9999970703126,8|0,0:0|0:0,0:0:0:0:
121,225,155458,1,8,0:0:0:0:
102,229,155549,1,0,1:0:0:0:
40,155,155731,1,2,0:3:0:0:
95,76,155913,2,0,P|121:48|166:-1,1,95.9999970703126,8|0,0:0|0:0,0:0:0:0:
225,100,156276,5,4,1:2:0:0:
262,188,156458,1,0,0:0:0:0:
300,276,156640,1,8,0:0:0:0:
356,201,156822,5,0,3:0:0:0:
356,201,156913,1,0,3:0:0:0:
356,201,157004,1,0,1:0:0:0:
165,172,157185,1,0,0:0:0:0:
319,115,157367,5,8,0:0:0:0:
206,260,157549,2,0,L|227:97,1,143.999995605469,0|0,3:0|0:0,0:0:0:0:
220,98,157913,1,0,0:0:0:0:
406,38,158095,2,0,P|417:100|423:150,1,95.9999970703126,8|2,0:0|0:3,0:0:0:0:
321,98,158458,1,0,1:0:0:0:
85,46,158640,1,8,0:0:0:0:
224,13,158822,1,12,0:0:0:0:
224,13,159185,6,0,P|198:75|172:160,1,143.999995605469,4|0,1:0|0:0,0:0:0:0:
174,148,159549,2,0,P|116:140|67:135,1,95.9999970703126,8|0,0:0|0:0,0:0:0:0:
23,214,159913,2,0,P|81:222|130:227,1,95.9999970703126,0|0,1:0|0:0,0:0:0:0:
214,224,160276,2,0,P|231:325|232:374,1,143.999995605469,8|0,0:0|0:0,0:0:0:0:
232,366,160640,5,0,1:0:0:0:
356,269,160822,1,0,0:0:0:0:
440,314,161004,1,8,0:0:0:0:
356,359,161185,1,0,3:0:0:0:
356,359,161276,1,8,0:0:0:0:
356,359,161367,1,0,1:0:0:0:
346,186,161549,1,2,0:3:0:0:
346,186,161731,2,0,L|452:213,1,95.9999970703126,8|0,0:0|0:0,0:0:0:0:
299,93,162095,6,0,L|181:117,2,95.9999970703126,4|0|8,1:2|0:0|0:0,0:0:0:0:
142,22,162640,2,0,P|92:71|107:160,1,143.999995605469,0|0,3:0|0:0,0:0:0:0:
104,157,163004,1,0,0:0:0:0:
197,214,163185,1,8,0:0:0:0:
43,253,163367,5,0,3:0:0:0:
36,234,163458,1,8,0:0:0:0:
29,215,163549,1,0,1:0:0:0:
137,279,163731,1,0,3:0:0:0:
68,350,163913,5,12,0:0:0:0:
253,304,164095,1,0,3:0:0:0:
157,254,164276,5,0,1:0:0:0:
185,257,164367,1,0,1:0:0:0:
213,263,164458,1,0,1:0:0:0:
241,269,164549,1,0,1:0:0:0:
283,258,164640,5,0,1:0:0:0:
325,263,164731,1,0,1:0:0:0:
367,267,164822,1,0,1:0:0:0:
409,273,164913,1,0,1:0:0:0:
451,279,165004,6,0,L|475:122,2,143.999995605469,4|2|0,1:0|0:3|0:0,0:0:0:0:
346,184,165731,2,0,L|320:81,1,95.9999970703126,0|0,1:0|0:0,0:0:0:0:
310,73,166004,1,0,0:0:0:0:
310,73,166095,1,8,0:0:0:0:
136,103,166276,1,0,0:0:0:0:
210,20,166458,5,0,1:0:0:0:
235,147,166731,1,0,3:0:0:0:
235,147,166822,1,8,0:0:0:0:
125,18,167004,1,0,3:0:0:0:
125,18,167095,1,8,0:0:0:0:
125,18,167185,1,0,1:0:0:0:
37,115,167367,1,0,0:0:0:0:
136,200,167549,1,8,0:0:0:0:
136,103,167731,1,2,0:3:0:0:
136,103,167913,6,0,L|165:266,2,143.999995605469,4|2|0,1:0|0:3|0:0,0:0:0:0:
222,62,168640,2,0,L|322:87,1,95.9999970703126,0|0,1:0|0:0,0:0:0:0:
338,93,168913,1,0,0:0:0:0:
361,99,169004,1,8,0:0:0:0:
471,37,169185,1,0,0:0:0:0:
381,205,169367,5,0,1:0:0:0:
381,205,169640,1,0,3:0:0:0:
381,205,169731,1,8,0:0:0:0:
462,290,169913,1,0,0:0:0:0:
457,137,170095,1,0,1:0:0:0:
293,164,170276,1,8,0:0:0:0:
248,228,170458,2,0,L|221:348,1,96,12|0,0:0|0:0,0:0:0:0:
239,346,170822,6,0,B|167:351|167:351|101:267,1,143.999995605469,4|2,1:0|0:3,0:0:0:0:
122,294,171185,2,0,L|143:200,1,95.9999970703126,8|0,0:0|0:0,0:0:0:0:
82,98,171549,1,0,1:0:0:0:
185,35,171731,1,0,0:0:0:0:
185,35,171822,1,0,0:0:0:0:
185,35,171913,1,8,0:0:0:0:
99,18,172095,1,0,0:0:0:0:
240,146,172276,6,0,B|287:163|287:163|383:132,2,143.999995605469,0|0|0,1:0|3:0|0:0,0:0:0:0:
224,132,172913,1,8,0:0:0:0:
224,132,173004,1,0,1:0:0:0:
316,61,173185,1,0,0:0:0:0:
395,236,173367,1,8,0:0:0:0:
313,186,173549,1,2,0:3:0:0:
460,35,173731,6,0,L|488:256,1,191.999994140625,4|8,1:2|0:0,0:0:0:0:
484,225,174276,1,0,0:0:0:0:
398,368,174458,2,0,L|412:271,1,95.9999970703126,0|0,1:0|0:0,0:0:0:0:
322,221,174822,2,0,L|222:235,1,95.9999970703126,8|0,0:0|0:0,0:0:0:0:
202,237,175095,1,8,0:0:0:0:
178,240,175185,1,0,1:0:0:0:
245,318,175367,1,0,0:0:0:0:
173,152,175549,5,12,0:0:0:0:
26,212,175731,1,0,0:0:0:0:
81,132,175913,1,0,1:0:0:0:
81,132,176004,1,8,0:0:0:0:
96,294,176185,1,0,1:0:0:0:
96,294,176276,1,8,0:0:0:0:
26,212,176458,1,4,0:3:0:0:
173,152,176640,6,0,L|267:125,1,95.9999970703126,4|0,1:2|0:0,0:0:0:0:
279,105,176913,2,0,L|301:213,1,95.9999970703126,2|0,0:3|0:0,0:0:0:0:
315,216,177185,2,0,L|251:213,1,47.9999985351563,0|0,3:0|0:0,0:0:0:0:
207,258,177367,2,0,P|225:315|234:378,1,95.9999970703126,0|0,1:0|0:0,0:0:0:0:
231,350,177640,1,0,0:0:0:0:
231,350,177731,2,0,P|292:342|355:343,1,95.9999970703126,8|0,0:0|0:0,0:0:0:0:
442,352,178095,5,0,1:0:0:0:
442,352,178367,1,0,3:0:0:0:
442,352,178458,1,8,0:0:0:0:
407,195,178640,1,0,3:0:0:0:
407,195,178731,1,8,0:0:0:0:
407,195,178822,1,0,1:0:0:0:
491,240,179004,1,0,0:0:0:0:
357,294,179185,1,8,0:0:0:0:
322,133,179367,1,2,0:3:0:0:
322,133,179458,1,0,0:0:0:0:
322,133,179549,6,0,L|308:13,1,95.9999970703126,4|0,1:2|0:0,0:0:0:0:
323,16,179822,2,0,L|216:37,1,95.9999970703126,2|0,0:3|0:0,0:0:0:0:
204,34,180095,2,0,L|227:116,1,47.9999985351563,0|0,3:0|0:0,0:0:0:0:
230,158,180276,2,0,P|149:148|106:152,1,95.9999970703126,0|0,1:0|0:0,0:0:0:0:
134,148,180549,1,0,0:0:0:0:
134,148,180640,1,8,0:0:0:0:
40,193,180822,1,0,0:0:0:0:
50,87,181004,5,0,1:0:0:0:
191,317,181276,1,0,3:0:0:0:
191,317,181367,1,8,0:0:0:0:
102,354,181549,1,0,0:0:0:0:
106,258,181731,1,0,1:0:0:0:
297,311,181913,1,8,0:0:0:0:
191,317,182095,2,0,L|225:163,1,143.999995605469,12|0,0:0|0:0,0:0:0:0:
208,156,182458,6,0,L|308:188,1,95.9999970703126,4|0,1:0|0:0,0:0:0:0:
321,195,182731,2,0,L|303:100,1,95.9999970703126,2|0,0:3|0:0,0:0:0:0:
315,80,183004,2,0,L|256:89,1,47.9999985351563,0|0,3:0|0:0,0:0:0:0:
423,28,183185,2,0,L|412:147,1,95.9999970703126,8|0,0:0|0:0,0:0:0:0:
414,123,183458,1,0,0:0:0:0:
414,123,183549,1,8,0:0:0:0:
413,234,183731,1,0,0:0:0:0:
504,204,183913,5,0,1:0:0:0:
504,204,184185,1,0,3:0:0:0:
504,204,184276,1,8,0:0:0:0:
330,283,184458,1,0,3:0:0:0:
330,283,184549,1,8,0:0:0:0:
330,283,184640,1,0,1:0:0:0:
430,340,184822,1,0,0:0:0:0:
286,187,185004,1,8,0:0:0:0:
214,331,185185,1,2,0:3:0:0:
127,350,185367,6,0,P|59:333|62:217,1,191.999994140625,4|8,1:2|0:0,0:0:0:0:
52,225,185913,1,0,0:0:0:0:
154,171,186095,2,0,P|154:226|147:275,1,95.9999970703126,0|0,1:0|0:0,0:0:0:0:
75,143,186458,2,0,P|75:88|82:39,1,95.9999970703126,8|0,0:0|0:0,0:0:0:0:
80,47,186731,1,8,0:0:0:0:
80,47,186822,1,0,1:0:0:0:
285,20,187004,1,0,0:0:0:0:
195,68,187185,1,12,0:0:0:0:
377,87,187367,1,0,1:0:0:0:
377,87,187458,1,8,0:0:0:0:
377,87,187549,1,8,0:3:0:0:
301,149,187731,5,0,1:0:0:0:
331,186,187822,1,0,1:0:0:0:
365,219,187913,1,0,1:0:0:0:
411,231,188004,1,8,0:3:0:0:
459,230,188095,1,8,0:3:0:0:
496,259,188185,1,4,0:3:0:0:
489,306,188276,6,0,P|434:350|390:350,1,95.9999970703126,2|0,0:0|0:0,0:0:0:0:
347,317,188776,1,0,0:0:0:0:
347,317,188954,1,0,0:0:0:0:
347,317,189133,2,0,P|355:272|376:216,1,95.9999970703126,2|0,0:0|0:0,0:0:0:0:
258,349,189700,2,0,B|176:324|190:375|96:341,1,143.999995605469,2|0,0:0|0:0,0:0:0:0:
116,347,190620,1,0,0:0:0:0:
116,347,190804,1,0,0:0:0:0:
25,255,191168,6,0,L|37:191,1,47.9999985351563,2|0,0:0|0:0,0:0:0:0:
100,124,191712,1,0,0:0:0:0:
100,124,191894,2,0,L|108:187,1,47.9999985351563,0|2,0:0|0:0,0:0:0:0:
254,227,192627,2,0,P|176:238|142:189,2,143.999995605469,2|0|0,0:0|0:0|0:0,0:0:0:0:
472,265,194099,5,2,0:0:0:0:
472,265,194283,2,0,P|482:320|480:377,1,95.9999970703126,0|2,0:0|0:0,0:0:0:0:
387,248,194836,1,0,0:0:0:0:
387,248,195012,2,0,P|387:200|396:153,1,95.9999970703126,2|0,0:0|0:0,0:0:0:0:
397,79,195555,2,0,P|345:121|273:93,1,143.999995605469,2|0,0:0|0:0,0:0:0:0:
277,98,196476,1,0,0:0:0:0:
277,98,196665,1,0,0:0:0:0:
126,238,197042,6,0,P|174:258|221:288,1,95.9999970703126,2|0,0:0|0:0,0:0:0:0:
239,355,197608,2,0,L|219:206,1,143.999995605469,2|0,0:0|0:0,0:0:0:0:
40,23,198486,2,0,L|19:177,1,143.999995605469
91,203,199205,2,0,L|106:137,1,47.9999985351563
166,97,199580,2,0,L|181:163,1,47.9999985351563
262,176,199914,6,0,P|306:165|348:113,1,95.9999970703126,2|0,0:0|0:0,0:0:0:0:
426,66,200437,1,2,0:0:0:0:
426,66,200611,1,0,0:0:0:0:
426,66,200786,2,0,L|440:166,1,95.9999970703126,2|0,0:0|0:0,0:0:0:0:
496,239,201334,2,0,B|417:230|438:262|348:252,1,143.999995605469,2|0,0:0|0:0,0:0:0:0:
354,252,202372,1,0,0:0:0:0:
251,369,202840,5,2,0:0:0:0:
251,369,203013,2,0,L|230:273,1,95.9999970703126
156,178,203707,2,0,L|136:279,1,95.9999970703126,2|0,0:0|0:0,0:0:0:0:
243,194,204303,2,0,P|311:171|371:182,1,119.999996337891,2|0,0:0|0:0,0:0:0:0:
459,257,205203,1,2,0:0:0:0:
510,169,205501,1,2,0:0:0:0:
510,169,205731,6,0,P|496:147|475:69,1,95.9999970703126,2|0,0:0|0:0,0:0:0:0:
484,4,206286,2,0,L|369:21,1,95.9999970703126,0|2,0:0|0:0,0:0:0:0:
257,103,207208,6,0,P|223:157|227:251,2,143.999995605469,2|0|2,0:0|0:0|0:0,0:0:0:0:
392,243,208653,2,0,P|426:297|422:391,2,143.999995605469,2|0|0,0:0|0:0|0:0,0:0:0:0:
256,313,210098,5,2,0:0:0:0:
327,187,211549,5,4,1:0:0:0:
263,133,211731,2,0,L|169:128,1,80,0|0,1:0|0:0,0:0:0:0:
36,204,212095,1,0,1:0:0:0:
36,204,212185,1,0,3:0:0:0:
36,204,212276,2,0,L|124:193,1,80,8|0,0:0|1:0,0:0:0:0:
212,214,212640,2,0,L|197:309,1,80,0|0,1:0|1:0,0:0:0:0:
198,309,212913,1,8,0:0:0:0:
196,324,213004,5,0,1:0:0:0:
290,280,213185,1,0,1:0:0:0:
386,323,213367,2,0,L|519:308,1,120
505,309,213731,2,0,L|489:226,1,80,8|0,0:0|1:0,0:0:0:0:
501,113,214095,1,0,1:0:0:0:
318,139,214276,5,8,0:0:0:0:
318,139,214367,1,8,0:0:0:0:
318,139,214458,2,0,L|400:159,1,80,0|0,1:0|1:0,0:0:0:0:
324,244,214822,1,0,0:0:0:0:
324,244,215004,1,0,1:0:0:0:
209,169,215185,2,0,L|196:70,1,80,8|0,0:0|1:0,0:0:0:0:
259,19,215549,2,0,P|300:10|346:11,1,80,0|0,1:0|1:0,0:0:0:0:
353,14,215822,1,8,0:0:0:0:
367,19,215913,5,0,1:0:0:0:
417,182,216095,1,0,1:0:0:0:
339,133,216276,1,0,0:0:0:0:
477,114,216458,1,0,1:0:0:0:
419,268,216640,2,0,L|401:360,1,80,8|0,0:0|1:0,0:0:0:0:
269,284,217004,2,0,L|253:205,1,80,0|8,1:0|0:0,0:0:0:0:
252,189,217276,1,8,0:0:0:0:
251,172,217367,5,0,1:0:0:0:
101,224,217549,1,0,1:0:0:0:
148,90,217731,2,0,L|173:199,1,80,0|0,0:0|1:0,0:0:0:0:
230,56,218095,2,0,L|311:39,1,80,8|0,0:0|1:0,0:0:0:0:
372,0,218458,1,0,1:0:0:0:
465,73,218640,5,0,1:0:0:0:
465,73,218731,1,8,0:0:0:0:
465,73,218822,2,0,L|451:172,1,80,0|0,1:0|1:0,0:0:0:0:
401,218,219185,2,0,L|265:240,1,120
273,229,219549,2,0,L|298:310,1,80,8|0,0:0|1:0,0:0:0:0:
210,355,219913,2,0,P|152:367|103:365,1,80,0|8,1:0|0:0,0:0:0:0:
115,363,220185,1,8,0:0:0:0:
99,357,220276,5,0,1:0:0:0:
17,304,220458,1,0,1:0:0:0:
97,250,220640,2,0,L|186:236,1,80,0|0,0:0|1:0,0:0:0:0:
261,98,221004,2,0,L|251:197,1,80,8|0,0:0|1:0,0:0:0:0:
307,259,221367,2,0,P|323:307|329:353,1,80,0|0,1:0|1:0,0:0:0:0:
328,352,221640,1,8,0:0:0:0:
322,367,221731,5,0,1:0:0:0:
411,262,221913,1,0,1:0:0:0:
496,303,222095,1,8,0:0:0:0:
502,122,222276,1,0,1:0:0:0:
502,122,222367,1,8,0:0:0:0:
502,122,222458,1,0,1:0:0:0:
411,157,222640,1,0,1:0:0:0:
382,171,222730,1,0,1:0:0:0:
351,180,222821,1,0,1:0:0:0:
319,182,222913,1,8,0:3:0:0:
288,177,223004,1,8,0:3:0:0:
258,165,223095,1,4,0:3:0:0:
231,147,223165,6,0,L|149:162,1,60.0000022888184,2|0,0:0|0:0,0:0:0:0:
113,203,223528,2,0,L|42:213,1,60.0000022888184,2|0,0:0|0:0,0:0:0:0:
0,158,223913,5,2,0:0:0:0:
0,158,224276,1,0,0:0:0:0:
70,122,224458,2,0,P|90:75|99:-3,1,120.000004577637,2|0,0:0|0:0,0:0:0:0:
99,7,225003,1,0,0:0:0:0:
176,70,225185,6,0,P|230:102|285:64,1,120.000004577637,2|0,0:0|0:0,0:0:0:0:
276,78,225731,1,0,0:0:0:0:
406,119,225913,2,0,P|360:140|347:168,1,60.0000022888184,2|0,0:0|0:0,0:0:0:0:
298,194,226276,1,0,0:0:0:0:
298,194,226458,2,0,P|320:218|323:299,1,90.0000034332277
324,296,226822,5,2,0:0:0:0:
384,349,227003,1,0,0:0:0:0:
455,318,227185,1,0,0:0:0:0:
444,243,227367,2,0,L|457:105,1,120.000004577637,2|0,0:0|0:0,0:0:0:0:
455,123,227913,1,0,0:0:0:0:
397,76,228094,2,0,L|326:105,2,60.0000022888184,2|0|0,0:0|0:0|0:0,0:0:0:0:
297,17,228640,2,0,P|250:63|264:130,1,120.000004577637
253,113,229185,1,0,0:0:0:0:
203,222,229549,5,0,0:0:0:0:
203,222,229640,1,0,0:0:0:0:
203,222,229731,2,0,L|168:155,1,71.9999978027344,0|0,1:0|0:0,0:0:0:0:
92,140,230094,2,0,L|57:73,1,71.9999978027344,0|2,1:0|0:0,0:0:0:0:
31,216,230458,6,0,L|69:286,1,71.9999978027344,0|0,1:0|0:0,0:0:0:0:
143,296,230822,2,0,L|181:366,1,71.9999978027344,0|2,1:0|0:0,0:0:0:0:
237,255,231185,6,0,P|226:203|213:126,1,107.999996704102,0|0,1:0|0:0,0:0:0:0:
217,148,231549,2,0,L|311:163,1,71.9999978027344,0|2,1:0|0:0,0:0:0:0:
406,230,231913,2,0,L|312:245,1,71.9999978027344,0|0,1:0|0:0,0:0:0:0:
255,344,232276,2,0,L|379:339,1,107.999996704102,0|0,1:0|0:0,0:0:0:0:
387,345,232640,5,2,1:2:0:0:
464,327,232822,1,0,0:0:0:0:
467,250,233003,1,0,1:0:0:0:
401,218,233185,1,2,0:0:0:0:
401,218,233276,1,0,0:0:0:0:
401,218,233367,1,0,1:0:0:0:
324,242,233549,1,0,0:0:0:0:
249,215,233731,1,0,1:0:0:0:
246,135,233913,1,2,0:0:0:0:
299,76,234094,6,0,L|390:93,1,71.9999978027344,4|0,1:2|0:0,0:0:0:0:
178,34,234458,1,8,0:0:0:0:
142,173,234640,1,0,1:0:0:0:
142,173,234731,1,8,0:0:0:0:
142,173,234822,1,0,1:0:0:0:
358,279,235003,1,0,1:0:0:0:
333,283,235094,1,0,1:0:0:0:
308,288,235185,1,0,1:0:0:0:
283,291,235276,1,8,0:3:0:0:
261,299,235367,1,8,0:3:0:0:
261,299,235549,6,0,P|248:231|266:156,1,143.999995605469,4|0,1:0|0:0,0:0:0:0:
257,135,235913,2,0,P|311:127|355:130,1,95.9999970703126,8|0,0:0|0:0,0:0:0:0:
430,50,236276,2,0,P|449:95|459:159,1,95.9999970703126,0|0,1:0|0:0,0:0:0:0:
505,210,236640,2,0,P|496:259|477:306,1,95.9999970703126,8|2,0:0|0:3,0:0:0:0:
348,377,237003,6,0,L|328:224,1,143.999995605469,0|0,1:0|0:0,0:0:0:0:
334,215,237367,1,8,0:0:0:0:
202,274,237549,1,0,3:0:0:0:
202,274,237640,1,8,0:0:0:0:
202,274,237731,2,0,P|144:286|101:292,1,95.9999970703126,0|2,1:0|0:3,0:0:0:0:
0,152,238094,2,0,P|71:171|145:195,1,143.999995605469,8|0,0:0|0:0,0:0:0:0:
138,192,238458,5,4,1:0:0:0:
279,99,238640,1,0,0:0:0:0:
190,66,238822,1,8,0:0:0:0:
372,6,239003,2,0,P|384:84|395:160,1,143.999995605469,0|0,3:0|0:0,0:0:0:0:
393,148,239367,1,0,0:0:0:0:
482,210,239549,2,0,P|473:257|462:303,1,95.9999970703126,8|0,0:0|0:0,0:0:0:0:
341,361,239913,5,0,1:0:0:0:
318,283,240094,1,0,3:0:0:0:
210,240,240276,5,8,0:0:0:0:
187,318,240457,1,2,3:0:0:0:
289,202,240640,5,0,1:0:0:0:
129,171,240822,1,8,0:0:0:0:
51,207,241003,2,0,P|32:261|23:312,1,95.9999970703126,12|0,0:0|0:0,0:0:0:0:
108,158,241367,6,0,P|99:93|86:5,1,143.999995605469,4|0,1:0|0:0,0:0:0:0:
73,0,241731,2,0,P|132:15|173:17,1,95.9999970703126,8|0,0:0|0:0,0:0:0:0:
356,1,242094,2,0,P|308:5|262:18,1,95.9999970703126,0|0,1:0|0:0,0:0:0:0:
214,106,242458,1,8,0:0:0:0:
370,191,242640,5,2,0:3:0:0:
370,191,242731,1,0,3:0:0:0:
370,191,242822,1,0,1:0:0:0:
312,98,243003,1,0,0:0:0:0:
250,218,243185,2,0,P|244:277|244:328,1,95.9999970703126,8|0,0:0|0:0,0:0:0:0:
248,337,243458,1,8,0:0:0:0:
253,360,243549,1,0,1:0:0:0:
320,270,243731,1,2,0:3:0:0:
124,187,243913,1,8,0:0:0:0:
124,187,244276,5,4,1:0:0:0:
169,265,244458,1,0,0:0:0:0:
33,176,244640,1,8,0:0:0:0:
182,115,244822,2,0,L|327:129,1,143.999995605469,0|0,3:0|0:0,0:0:0:0:
325,128,245185,1,0,0:0:0:0:
407,76,245367,1,8,0:0:0:0:
455,252,245549,5,0,3:0:0:0:
455,252,245640,1,0,1:0:0:0:
455,252,245731,1,8,0:0:0:0:
361,274,245913,1,0,3:0:0:0:
314,207,246094,5,12,0:0:0:0:
509,318,246276,1,0,3:0:0:0:
393,193,246458,5,0,1:0:0:0:
393,193,246549,1,8,0:0:0:0:
282,284,246731,1,8,0:0:0:0:
282,284,246822,1,0,1:0:0:0:
148,162,247003,1,8,0:0:0:0:
148,162,247094,1,8,0:0:0:0:
148,162,247185,6,0,P|165:96|186:57,1,95.9999970703126,4|0,1:0|0:0,0:0:0:0:
199,39,247458,2,0,P|121:52|84:46,1,95.9999970703126,2|0,0:3|0:0,0:0:0:0:
68,37,247731,2,0,L|86:97,1,47.9999985351563,0|0,3:0|0:0,0:0:0:0:
46,145,247913,1,0,1:0:0:0:
123,223,248094,1,0,0:0:0:0:
123,223,248185,1,0,0:0:0:0:
123,223,248276,1,8,0:0:0:0:
48,280,248458,1,0,0:0:0:0:
198,175,248640,6,0,P|254:178|346:200,1,143.999995605469,0|0,1:0|3:0,0:0:0:0:
366,224,249003,2,0,P|423:241|480:237,1,95.9999970703126,8|0,0:0|0:0,0:0:0:0:
492,221,249276,1,8,0:0:0:0:
492,221,249367,1,0,1:0:0:0:
453,97,249549,1,0,0:0:0:0:
323,127,249731,1,8,0:0:0:0:
324,341,249913,1,2,0:3:0:0:
324,341,250094,6,0,B|351:287|351:287|305:187,2,143.999995605469,4|2|0,1:0|0:3|0:0,0:0:0:0:
184,199,250822,2,0,L|213:82,1,95.9999970703126,0|0,1:0|0:0,0:0:0:0:
216,68,251094,1,0,3:0:0:0:
228,31,251185,1,8,0:0:0:0:
61,41,251367,1,0,0:0:0:0:
41,173,251549,5,0,1:0:0:0:
41,173,251822,1,0,3:0:0:0:
41,173,251913,1,8,0:0:0:0:
172,133,252094,1,2,0:3:0:0:
245,232,252276,1,0,1:0:0:0:
127,218,252458,5,8,0:0:0:0:
312,361,252640,2,0,L|336:190,1,143.999995605469,12|0,0:0|0:0,0:0:0:0:
340,180,253003,6,0,P|388:198|463:208,1,95.9999970703126,4|0,1:0|0:0,0:0:0:0:
469,215,253276,2,0,P|454:171|430:120,1,95.9999970703126,2|0,0:3|0:0,0:0:0:0:
424,88,253549,2,0,L|506:106,1,47.9999985351563,0|0,3:0|0:0,0:0:0:0:
356,21,253731,1,0,1:0:0:0:
232,93,253913,1,0,0:0:0:0:
232,93,254003,1,0,0:0:0:0:
232,93,254094,1,8,0:0:0:0:
281,220,254276,1,0,0:0:0:0:
339,122,254458,5,0,1:0:0:0:
339,122,254731,1,0,3:0:0:0:
339,122,254822,1,8,0:0:0:0:
141,43,255003,1,0,0:0:0:0:
141,43,255094,1,8,0:0:0:0:
141,43,255185,1,0,1:0:0:0:
49,185,255367,1,0,0:0:0:0:
177,165,255549,5,8,0:0:0:0:
221,101,255731,1,0,0:0:0:0:
241,228,255913,2,0,P|204:271|152:365,1,143.999995605469,4|0,1:2|0:0,0:0:0:0:
173,381,256276,2,0,P|123:361|66:347,1,95.9999970703126,8|0,0:0|0:0,0:0:0:0:
29,187,256640,2,0,P|79:207|136:221,1,95.9999970703126,0|0,1:0|0:0,0:0:0:0:
158,220,256913,1,0,0:0:0:0:
194,211,257003,1,8,0:0:0:0:
296,67,257185,5,0,0:0:0:0:
262,85,257276,1,8,0:0:0:0:
224,93,257367,1,0,1:0:0:0:
385,22,257549,1,0,0:0:0:0:
480,68,257731,2,0,P|451:137|441:180,1,95.9999970703126,12|0,0:0|0:0,0:0:0:0:
349,342,258094,1,0,1:0:0:0:
349,342,258185,1,8,0:0:0:0:
295,204,258367,1,0,1:0:0:0:
295,204,258458,1,8,0:0:0:0:
125,265,258640,1,4,0:3:0:0:
227,340,258822,6,0,P|227:287|217:244,1,95.9999970703126,4|0,1:0|0:0,0:0:0:0:
195,220,259094,2,0,P|189:169|199:121,1,95.9999970703126,2|0,0:3|0:0,0:0:0:0:
213,102,259367,2,0,L|268:111,1,47.9999985351563,0|0,3:0|0:0,0:0:0:0:
335,74,259549,1,0,1:0:0:0:
436,208,259731,1,0,0:0:0:0:
436,208,259822,1,0,0:0:0:0:
436,208,259913,1,8,0:0:0:0:
478,119,260094,1,0,0:0:0:0:
333,189,260276,6,0,P|319:238|316:347,1,143.999995605469,0|0,1:0|3:0,0:0:0:0:
325,350,260640,1,8,0:0:0:0:
194,250,260822,1,0,0:0:0:0:
194,250,260913,1,8,0:0:0:0:
194,250,261003,1,0,1:0:0:0:
137,324,261185,1,0,0:0:0:0:
279,249,261367,1,8,0:0:0:0:
150,165,261549,1,2,0:3:0:0:
150,165,261731,6,0,B|123:111|123:111|169:11,2,143.999995605469,4|2|0,1:0|0:3|0:0,0:0:0:0:
115,253,262458,2,0,P|53:266|12:283,1,95.9999970703126,0|0,1:0|0:0,0:0:0:0:
13,301,262731,1,0,0:0:0:0:
13,301,262822,1,8,0:0:0:0:
67,184,263003,1,2,0:3:0:0:
202,282,263185,6,0,P|253:290|302:299,1,95.9999970703126,0|0,1:0|0:0,0:0:0:0:
314,314,263458,2,0,P|370:299|414:294,1,95.9999970703126,0|0,3:0|0:0,0:0:0:0:
425,278,263731,2,0,L|434:227,1,47.9999985351563,2|0,3:0|0:0,0:0:0:0:
487,174,263913,1,0,1:0:0:0:
305,50,264094,1,8,0:0:0:0:
393,9,264276,1,12,0:0:0:0:
393,9,264640,6,0,L|376:162,1,143.999995605469,4|2,1:0|0:3,0:0:0:0:
377,152,265003,1,8,0:0:0:0:
280,209,265185,1,0,0:0:0:0:
175,161,265367,2,0,P|120:155|60:147,1,95.9999970703126,0|0,1:0|0:0,0:0:0:0:
55,146,265640,1,0,0:0:0:0:
31,142,265731,1,8,0:0:0:0:
179,61,265913,1,0,0:0:0:0:
95,16,266094,5,0,1:0:0:0:
95,16,266367,1,0,3:0:0:0:
95,16,266458,1,8,0:0:0:0:
162,146,266640,1,0,1:0:0:0:
162,146,266731,1,8,0:0:0:0:
162,146,266822,1,0,1:0:0:0:
306,19,267003,1,0,0:0:0:0:
199,32,267185,1,8,0:0:0:0:
226,192,267367,1,2,0:3:0:0:
333,179,267549,6,0,P|364:270|352:373,1,191.999994140625,4|8,1:0|0:0,0:0:0:0:
139,331,268094,2,0,P|130:236|161:145,1,191.999994140625,0|0,3:0|0:0,0:0:0:0:
148,37,268640,2,0,P|207:26|265:23,1,95.9999970703126,8|0,0:0|0:0,0:0:0:0:
267,22,268913,1,8,0:0:0:0:
290,25,269003,5,0,1:0:0:0:
466,106,269185,1,0,0:0:0:0:
402,14,269367,1,12,0:0:0:0:
340,122,269549,1,0,1:0:0:0:
347,144,269640,1,8,0:0:0:0:
355,166,269731,1,8,0:3:0:0:
429,233,269913,1,0,1:0:0:0:
420,265,270003,1,0,1:0:0:0:
411,297,270094,1,0,1:0:0:0:
402,329,270185,1,4,0:3:0:0:
397,365,270276,1,4,0:3:0:0:
397,365,270458,5,2,0:0:0:0:
