osu file format v14

[General]
AudioFilename: audio.mp3
AudioLeadIn: 0
PreviewTime: -1
Countdown: 1
SampleSet: None
StackLeniency: 0.7
Mode: 0
LetterboxInBreaks: 0
WidescreenStoryboard: 1

[Editor]
Bookmarks: 128801
DistanceSpacing: 0.8
BeatDivisor: 4
GridSize: 32
TimelineZoom: 1

[Metadata]
Title:Vampire Girl
TitleUnicode:Vampire Girl
Artist:mina_x7
ArtistUnicode:mina_x7
Creator:DatMan212
Version:Opening the door...
Source:
Tags:
BeatmapID:2021057
BeatmapSetID:962941

[Difficulty]
HPDrainRate:5
CircleSize:5
OverallDifficulty:5
ApproachRate:5
SliderMultiplier:1.4
SliderTickRate:1

[Events]
//Background and Video events
0,0,"download.jpg",0,0
//Break Periods
//Storyboard Layer 0 (Background)
//Storyboard Layer 1 (Fail)
//Storyboard Layer 2 (Pass)
//Storyboard Layer 3 (Foreground)
//Storyboard Sound Samples

[TimingPoints]
2283.54929577465,281.69014084507,4,1,0,100,1,0

[HitObjects]
256,192,30,12,0,2283,0:0:0:0:
119,166,4396,5,0,0:0:0:0:
119,166,4677,1,0,0:0:0:0:
119,166,4889,1,0,0:0:0:0:
119,166,5452,1,0,0:0:0:0:
119,166,5734,1,0,0:0:0:0:
119,166,5945,1,0,0:0:0:0:
264,181,6508,1,0,0:0:0:0:
172,240,6861,1,0,0:0:0:0:
143,135,7635,1,0,0:0:0:0:
235,169,7917,1,0,0:0:0:0:
97,202,8691,1,0,0:0:0:0:
91,166,8903,1,0,0:0:0:0:
297,162,9818,1,0,0:0:0:0:
283,186,10030,1,0,0:0:0:0:
166,166,10875,1,0,0:0:0:0:
225,209,11368,1,0,0:0:0:0:
176,217,11931,1,0,0:0:0:0:
176,217,12213,1,0,0:0:0:0:
176,217,12494,1,0,0:0:0:0:
176,217,12706,1,0,0:0:0:0:
176,217,12987,1,0,0:0:0:0:
250,182,14114,1,0,0:0:0:0:
250,182,14396,1,0,0:0:0:0:
250,182,14677,1,0,0:0:0:0:
250,182,14959,1,0,0:0:0:0:
250,182,15170,1,0,0:0:0:0:
209,191,15734,1,0,0:0:0:0:
209,191,16297,1,0,0:0:0:0:
209,191,16790,1,0,0:0:0:0:
241,196,17353,1,0,0:0:0:0:
241,196,17565,1,0,0:0:0:0:
241,196,17846,1,0,0:0:0:0:
241,196,18410,1,0,0:0:0:0:
241,196,18691,1,0,0:0:0:0:
241,196,18973,1,0,0:0:0:0:
241,196,19184,1,0,0:0:0:0:
241,196,19466,1,0,0:0:0:0:
207,153,20593,1,0,0:0:0:0:
207,153,20875,1,0,0:0:0:0:
207,153,21086,1,0,0:0:0:0:
297,159,22001,1,0,0:0:0:0:
297,159,22283,1,0,0:0:0:0:
297,159,22494,1,0,0:0:0:0:
193,195,23339,1,0,0:0:0:0:
193,195,23621,1,0,0:0:0:0:
193,195,23832,1,0,0:0:0:0:
185,115,24677,1,0,0:0:0:0:
185,115,24889,1,0,0:0:0:0:
185,115,25170,1,0,0:0:0:0:
320,198,26015,1,0,0:0:0:0:
320,198,26297,1,0,0:0:0:0:
320,198,26508,1,0,0:0:0:0:
195,233,27353,1,0,0:0:0:0:
195,233,27635,1,0,0:0:0:0:
195,233,27846,1,0,0:0:0:0:
190,145,28691,1,0,0:0:0:0:
190,145,28973,1,0,0:0:0:0:
190,145,29184,1,0,0:0:0:0:
285,174,30100,1,0,0:0:0:0:
285,174,30311,1,0,0:0:0:0:
285,174,30522,1,0,0:0:0:0:
212,197,31156,1,0,0:0:0:0:
193,167,32494,5,0,0:0:0:0:
193,166,33621,1,0,0:0:0:0:
193,166,34114,1,0,0:0:0:0:
193,166,34607,1,0,0:0:0:0:
193,166,34889,1,0,0:0:0:0:
193,166,35170,1,0,0:0:0:0:
193,166,35311,1,0,0:0:0:0:
193,166,35452,1,0,0:0:0:0:
193,166,35734,1,0,0:0:0:0:
257,153,36861,1,0,0:0:0:0:
257,153,37917,1,0,0:0:0:0:
257,153,38480,1,0,0:0:0:0:
257,153,38973,1,0,0:0:0:0:
257,153,39255,1,0,0:0:0:0:
257,153,39537,1,0,0:0:0:0:
257,153,39677,1,0,0:0:0:0:
257,153,39818,1,0,0:0:0:0:
257,153,40100,1,0,0:0:0:0:
257,153,40311,1,0,0:0:0:0:
257,153,40593,1,0,0:0:0:0:
257,153,40945,1,0,0:0:0:0:
257,153,41227,1,0,0:0:0:0:
257,153,41438,1,0,0:0:0:0:
257,153,41720,1,0,0:0:0:0:
257,153,42001,1,0,0:0:0:0:
257,153,42283,1,0,0:0:0:0:
257,153,42494,1,0,0:0:0:0:
257,153,42776,1,0,0:0:0:0:
257,153,43058,1,0,0:0:0:0:
257,153,43339,1,0,0:0:0:0:
257,153,43551,1,0,0:0:0:0:
257,153,43832,1,0,0:0:0:0:
257,153,43973,1,0,0:0:0:0:
257,153,44114,1,0,0:0:0:0:
257,153,44396,1,0,0:0:0:0:
257,153,44607,1,0,0:0:0:0:
257,153,44889,1,0,0:0:0:0:
257,153,45100,1,0,0:0:0:0:
257,153,45382,1,0,0:0:0:0:
257,153,45663,1,0,0:0:0:0:
257,153,45945,1,0,0:0:0:0:
257,153,46227,1,0,0:0:0:0:
257,153,46508,1,0,0:0:0:0:
257,153,46790,1,0,0:0:0:0:
257,153,47072,1,0,0:0:0:0:
257,153,47353,1,0,0:0:0:0:
257,153,47635,1,0,0:0:0:0:
257,153,47917,1,0,0:0:0:0:
257,153,48128,1,0,0:0:0:0:
257,153,48339,1,0,0:0:0:0:
257,153,48410,1,0,0:0:0:0:
257,153,48551,1,0,0:0:0:0:
168,193,49818,1,0,0:0:0:0:
257,151,50311,1,0,0:0:0:0:
172,244,50804,1,0,0:0:0:0:
111,114,51438,1,0,0:0:0:0:
294,134,51931,1,0,0:0:0:0:
217,200,52213,1,0,0:0:0:0:
163,135,52494,1,0,0:0:0:0:
132,187,53058,1,0,0:0:0:0:
268,206,53339,1,0,0:0:0:0:
186,58,53621,1,0,0:0:0:0:
105,220,54114,1,0,0:0:0:0:
439,98,55170,1,0,0:0:0:0:
301,256,56227,1,0,0:0:0:0:
161,91,56790,1,0,0:0:0:0:
123,266,57353,1,0,0:0:0:0:
343,139,57917,1,0,0:0:0:0:
172,117,58480,1,0,0:0:0:0:
206,222,58762,1,0,0:0:0:0:
280,109,60593,1,0,0:0:0:0:
139,173,60875,1,0,0:0:0:0:
470,337,62776,1,0,0:0:0:0:
119,166,62987,1,0,0:0:0:0:
190,314,64959,1,0,0:0:0:0:
396,132,65170,1,0,0:0:0:0:
131,133,67072,1,0,0:0:0:0:
346,177,68128,1,0,0:0:0:0:
123,223,68691,1,0,0:0:0:0:
259,275,69255,1,0,0:0:0:0:
248,104,69748,1,0,0:0:0:0:
152,153,70593,1,0,0:0:0:0:
385,68,72494,1,0,0:0:0:0:
172,151,72987,1,0,0:0:0:0:
258,212,73621,1,0,0:0:0:0:
312,142,74114,1,0,0:0:0:0:
157,142,74677,1,0,0:0:0:0:
40,28,76790,1,0,0:0:0:0:
324,213,77283,1,0,0:0:0:0:
79,293,77917,1,0,0:0:0:0:
295,62,78480,1,0,0:0:0:0:
210,157,81156,1,0,0:0:0:0:
77,268,81720,1,0,0:0:0:0:
399,277,82283,1,0,0:0:0:0:
138,100,82776,1,0,0:0:0:0:
458,47,85452,1,0,0:0:0:0:
126,284,86015,1,0,0:0:0:0:
81,149,86579,1,0,0:0:0:0:
421,302,87142,1,0,0:0:0:0:
23,359,89748,1,0,0:0:0:0:
471,49,90382,1,0,0:0:0:0:
460,314,90945,1,0,0:0:0:0:
143,105,91438,1,0,0:0:0:0:
23,44,93973,1,0,0:0:0:0:
463,349,94677,1,0,0:0:0:0:
428,75,95170,1,0,0:0:0:0:
77,288,95804,1,0,0:0:0:0:
15,15,98410,1,0,0:0:0:0:
498,362,99114,1,0,0:0:0:0:
428,19,99537,1,0,0:0:0:0:
143,259,100030,1,0,0:0:0:0:
143,93,102776,1,0,0:0:0:0:
270,148,103269,1,0,0:0:0:0:
154,202,103762,1,0,0:0:0:0:
263,221,104396,1,0,0:0:0:0:
263,221,105030,1,0,0:0:0:0:
263,221,105241,1,0,0:0:0:0:
263,221,105593,1,0,0:0:0:0:
263,221,105875,1,0,0:0:0:0:
263,221,106156,1,0,0:0:0:0:
263,221,106438,1,0,0:0:0:0:
263,221,106720,1,0,0:0:0:0:
263,221,107072,1,0,0:0:0:0:
263,221,107142,1,0,0:0:0:0:
168,179,109325,1,0,0:0:0:0:
168,179,109466,1,0,0:0:0:0:
168,179,109818,1,0,0:0:0:0:
168,179,109959,1,0,0:0:0:0:
168,179,110311,1,0,0:0:0:0:
168,179,110452,1,0,0:0:0:0:
168,179,110875,1,0,0:0:0:0:
168,179,110945,1,0,0:0:0:0:
160,196,111438,1,0,0:0:0:0:
160,196,111720,1,0,0:0:0:0:
159,197,112001,1,0,0:0:0:0:
160,196,112283,1,0,0:0:0:0:
160,196,112494,1,0,0:0:0:0:
160,196,112776,1,0,0:0:0:0:
159,197,113058,1,0,0:0:0:0:
160,196,113269,1,0,0:0:0:0:
160,196,113551,1,0,0:0:0:0:
159,197,113832,1,0,0:0:0:0:
159,197,114114,1,0,0:0:0:0:
160,196,114396,1,0,0:0:0:0:
159,197,114677,1,0,0:0:0:0:
159,197,114959,1,0,0:0:0:0:
160,196,115170,1,0,0:0:0:0:
160,196,115311,1,0,0:0:0:0:
159,197,115452,1,0,0:0:0:0:
159,197,115734,1,0,0:0:0:0:
159,197,116015,1,0,0:0:0:0:
160,196,116297,1,0,0:0:0:0:
159,197,116508,1,0,0:0:0:0:
159,197,116790,1,0,0:0:0:0:
160,196,117142,1,0,0:0:0:0:
159,197,117424,1,0,0:0:0:0:
159,197,117635,1,0,0:0:0:0:
160,196,117917,1,0,0:0:0:0:
160,196,118199,1,0,0:0:0:0:
159,197,118410,1,0,0:0:0:0:
159,197,118691,1,0,0:0:0:0:
160,196,118973,1,0,0:0:0:0:
160,196,119255,1,0,0:0:0:0:
159,197,119466,1,0,0:0:0:0:
159,197,119677,1,0,0:0:0:0:
160,196,119818,1,0,0:0:0:0:
160,196,120100,1,0,0:0:0:0:
159,197,120311,1,0,0:0:0:0:
159,197,120593,1,0,0:0:0:0:
160,196,120875,1,0,0:0:0:0:
160,196,121086,1,0,0:0:0:0:
160,196,121720,1,0,0:0:0:0:
160,196,122213,1,0,0:0:0:0:
159,197,123339,1,0,0:0:0:0:
159,197,123551,1,0,0:0:0:0:
159,197,123762,1,0,0:0:0:0:
159,197,123832,1,0,0:0:0:0:
130,234,124396,1,0,0:0:0:0:
211,206,125452,1,0,0:0:0:0:
219,151,126579,1,0,0:0:0:0:
266,172,127635,1,0,0:0:0:0:
266,172,128269,1,0,0:0:0:0:
266,172,128410,1,0,0:0:0:0:
266,172,128551,1,0,0:0:0:0:
266,172,128691,1,0,0:0:0:0:
266,172,129255,1,0,0:0:0:0:
266,172,129537,1,0,0:0:0:0:
266,172,129818,1,0,0:0:0:0:
152,152,130875,1,0,0:0:0:0:
272,196,131438,1,0,0:0:0:0:
129,257,131931,1,0,0:0:0:0:
123,96,132494,1,0,0:0:0:0:
253,220,132987,1,0,0:0:0:0:
52,237,133551,1,0,0:0:0:0:
266,77,134114,1,0,0:0:0:0:
157,289,134677,1,0,0:0:0:0:
397,205,135170,1,0,0:0:0:0:
90,144,135734,1,0,0:0:0:0:
352,44,136227,1,0,0:0:0:0:
135,288,136790,1,0,0:0:0:0:
90,91,137353,1,0,0:0:0:0:
260,182,137917,1,0,0:0:0:0:
260,182,138199,1,0,0:0:0:0:
260,182,138410,1,0,0:0:0:0:
157,203,139466,1,0,0:0:0:0:
310,238,140030,1,0,0:0:0:0:
179,114,140593,1,0,0:0:0:0:
132,241,140875,1,0,0:0:0:0:
382,135,141649,1,0,0:0:0:0:
154,150,142072,1,0,0:0:0:0:
227,251,142494,1,0,0:0:0:0:
322,140,142776,1,0,0:0:0:0:
42,129,143762,1,0,0:0:0:0:
286,206,144466,1,0,0:0:0:0:
95,278,144959,1,0,0:0:0:0:
132,114,145241,1,0,0:0:0:0:
290,235,146015,1,0,0:0:0:0:
105,196,146579,1,0,0:0:0:0:
232,100,147142,1,0,0:0:0:0:
352,189,147706,1,0,0:0:0:0:
194,242,148199,1,0,0:0:0:0:
127,82,148691,1,0,0:0:0:0:
326,213,149184,1,0,0:0:0:0:
77,264,149818,1,0,0:0:0:0:
125,149,150311,1,0,0:0:0:0:
240,156,150875,1,0,0:0:0:0:
240,156,151015,1,0,0:0:0:0:
240,156,151156,1,0,0:0:0:0:
177,180,151438,1,0,0:0:0:0:
246,191,152001,1,0,0:0:0:0:
228,220,152494,1,0,0:0:0:0:
228,220,152987,1,0,0:0:0:0:
228,220,153551,1,0,0:0:0:0:
228,220,154044,1,0,0:0:0:0:
228,220,154677,1,0,0:0:0:0:
228,220,154959,1,0,0:0:0:0:
228,220,155241,1,0,0:0:0:0:
228,220,155382,1,0,0:0:0:0:
228,220,155452,1,0,0:0:0:0:
228,220,155734,1,0,0:0:0:0:
228,220,156015,1,0,0:0:0:0:
228,220,156227,1,0,0:0:0:0:
112,122,156861,1,0,0:0:0:0:
294,168,157917,1,0,0:0:0:0:
294,168,158128,1,0,0:0:0:0:
294,168,158480,1,0,0:0:0:0:
23,352,160030,1,0,0:0:0:0:
23,352,160311,1,0,0:0:0:0:
23,352,160593,1,0,0:0:0:0:
495,13,162213,1,0,0:0:0:0:
495,13,162424,1,0,0:0:0:0:
495,13,162706,1,0,0:0:0:0:
477,327,163339,1,0,0:0:0:0:
477,327,163551,1,0,0:0:0:0:
477,327,163832,1,0,0:0:0:0:
244,163,164959,1,0,0:0:0:0:
274,195,166579,1,0,0:0:0:0:
200,240,167635,1,0,0:0:0:0:
329,75,169818,1,0,0:0:0:0:
12,360,170875,1,0,0:0:0:0:
17,20,171931,1,0,0:0:0:0:
501,361,173058,1,0,0:0:0:0:
493,31,174114,1,0,0:0:0:0:
307,118,174607,1,0,0:0:0:0:
197,189,175170,1,0,0:0:0:0:
115,244,175734,1,0,0:0:0:0:
309,284,176297,1,0,0:0:0:0:
243,142,176790,1,0,0:0:0:0:
162,238,177424,1,0,0:0:0:0:
304,228,177917,1,0,0:0:0:0:
259,167,178480,1,0,0:0:0:0:
251,86,179044,1,0,0:0:0:0:
341,82,179537,1,0,0:0:0:0:
261,83,180100,1,0,0:0:0:0:
254,170,180663,1,0,0:0:0:0:
241,256,181156,1,0,0:0:0:0:
241,300,181649,1,0,0:0:0:0:
163,300,182213,1,0,0:0:0:0:
141,201,182776,1,0,0:0:0:0:
252,175,183269,1,0,0:0:0:0:
172,78,183832,1,0,0:0:0:0:
159,239,184325,1,0,0:0:0:0:
359,93,184889,1,0,0:0:0:0:
162,116,185452,1,0,0:0:0:0:
236,216,185945,1,0,0:0:0:0:
251,96,186508,1,0,0:0:0:0:
257,188,187072,1,0,0:0:0:0:
256,106,187635,1,0,0:0:0:0:
334,103,188199,1,0,0:0:0:0:
256,106,188691,1,0,0:0:0:0:
257,190,189255,1,0,0:0:0:0:
338,191,189818,1,0,0:0:0:0:
334,254,190311,1,0,0:0:0:0:
344,195,190945,1,0,0:0:0:0:
265,200,191438,1,0,0:0:0:0:
