osu file format v14

[General]
AudioFilename: audio.mp3
AudioLeadIn: 0
PreviewTime: -1
Countdown: 1
SampleSet: Normal
StackLeniency: 0.7
Mode: 0
LetterboxInBreaks: 0
EpilepsyWarning: 1
WidescreenStoryboard: 1

[Editor]
Bookmarks: 128801
DistanceSpacing: 0.8
BeatDivisor: 4
GridSize: 32
TimelineZoom: 1

[Metadata]
Title:Vampire Girl
TitleUnicode:Vampire Girl
Artist:mina_x7
ArtistUnicode:mina_x7
Creator:DatMan212
Version:Going up the stairs...
Source:
Tags:
BeatmapID:2021051
BeatmapSetID:962941

[Difficulty]
HPDrainRate:5
CircleSize:5
OverallDifficulty:5
ApproachRate:5
SliderMultiplier:1.4
SliderTickRate:1

[Events]
//Background and Video events
0,0,"download.jpg",0,0
//Break Periods
2,155441,164252
//Storyboard Layer 0 (Background)
//Storyboard Layer 1 (Fail)
//Storyboard Layer 2 (Pass)
//Storyboard Layer 3 (Foreground)
//Storyboard Sound Samples

[TimingPoints]
2283.54929577465,281.69014084507,4,1,0,100,1,0

[HitObjects]
256,192,30,12,0,2283,0:0:0:0:
235,175,4396,5,0,0:0:0:0:
114,196,6227,1,0,0:0:0:0:
117,235,6579,1,0,0:0:0:0:
246,197,6861,1,0,0:0:0:0:
256,248,7635,1,0,0:0:0:0:
165,165,8762,1,0,0:0:0:0:
115,255,9818,1,0,0:0:0:0:
115,255,10170,1,0,0:0:0:0:
115,255,10593,1,0,0:0:0:0:
194,208,10804,1,0,0:0:0:0:
252,217,11438,1,0,0:0:0:0:
268,159,11931,1,0,0:0:0:0:
179,147,12494,1,0,0:0:0:0:
194,263,12987,1,0,0:0:0:0:
285,284,13269,1,0,0:0:0:0:
328,238,13551,1,0,0:0:0:0:
297,165,13832,1,0,0:0:0:0:
256,144,14114,1,0,0:0:0:0:
145,173,14396,1,0,0:0:0:0:
111,220,14677,1,0,0:0:0:0:
238,284,15170,1,0,0:0:0:0:
318,193,15663,1,0,0:0:0:0:
186,110,16227,1,0,0:0:0:0:
143,220,16790,1,0,0:0:0:0:
241,268,17353,1,0,0:0:0:0:
336,231,17635,1,0,0:0:0:0:
306,128,17846,1,0,0:0:0:0:
172,126,18199,1,0,0:0:0:0:
136,209,18480,1,0,0:0:0:0:
205,289,18903,1,0,0:0:0:0:
343,248,19466,1,0,0:0:0:0:
175,109,20593,1,0,0:0:0:0:
156,176,20875,1,0,0:0:0:0:
163,218,21086,1,0,0:0:0:0:
333,225,22001,1,0,0:0:0:0:
301,160,22213,1,0,0:0:0:0:
240,135,22494,1,0,0:0:0:0:
171,224,23339,1,0,0:0:0:0:
255,271,23621,1,0,0:0:0:0:
314,271,23903,1,0,0:0:0:0:
202,106,24677,1,0,0:0:0:0:
168,215,24959,1,0,0:0:0:0:
172,274,25241,1,0,0:0:0:0:
230,155,26015,1,0,0:0:0:0:
142,222,26297,1,0,0:0:0:0:
122,261,26508,1,0,0:0:0:0:
272,268,27353,1,0,0:0:0:0:
279,227,27635,1,0,0:0:0:0:
276,195,27917,1,0,0:0:0:0:
173,248,28762,1,0,0:0:0:0:
252,300,28973,1,0,0:0:0:0:
423,281,29255,1,0,0:0:0:0:
322,174,30100,1,0,0:0:0:0:
225,242,30382,1,0,0:0:0:0:
157,271,30593,1,0,0:0:0:0:
255,186,31579,6,0,B|114:140|112:132|230:76,1,210
270,170,32494,1,0,0:0:0:0:
266,173,33058,1,0,0:0:0:0:
228,210,33551,2,0,P|158:153|200:122,1,140
169,135,33973,2,0,P|253:93|213:208,1,280
222,209,34677,2,0,P|135:200|178:130,1,175
165,131,35170,2,0,P|229:80|221:206,1,280
187,143,36297,5,0,0:0:0:0:
190,171,36790,1,0,0:0:0:0:
256,210,37353,1,0,0:0:0:0:
302,204,37846,1,0,0:0:0:0:
317,135,38410,1,0,0:0:0:0:
263,122,38973,1,0,0:0:0:0:
226,142,39537,1,0,0:0:0:0:
226,198,40030,1,0,0:0:0:0:
135,191,41156,1,0,0:0:0:0:
123,160,41649,1,0,0:0:0:0:
121,126,41931,1,0,0:0:0:0:
141,113,42213,1,0,0:0:0:0:
235,153,43339,1,0,0:0:0:0:
181,208,43832,1,0,0:0:0:0:
139,202,44114,1,0,0:0:0:0:
103,180,44396,1,0,0:0:0:0:
215,109,45452,1,0,0:0:0:0:
205,164,45945,1,0,0:0:0:0:
149,206,46227,1,0,0:0:0:0:
117,225,46508,1,0,0:0:0:0:
172,273,47072,1,0,0:0:0:0:
294,248,47635,1,0,0:0:0:0:
272,180,48199,1,0,0:0:0:0:
210,160,48480,1,0,0:0:0:0:
165,242,49818,1,0,0:0:0:0:
227,222,50382,1,0,0:0:0:0:
210,185,50875,1,0,0:0:0:0:
166,164,51438,1,0,0:0:0:0:
145,210,51931,1,0,0:0:0:0:
188,246,52213,1,0,0:0:0:0:
251,251,52494,1,0,0:0:0:0:
266,220,52987,1,0,0:0:0:0:
263,211,53269,1,0,0:0:0:0:
243,193,53621,1,0,0:0:0:0:
168,193,54114,1,0,0:0:0:0:
112,207,54677,1,0,0:0:0:0:
164,149,55170,1,0,0:0:0:0:
235,165,55734,1,0,0:0:0:0:
316,193,56297,1,0,0:0:0:0:
156,244,56790,1,0,0:0:0:0:
174,94,57353,1,0,0:0:0:0:
272,201,57917,1,0,0:0:0:0:
126,237,58410,1,0,0:0:0:0:
219,135,58762,1,0,0:0:0:0:
314,262,58973,1,0,0:0:0:0:
123,252,59325,1,0,0:0:0:0:
143,149,59537,1,0,0:0:0:0:
243,160,60030,1,0,0:0:0:0:
324,173,60663,1,0,0:0:0:0:
244,233,61156,1,0,0:0:0:0:
165,178,61720,1,0,0:0:0:0:
145,212,61931,1,0,0:0:0:0:
128,223,62213,1,0,0:0:0:0:
115,94,62776,1,0,0:0:0:0:
318,224,63832,1,0,0:0:0:0:
228,79,64889,1,0,0:0:0:0:
222,251,65452,1,0,0:0:0:0:
142,126,66015,1,0,0:0:0:0:
339,171,66579,1,0,0:0:0:0:
170,255,67072,1,0,0:0:0:0:
241,142,67635,1,0,0:0:0:0:
139,148,68128,1,0,0:0:0:0:
249,186,70311,1,0,0:0:0:0:
249,186,70593,1,0,0:0:0:0:
249,186,70875,1,0,0:0:0:0:
249,186,71156,1,0,0:0:0:0:
249,186,71368,1,0,0:0:0:0:
249,186,71720,1,0,0:0:0:0:
249,186,72001,1,0,0:0:0:0:
249,186,72283,1,0,0:0:0:0:
249,186,72565,1,0,0:0:0:0:
248,183,74607,1,0,0:0:0:0:
249,188,74889,1,0,0:0:0:0:
249,188,75170,1,0,0:0:0:0:
249,189,75452,1,0,0:0:0:0:
249,188,75734,1,0,0:0:0:0:
249,188,76015,1,0,0:0:0:0:
249,189,76297,1,0,0:0:0:0:
249,188,76508,1,0,0:0:0:0:
251,191,78903,1,0,0:0:0:0:
251,191,79184,1,0,0:0:0:0:
251,191,79466,1,0,0:0:0:0:
251,191,79748,1,0,0:0:0:0:
251,191,80030,1,0,0:0:0:0:
251,191,80311,1,0,0:0:0:0:
251,191,80593,1,0,0:0:0:0:
251,191,80875,1,0,0:0:0:0:
252,191,83269,1,0,0:0:0:0:
252,191,83551,1,0,0:0:0:0:
252,191,83832,1,0,0:0:0:0:
252,191,84114,1,0,0:0:0:0:
252,191,84325,1,0,0:0:0:0:
252,191,84607,1,0,0:0:0:0:
252,191,84959,1,0,0:0:0:0:
252,191,85170,1,0,0:0:0:0:
247,188,87635,1,0,0:0:0:0:
247,188,87917,1,0,0:0:0:0:
247,188,88128,1,0,0:0:0:0:
247,188,88410,1,0,0:0:0:0:
247,188,88691,1,0,0:0:0:0:
247,188,88973,1,0,0:0:0:0:
247,188,89255,1,0,0:0:0:0:
247,188,89466,1,0,0:0:0:0:
246,189,92001,1,0,0:0:0:0:
246,189,92213,1,0,0:0:0:0:
246,189,92494,1,0,0:0:0:0:
246,189,92776,1,0,0:0:0:0:
246,189,93058,1,0,0:0:0:0:
246,189,93269,1,0,0:0:0:0:
246,189,93551,1,0,0:0:0:0:
245,164,96227,1,0,0:0:0:0:
245,164,96508,1,0,0:0:0:0:
245,164,96790,1,0,0:0:0:0:
245,164,97072,1,0,0:0:0:0:
245,164,97353,1,0,0:0:0:0:
245,164,97635,1,0,0:0:0:0:
245,164,97917,1,0,0:0:0:0:
246,162,100522,1,0,0:0:0:0:
246,162,100804,1,0,0:0:0:0:
246,162,101086,1,0,0:0:0:0:
246,162,101368,1,0,0:0:0:0:
246,162,101649,1,0,0:0:0:0:
246,162,102001,1,0,0:0:0:0:
246,162,102213,1,0,0:0:0:0:
204,176,102776,1,0,0:0:0:0:
186,271,103269,1,0,0:0:0:0:
292,285,103832,1,0,0:0:0:0:
304,191,104396,1,0,0:0:0:0:
203,151,105030,1,0,0:0:0:0:
181,204,105311,1,0,0:0:0:0:
251,254,105593,1,0,0:0:0:0:
292,244,105875,1,0,0:0:0:0:
310,206,106156,1,0,0:0:0:0:
307,188,106438,1,0,0:0:0:0:
308,180,106720,1,0,0:0:0:0:
298,164,107001,1,0,0:0:0:0:
181,189,107142,1,0,0:0:0:0:
142,238,107635,1,0,0:0:0:0:
224,276,108128,1,0,0:0:0:0:
292,240,108691,1,0,0:0:0:0:
272,174,109184,1,0,0:0:0:0:
181,179,109466,1,0,0:0:0:0:
180,257,109818,1,0,0:0:0:0:
257,290,110100,1,0,0:0:0:0:
327,270,110311,1,0,0:0:0:0:
327,211,110593,1,0,0:0:0:0:
296,165,110875,1,0,0:0:0:0:
140,82,111438,1,0,0:0:0:0:
118,211,111931,1,0,0:0:0:0:
257,262,112424,1,0,0:0:0:0:
330,123,113058,1,0,0:0:0:0:
162,111,113621,1,0,0:0:0:0:
170,222,114677,1,0,0:0:0:0:
228,228,115100,1,0,0:0:0:0:
252,197,115663,1,0,0:0:0:0:
97,173,116790,1,0,0:0:0:0:
353,182,117917,1,0,0:0:0:0:
188,211,118973,1,0,0:0:0:0:
188,211,119184,1,0,0:0:0:0:
188,211,119466,1,0,0:0:0:0:
188,211,119607,1,0,0:0:0:0:
181,211,119818,1,0,0:0:0:0:
281,229,120030,1,0,0:0:0:0:
286,127,121156,1,0,0:0:0:0:
142,131,122283,1,0,0:0:0:0:
240,194,123339,1,0,0:0:0:0:
240,194,123832,1,0,0:0:0:0:
240,194,124114,1,0,0:0:0:0:
234,191,124396,1,0,0:0:0:0:
211,237,125452,1,0,0:0:0:0:
271,195,126579,1,0,0:0:0:0:
208,205,128691,1,0,0:0:0:0:
178,197,131931,1,0,0:0:0:0:
359,111,134114,1,0,0:0:0:0:
141,278,136297,1,0,0:0:0:0:
298,235,138410,1,0,0:0:0:0:
286,199,138621,1,0,0:0:0:0:
155,182,140030,1,0,0:0:0:0:
276,189,140522,1,0,0:0:0:0:
255,215,140804,1,0,0:0:0:0:
215,168,141649,1,0,0:0:0:0:
294,200,142072,1,0,0:0:0:0:
246,231,142424,1,0,0:0:0:0:
212,213,142706,1,0,0:0:0:0:
273,156,143832,1,0,0:0:0:0:
222,209,144466,1,0,0:0:0:0:
163,160,144889,1,0,0:0:0:0:
295,191,145170,1,0,0:0:0:0:
216,252,146015,1,0,0:0:0:0:
218,187,146508,1,0,0:0:0:0:
320,227,147072,1,0,0:0:0:0:
328,144,147353,1,0,0:0:0:0:
225,138,147635,1,0,0:0:0:0:
166,201,147917,1,0,0:0:0:0:
131,231,148199,1,0,0:0:0:0:
82,201,148480,1,0,0:0:0:0:
110,149,148762,1,0,0:0:0:0:
159,122,149044,1,0,0:0:0:0:
233,161,149255,1,0,0:0:0:0:
248,236,149537,1,0,0:0:0:0:
294,275,149818,1,0,0:0:0:0:
343,261,150100,1,0,0:0:0:0:
368,193,150382,1,0,0:0:0:0:
354,160,150663,1,0,0:0:0:0:
294,131,150875,1,0,0:0:0:0:
216,162,151156,1,0,0:0:0:0:
166,215,151438,1,0,0:0:0:0:
122,191,151720,1,0,0:0:0:0:
97,126,151931,1,0,0:0:0:0:
147,105,152213,1,0,0:0:0:0:
242,139,152494,1,0,0:0:0:0:
265,201,152776,1,0,0:0:0:0:
301,258,152987,1,0,0:0:0:0:
334,258,153269,1,0,0:0:0:0:
387,219,153551,1,0,0:0:0:0:
374,163,153832,1,0,0:0:0:0:
320,109,154114,1,0,0:0:0:0:
269,106,154396,1,0,0:0:0:0:
227,138,154677,1,0,0:0:0:0:
203,171,154959,1,0,0:0:0:0:
133,188,155241,1,0,0:0:0:0:
255,193,165452,5,0,0:0:0:0:
252,192,167635,1,0,0:0:0:0:
243,197,169818,1,0,0:0:0:0:
277,167,170875,1,0,0:0:0:0:
248,203,172001,1,0,0:0:0:0:
210,151,173058,1,0,0:0:0:0:
275,147,174114,1,0,0:0:0:0:
254,168,175170,1,0,0:0:0:0:
254,168,175382,1,0,0:0:0:0:
254,168,175663,1,0,0:0:0:0:
254,168,175945,1,0,0:0:0:0:
254,168,176227,1,0,0:0:0:0:
219,195,177353,1,0,0:0:0:0:
219,195,177565,1,0,0:0:0:0:
219,195,177917,1,0,0:0:0:0:
179,135,178410,1,0,0:0:0:0:
284,185,179537,1,0,0:0:0:0:
173,218,180522,1,0,0:0:0:0:
246,193,181649,1,0,0:0:0:0:
229,224,182776,1,0,0:0:0:0:
154,197,183832,1,0,0:0:0:0:
250,161,184889,1,0,0:0:0:0:
224,203,185522,1,0,0:0:0:0:
135,187,185945,1,0,0:0:0:0:
288,123,186579,1,0,0:0:0:0:
439,244,187072,1,0,0:0:0:0:
205,280,188128,1,0,0:0:0:0:
175,147,189255,1,0,0:0:0:0:
299,123,190382,1,0,0:0:0:0:
293,186,190945,1,0,0:0:0:0:
256,192,191438,12,0,194255,0:0:0:0:
