osu file format v14

[General]
AudioFilename: audio.mp3
AudioLeadIn: 0
PreviewTime: 28185
Countdown: 0
SampleSet: Soft
StackLeniency: 0.7
Mode: 0
LetterboxInBreaks: 0
WidescreenStoryboard: 1

[Editor]
DistanceSpacing: 1
BeatDivisor: 4
GridSize: 4
TimelineZoom: 1

[Metadata]
Title:Shiroi Tori
TitleUnicode:白い鳥
Artist:mimimemeMIMI
ArtistUnicode:みみめめMIMI
Creator:samplefish
Version:Normal
Source:
Tags:きみのヒロインになりたくて Kimi no Heroine lanturn ni Naritakute White Bird タカオ ユキ Takao Yuki ユカ Yuka fhána fhana mafumafu
BeatmapID:1496153
BeatmapSetID:707085

[Difficulty]
HPDrainRate:3
CircleSize:3.5
OverallDifficulty:3
ApproachRate:5
SliderMultiplier:2
SliderTickRate:1

[Events]
//Background and Video events
0,0,"Shiroi+Tori.jpg",0,0
//Break Periods
//Storyboard Layer 0 (Background)
//Storyboard Layer 1 (Fail)
//Storyboard Layer 2 (Pass)
//Storyboard Layer 3 (Foreground)
//Storyboard Sound Samples

[TimingPoints]
509,784.313725490196,4,2,1,50,1,0
705,781.758957654723,4,2,1,50,1,0
1096,805.369127516779,4,2,1,50,1,0
1498,842.696629213483,4,2,1,50,1,0
2341,810.810810810811,4,2,1,50,1,0
15313,-100,4,2,1,70,0,0
29911,810.810810810811,4,2,1,90,1,1
54235,-100,4,2,1,90,0,0
60721,-74.0740740740741,4,2,1,30,0,0
61532,-74.0740740740741,4,2,1,25,0,0
62343,-74.0740740740741,4,2,1,20,0,0
63154,-74.0740740740741,4,2,1,15,0,0
63965,-74.0740740740741,4,2,1,20,0,0
64775,-74.0740740740741,4,2,1,25,0,0
65586,-74.0740740740741,4,2,1,30,0,0
66397,-74.0740740740741,4,2,1,35,0,0
67006,-100,4,2,1,5,0,0
67208,-50,4,2,1,5,0,0

[Colours]
Combo1 : 255,208,206
Combo2 : 255,255,255
Combo3 : 255,243,198
Combo4 : 206,215,255

[HitObjects]
196,232,509,5,2,0:0:0:0:
196,232,705,1,2,0:0:0:0:
165,139,1096,1,2,0:0:0:0:
226,65,1498,1,2,0:0:0:0:
360,220,2341,6,0,P|366:263|368:328,1,100,2|0,0:0|0:0,0:0:0:0:
280,367,3151,2,0,P|242:338|188:344,1,100,0|0,0:0|0:0,0:0:0:0:
94,364,3962,2,0,L|80:264,1,100,2|2,0:0|0:0,0:0:0:0:
66,165,4773,1,2,0:0:0:0:
212,29,5584,6,0,P|240:75|233:132,2,100,2|0|0,0:0|0:0|0:0,0:0:0:0:
140,99,6800,2,0,L|151:200,1,100,2|0,0:0|0:0,0:0:0:0:
250,209,7611,1,2,0:0:0:0:
295,119,8016,1,2,0:0:0:0:
392,96,8422,1,2,0:0:0:0:
476,149,8827,6,0,P|476:192|463:279,1,100
395,316,9638,1,2,0:0:0:0:
306,269,10043,1,2,0:0:0:0:
351,179,10449,2,0,L|336:56,1,100,0|2,0:0|0:0,0:0:0:0:
183,205,11665,1,2,0:0:0:0:
256,136,12070,6,0,P|210:108|127:124,2,100
411,261,13692,1,2,0:0:0:0:
454,170,14097,2,0,L|465:37,1,100,2|0,0:0|0:0,0:0:0:0:
377,16,14908,2,0,L|368:86,1,50,2|2,0:0|0:0,0:0:0:0:
365,115,15313,6,0,P|322:104|252:123,1,100
233,208,16124,2,0,P|184:218|136:207,1,100
98,174,16732,1,2,0:0:0:0:
98,174,16935,2,0,P|88:123|84:40,2,100,2|2|0,0:0|0:0|0:0,0:0:0:0:
126,270,18151,1,2,0:0:0:0:
196,341,18557,6,0,P|244:317|319:340,1,100,2|0,0:0|0:0,0:0:0:0:
373,375,19368,1,0,0:0:0:0:
453,315,19773,2,0,L|432:236,1,50,2|2,0:0|0:0,0:0:0:0:
420,220,20178,2,0,P|424:168|436:109,1,100
441,21,20989,2,0,P|408:13|339:64,1,100
335,88,21597,1,2,0:0:0:0:
335,88,21800,6,0,P|287:79|222:75,1,100,2|0,0:0|0:0,0:0:0:0:
181,158,22611,2,0,P|229:167|294:171,1,100,2|0,0:0|0:0,0:0:0:0:
380,167,23422,1,2,0:0:0:0:
446,241,23827,2,0,P|465:286|440:359,1,100,2|0,0:0|0:0,0:0:0:0:
364,373,24638,1,2,0:0:0:0:
264,363,25043,6,0,L|134:350,1,100
72,314,25854,1,0,0:0:0:0:
52,216,26259,1,0,0:0:0:0:
121,144,26665,1,0,0:0:0:0:
121,144,28286,5,2,0:0:0:0:
220,120,28692,1,2,0:0:0:0:
256,28,29097,1,2,0:0:0:0:
344,152,29705,1,2,0:0:0:0:
344,152,29911,6,0,P|340:204|332:264,1,100,4|0,0:0|0:0,0:0:0:0:
300,348,30721,2,0,P|260:320|192:348,1,100,8|0,0:0|0:0,0:0:0:0:
164,348,31329,1,2,0:0:0:0:
164,348,31532,2,0,L|152:240,1,100,2|2,0:0|0:0,0:0:0:0:
64,200,32342,2,0,L|75:100,1,100,10|0,0:0|0:0,0:0:0:0:
76,52,32951,1,2,0:0:0:0:
76,52,33153,6,0,P|128:32|176:56,1,100,2|0,0:0|0:0,0:0:0:0:
197,142,33964,2,0,P|243:157|288:137,1,100,8|0,0:0|0:0,0:0:0:0:
311,92,34572,1,2,0:0:0:0:
311,92,34775,2,0,P|355:71|402:86,1,100,2|2,0:0|0:0,0:0:0:0:
488,138,35586,1,10,0:0:0:0:
466,235,35991,6,0,P|466:282|455:352,1,100,2|0,0:0|0:0,0:0:0:0:
370,287,36802,2,0,P|370:237|377:187,1,100,2|8,0:0|0:0,0:0:0:0:
455,125,37613,2,0,P|430:101|327:105,1,100,2|0,0:0|0:0,0:0:0:0:
279,134,38424,2,0,P|230:127|191:96,1,100,2|8,0:0|0:0,0:0:0:0:
140,11,39234,1,2,0:0:0:0:
56,66,39640,6,0,L|63:172,1,100,0|0,0:0|0:0,0:0:0:0:
161,183,40451,2,0,L|154:282,1,100,8|0,0:0|0:0,0:0:0:0:
149,332,41059,1,2,0:0:0:0:
149,332,41261,2,0,P|209:316|275:336,1,100,2|2,0:0|0:0,0:0:0:0:
290,343,41870,2,0,B|341:356|341:356|422:328,2,100,2|2|2,0:0|0:0|0:0,0:0:0:0:
275,295,42883,6,0,P|278:242|289:176,1,100,0|0,0:0|0:0,0:0:0:0:
318,105,43694,2,0,P|362:129|382:174,1,100,8|0,0:0|0:0,0:0:0:0:
379,223,44302,1,2,0:0:0:0:
379,223,44505,2,0,P|375:280|374:325,2,100,2|2|8,0:0|0:0|0:0,0:0:0:0:
384,122,45721,1,2,0:0:0:0:
411,26,46126,6,0,P|360:23|304:63,1,100,2|0,0:0|0:0,0:0:0:0:
237,104,46937,2,0,P|186:107|130:67,1,100,8|2,0:0|0:0,0:0:0:0:
119,41,47545,1,2,0:0:0:0:
119,41,47748,2,0,L|126:140,1,100
34,179,48559,2,0,L|26:278,1,100,8|0,0:0|0:0,0:0:0:0:
22,328,49167,1,2,0:0:0:0:
22,328,49370,6,0,P|66:309|127:332,1,100,2|2,0:0|0:0,0:0:0:0:
204,365,50180,1,8,0:0:0:0:
283,304,50586,1,2,0:0:0:0:
382,316,50991,2,0,P|374:270|412:208,1,100,2|2,0:0|0:0,0:0:0:0:
493,201,51802,2,0,P|471:155|404:126,1,100,10|0,0:0|0:0,0:0:0:0:
332,121,52613,6,0,P|331:72|328:15,1,100,2|0,0:0|0:0,0:0:0:0:
232,0,53424,2,0,P|229:49|228:99,1,100,8|0,0:0|0:0,0:0:0:0:
256,192,54234,1,2,0:0:0:0:
188,104,56667,6,0,L|204:220,1,100,2|2,0:0|0:0,0:0:0:0:
232,244,57275,2,0,P|272:216|348:232,1,100,2|2,0:0|0:0,0:0:0:0:
372,228,57883,1,2,0:0:0:0:
304,316,60721,5,2,0:0:0:0:
256,192,60822,12,0,67106,0:0:0:0:
