osu file format v14

[General]
AudioFilename: audio.mp3
AudioLeadIn: 0
PreviewTime: 28185
Countdown: 0
SampleSet: Soft
StackLeniency: 0.7
Mode: 0
LetterboxInBreaks: 0
WidescreenStoryboard: 1

[Editor]
DistanceSpacing: 1.8
BeatDivisor: 8
GridSize: 4
TimelineZoom: 1

[Metadata]
Title:Shiroi Tori
TitleUnicode:白い鳥
Artist:mimimemeMIMI
ArtistUnicode:みみめめMIMI
Creator:samplefish
Version:Lanturn's Piano Advanced
Source:
Tags:きみのヒロインになりたくて Kimi no Heroine lanturn ni Naritakute White Bird タカオ ユキ Takao Yuki ユカ Yuka fhána fhana mafumafu
BeatmapID:1496724
BeatmapSetID:707085

[Difficulty]
HPDrainRate:4
CircleSize:5
OverallDifficulty:4
ApproachRate:6
SliderMultiplier:1.4
SliderTickRate:1

[Events]
//Background and Video events
0,0,"Shiroi+Tori.jpg",0,0
//Break Periods
//Storyboard Layer 0 (Background)
//Storyboard Layer 1 (Fail)
//Storyboard Layer 2 (Pass)
//Storyboard Layer 3 (Foreground)
//Storyboard Sound Samples

[TimingPoints]
509,784.313725490196,4,2,1,70,1,0
705,781.758957654723,4,2,1,70,1,0
1096,805.369127516779,4,2,1,70,1,0
1498,842.696629213483,4,2,1,70,1,0
1498,-57.1428571428571,4,2,1,70,0,0
1919,-57.1428571428571,4,2,1,5,0,0
2341,810.810810810811,4,2,1,70,1,0
2341,-57.1428571428571,4,2,1,70,0,0
3151,-57.1428571428571,4,2,1,5,0,0
3759,-57.1428571428571,4,2,1,70,0,0
5178,-57.1428571428571,4,2,1,5,0,0
5584,-57.1428571428571,4,2,1,70,0,0
6395,-57.1428571428571,4,2,1,5,0,0
6800,-57.1428571428571,4,2,1,65,0,0
7205,-57.1428571428571,4,2,1,5,0,0
7611,-57.1428571428571,4,2,1,65,0,0
8827,-57.1428571428571,4,2,1,5,0,0
9638,-57.1428571428571,4,2,1,65,0,0
10449,-57.1428571428571,4,2,1,5,0,0
10854,-57.1428571428571,4,2,1,65,0,0
11259,-57.1428571428571,4,2,1,5,0,0
11665,-57.1428571428571,4,2,1,65,0,0
12070,-57.1428571428571,4,2,1,5,0,0
13489,-57.1428571428571,4,2,1,65,0,0
14503,-57.1428571428571,4,2,1,5,0,0
14908,-57.1428571428571,4,2,1,65,0,0
16124,-57.1428571428571,4,2,1,5,0,0
16732,-57.1428571428571,4,2,1,65,0,0
19368,-57.1428571428571,4,2,1,5,0,0
19773,-57.1428571428571,4,2,1,65,0,0
20989,-57.1428571428571,4,2,1,5,0,0
21597,-57.1428571428571,4,2,1,65,0,0
22205,-57.1428571428571,4,2,1,5,0,0
22611,-57.1428571428571,4,2,1,65,0,0
23016,-57.1428571428571,4,2,1,5,0,0
23422,-57.1428571428571,4,2,1,65,0,0
24232,-57.1428571428571,4,2,1,5,0,0
24638,-57.1428571428571,4,2,1,65,0,0
26665,-57.1428571428571,4,2,1,5,0,0
28286,-57.1428571428571,4,2,1,65,0,0
29911,810.810810810811,4,2,1,85,1,1
29911,-50,4,2,1,85,0,1
36397,-50,4,2,1,5,0,1
36802,-50,4,2,1,85,0,1
38019,-50,4,2,1,5,0,1
38424,-50,4,2,1,85,0,1
50992,-50,4,2,1,5,0,1
51397,-50,4,2,1,85,0,1
52208,-50,4,2,1,5,0,1
52613,-50,4,2,1,85,0,1
54235,-60.2409638554217,4,2,1,90,0,0
55654,-60.2409638554217,4,2,1,5,0,0
56667,-60.2409638554217,4,2,1,55,0,0
57883,-60.2409638554217,4,2,1,40,0,0
58694,-60.2409638554217,4,2,1,20,0,0
59505,-60.2409638554217,4,2,1,10,0,0
59911,-60.2409638554217,4,2,1,5,0,0
60721,-74.0740740740741,4,2,1,30,0,0
61532,-74.0740740740741,4,2,1,25,0,0
62343,-74.0740740740741,4,2,1,20,0,0
63154,-74.0740740740741,4,2,1,15,0,0
63965,-74.0740740740741,4,2,1,20,0,0
64775,-74.0740740740741,4,2,1,25,0,0
65586,-74.0740740740741,4,2,1,30,0,0
66397,-74.0740740740741,4,2,1,35,0,0
67208,-50,4,2,1,5,0,0

[Colours]
Combo1 : 255,208,206
Combo2 : 255,255,255
Combo3 : 255,243,198
Combo4 : 206,215,255

[HitObjects]
256,131,509,5,0,0:0:0:0:
256,131,705,1,2,0:0:0:0:
184,256,1095,1,0,0:0:0:0:
328,256,1498,2,0,P|384:223|406:171,1,122.500001168251,2|0,0:0|0:0,0:0:0:0:
368,28,2341,6,0,B|304:0|256:168|208:0|144:28,1,245.000002336502,2|0,0:0|0:0,0:0:0:0:
128,248,3759,1,0,0:0:0:0:
128,248,3962,1,2,0:0:0:0:
256,320,4368,1,0,0:0:0:0:
384,248,4773,2,0,B|408:204|364:176|384:128,1,122.500001168251,2|0,0:0|0:0,0:0:0:0:
472,248,5584,6,0,P|393:337|302:282,1,245.000002336502,2|0,0:0|0:0,0:0:0:0:
232,152,6800,2,0,B|176:132|176:180|113:152,1,122.500001168251,2|0,0:0|0:0,0:0:0:0:
4,52,7611,1,2,0:0:0:0:
148,84,8016,1,2,0:0:0:0:
28,172,8422,2,0,P|58:223|115:240,1,122.500001168251,2|0,0:0|0:0,0:0:0:0:
115,240,9638,5,0,0:0:0:0:
237,320,10043,2,0,P|294:344|354:346,1,122.500001168251,2|0,0:0|0:0,0:0:0:0:
470,252,10854,2,0,P|482:192|470:132,1,122.500001168251,2|0,0:0|0:0,0:0:0:0:
354,37,11665,2,0,P|294:39|237:63,1,122.500001168251,2|0,0:0|0:0,0:0:0:0:
256,188,13489,5,2,0:0:0:0:
256,188,13692,1,2,0:0:0:0:
312,324,14097,2,0,P|256:345|200:324,1,122.500001168251,2|0,0:0|0:0,0:0:0:0:
72,252,14908,1,2,0:0:0:0:
72,252,15111,6,0,B|72:216|49:197|49:197|96:148|49:87|49:87|98:28|159:68,1,306.250002920628,2|0,0:0|0:0,0:0:0:0:
256,260,16732,1,0,0:0:0:0:
256,260,16935,1,2,0:0:0:0:
404,256,17341,1,0,0:0:0:0:
108,256,18151,1,0,0:0:0:0:
108,256,18557,6,0,B|164:136|28:144|104:28,1,245.000002336502,2|0,0:0|0:0,0:0:0:0:
252,27,19773,1,0,0:0:0:0:
252,27,19976,2,0,B|238:53|259:85|259:85|202:205|338:197|263:314,1,306.250002920628,2|0,0:0|0:0,0:0:0:0:
44,344,21597,1,0,0:0:0:0:
44,344,21800,6,0,P|16:276|32:204,1,122.500001168251,2|0,0:0|0:0,0:0:0:0:
164,192,22611,2,0,P|160:252|186:307,1,122.500001168251,2|0,0:0|0:0,0:0:0:0:
328,268,23422,1,2,0:0:0:0:
328,268,23827,2,0,P|301:213|305:152,1,122.500001168251,2|0,0:0|0:0,0:0:0:0:
448,116,24638,1,2,0:0:0:0:
256,192,25043,12,0,26665,0:0:0:0:
112,132,28286,5,2,0:0:0:0:
256,96,28692,1,2,0:0:0:0:
400,132,29097,1,2,0:0:0:0:
208,240,29705,1,0,0:0:0:0:
208,240,29911,6,0,B|180:288|192:332|232:340|256:318|256:318|280:340|320:332|332:288|304:240,1,280,2|8,0:0|0:0,0:0:0:0:
303,239,31329,1,0,0:0:0:0:
303,239,31532,1,2,0:0:0:0:
256,76,31938,1,2,0:0:0:0:
208,240,32343,1,10,0:0:0:0:
380,56,32951,1,0,0:0:0:0:
380,56,33154,6,0,B|316:40|256:104|256:104|196:40|132:56,1,280,2|8,0:0|0:0,0:0:0:0:
100,308,34573,1,0,0:0:0:0:
100,308,34775,1,2,0:0:0:0:
256,376,35181,1,2,0:0:0:0:
412,308,35586,1,10,0:0:0:0:
487,156,35992,6,0,P|420:141|376:89,1,140,2|0,0:0|0:0,0:0:0:0:
376,88,36802,2,0,P|376:163|308:228,1,140,2|8,0:0|0:0,0:0:0:0:
173,213,37613,2,0,P|133:157|136:89,1,140,2|8,0:0|0:0,0:0:0:0:
136,88,38424,2,0,P|92:140|25:155,1,140,2|8,0:0|0:0,0:0:0:0:
144,276,39235,1,2,0:0:0:0:
144,276,39640,6,0,B|196:300|196:352|256:352|256:352|316:352|316:300|368:276,1,280,2|8,0:0|0:0,0:0:0:0:
340,136,41059,1,0,0:0:0:0:
340,136,41262,1,2,0:0:0:0:
172,136,41667,1,0,0:0:0:0:
172,136,41870,1,2,0:0:0:0:
256,280,42275,1,2,0:0:0:0:
340,136,42681,6,0,P|257:13|172:136,1,350,2|8,0:0|0:0,0:0:0:0:
324,336,44302,1,0,0:0:0:0:
324,336,44505,1,2,0:0:0:0:
476,260,44911,2,0,P|496:192|476:124,1,140,2|8,0:0|0:0,0:0:0:0:
324,48,45721,1,2,0:0:0:0:
156,72,46127,6,0,B|100:132|169:192|169:192|100:252|156:312,1,280,2|8,0:0|0:0,0:0:0:0:
324,336,47343,1,0,0:0:0:0:
324,336,47546,2,0,B|336:268|388:252|388:252|352:192|388:132|388:132|336:116|324:48,1,350,2|8,0:0|0:0,0:0:0:0:
116,192,49167,1,0,0:0:0:0:
116,192,49370,5,2,0:0:0:0:
248,296,49775,2,0,P|314:329|376:304,1,140,2|8,0:0|0:0,0:0:0:0:
316,140,50586,2,0,B|300:180|272:192|272:192|300:204|316:244,1,140,2|0,0:0|0:0,0:0:0:0:
372,76,51397,1,2,0:0:0:0:
372,76,51802,2,0,P|307:55|248:88,1,140,10|8,0:0|0:0,0:0:0:0:
176,240,52613,6,0,B|172:304|212:320|212:320|256:296|300:320|300:320|340:304|336:240,1,280,2|8,0:0|0:0,0:0:0:0:
84,120,54235,6,0,B|152:28|256:28|256:28|360:28|428:120,1,406.700005895462,2|0,0:0|0:0,0:0:0:0:
428,120,56667,5,2,0:0:0:0:
291,147,57073,1,2,0:0:0:0:
291,147,57275,1,2,0:0:0:0:
220,28,57681,1,2,0:0:0:0:
220,28,57883,2,0,B|92:52|176:168|0:192|0:192|176:216|92:332|220:356,1,581.000008422089,2|0,0:0|0:0,0:0:0:0:
296,68,60721,6,0,B|404:12|448:110|356:148|356:148|412:196|488:136|488:136|512:264|440:372|352:316|352:316|308:280|256:316|256:316|204:280|160:316|160:316|72:372|0:264|24:136|24:136|100:196|156:148|156:148|64:108|108:12|216:68,1,1512.00000576782,2|0,0:0|0:0,0:0:0:0:
