osu file format v14

[General]
AudioFilename: audio.mp3
AudioLeadIn: 0
PreviewTime: 28185
Countdown: 0
SampleSet: Soft
StackLeniency: 0.7
Mode: 0
LetterboxInBreaks: 0
WidescreenStoryboard: 0

[Editor]
DistanceSpacing: 1.3
BeatDivisor: 8
GridSize: 16
TimelineZoom: 1

[Metadata]
Title:Shiroi Tori
TitleUnicode:白い鳥
Artist:mimimemeMIMI
ArtistUnicode:みみめめMIMI
Creator:samplefish
Version:Everlasting
Source:
Tags:きみのヒロインになりたくて Kimi no Heroine lanturn ni Naritakute White Bird タカオ ユキ Takao Yuki ユカ Yuka fhána fhana mafumafu
BeatmapID:1494975
BeatmapSetID:707085

[Difficulty]
HPDrainRate:5
CircleSize:4
OverallDifficulty:6
ApproachRate:8
SliderMultiplier:2.8
SliderTickRate:1

[Events]
//Background and Video events
0,0,"Shiroi+Tori.jpg",0,0
//Break Periods
//Storyboard Layer 0 (Background)
//Storyboard Layer 1 (Fail)
//Storyboard Layer 2 (Pass)
//Storyboard Layer 3 (Foreground)
//Storyboard Sound Samples

[TimingPoints]
509,784.313725490196,4,2,1,50,1,0
705,781.758957654723,4,2,1,50,1,0
1096,805.369127516779,4,2,1,50,1,0
1498,842.696629213483,4,2,1,50,1,0
2341,810.810810810811,4,2,1,50,1,0
15313,-100,4,2,1,70,0,0
28286,-100,4,2,1,70,0,0
29911,810.810810810811,4,2,1,90,1,1
29911,-100,4,2,1,90,0,1
54235,-100,4,2,1,90,0,0
60721,-74.0740740740741,4,2,1,30,0,0
61532,-74.0740740740741,4,2,1,25,0,0
62343,-74.0740740740741,4,2,1,20,0,0
63154,-74.0740740740741,4,2,1,15,0,0
63965,-74.0740740740741,4,2,1,20,0,0
64775,-74.0740740740741,4,2,1,25,0,0
65586,-74.0740740740741,4,2,1,30,0,0
66397,-74.0740740740741,4,2,1,35,0,0
67006,-100,4,2,1,5,0,0
67208,-50,4,2,1,5,0,0

[Colours]
Combo1 : 255,208,206
Combo2 : 255,255,255
Combo3 : 255,243,198
Combo4 : 206,215,255

[HitObjects]
172,120,509,5,2,0:0:0:0:
172,120,705,2,0,P|220:88|316:108,1,140,2|2,0:0|0:0,0:0:0:0:
340,264,1498,1,2,0:0:0:0:
340,264,2341,6,0,P|292:296|196:276,1,140,2|0,0:0|0:0,0:0:0:0:
213,287,2949,1,0,0:0:0:0:
141,91,3760,1,2,0:0:0:0:
141,91,3962,6,0,L|155:236,1,140,2|2,0:0|0:0,0:0:0:0:
371,293,4773,1,2,0:0:0:0:
371,293,5584,6,0,L|357:148,1,140,2|0,0:0|0:0,0:0:0:0:
357,153,6192,1,0,0:0:0:0:
213,253,6800,1,2,0:0:0:0:
488,160,7611,1,2,0:0:0:0:
424,40,8016,1,2,0:0:0:0:
288,36,8422,6,0,P|259:63|280:192,1,140,2|0,0:0|0:0,0:0:0:0:
332,343,9638,1,2,0:0:0:0:
192,350,10043,1,2,0:0:0:0:
88,255,10449,6,0,P|78:199|76:105,1,140,0|2,0:0|0:0,0:0:0:0:
338,21,11665,1,2,0:0:0:0:
436,116,12070,6,0,P|435:185|424:255,2,140
257,90,13489,1,2,0:0:0:0:
257,90,13692,6,0,P|246:159|244:229,1,140,2|2,0:0|0:0,0:0:0:0:
245,230,14908,1,2,0:0:0:0:
245,230,15111,1,2,0:0:0:0:
193,306,15313,6,0,L|105:314,1,70
68,238,15719,2,0,L|137:231,1,70
177,149,16124,2,0,L|89:157,1,70
50,83,16530,2,0,L|119:76,1,70,0|2,0:0|0:0,0:0:0:0:
271,123,16935,6,0,P|271:159|247:215,1,70,2|0,0:0|0:0,0:0:0:0:
199,243,17340,2,0,P|259:236|323:295,2,140,2|0|2,0:0|0:0|0:0,0:0:0:0:
125,297,18354,1,0,0:0:0:0:
87,213,18557,6,0,P|82:139|79:65,2,140,2|0|0,0:0|0:0|0:0,0:0:0:0:
196,53,19773,1,2,0:0:0:0:
178,142,19976,1,2,0:0:0:0:
265,118,20178,6,0,P|308:103|357:98,1,70
422,87,20584,2,0,P|421:54|412:4,1,70
389,162,20989,2,0,P|383:196|382:231,1,70
459,281,21395,1,0,0:0:0:0:
374,313,21597,1,2,0:0:0:0:
374,313,21800,6,0,L|225:322,1,140,2|0,0:0|0:0,0:0:0:0:
234,321,22408,1,0,0:0:0:0:
128,318,22611,2,0,P|80:260|95:192,1,140,2|0,0:0|0:0,0:0:0:0:
89,200,23219,1,0,0:0:0:0:
205,120,23422,6,0,P|212:187|166:237,2,140,2|2|0,0:0|0:0|0:0,0:0:0:0:
367,29,24638,1,2,0:0:0:0:
310,100,24840,1,0,0:0:0:0:
395,131,25043,2,0,L|386:211,1,70
298,223,25449,2,0,L|307:303,1,70
387,200,25854,2,0,L|394:130,1,70
298,223,26259,2,0,L|306:293,1,70
390,349,26665,6,0,L|419:346,2,17.5
369,344,28286,5,2,0:0:0:0:
282,237,28692,1,2,0:0:0:0:
256,84,29097,1,2,0:0:0:0:
256,84,29705,1,2,0:0:0:0:
200,232,29911,6,0,L|108:216,1,70,4|0,0:0|0:0,0:0:0:0:
32,136,30316,2,0,L|44:228,1,70
16,328,30722,2,0,B|64:304|64:304|176:324,1,140,8|0,0:0|0:0,0:0:0:0:
244,344,31330,1,2,0:0:0:0:
336,228,31533,6,0,P|312:216|248:216,1,70,2|0,0:0|0:0,0:0:0:0:
332,320,31938,2,0,P|366:317|398:303,1,70,2|0,0:0|0:0,0:0:0:0:
504,208,32343,2,0,L|488:348,1,140,10|0,0:0|0:0,0:0:0:0:
416,220,32952,1,2,0:0:0:0:
416,220,33154,6,0,L|408:124,1,70,2|0,0:0|0:0,0:0:0:0:
500,64,33560,2,0,L|494:133,1,70
416,220,33965,2,0,P|380:232|289:186,1,140,8|0,0:0|0:0,0:0:0:0:
368,148,34573,1,2,0:0:0:0:
264,92,34776,6,0,L|184:76,1,70,2|0,0:0|0:0,0:0:0:0:
136,156,35181,2,0,L|204:169,1,70,2|0,0:0|0:0,0:0:0:0:
72,96,35587,2,0,P|48:156|84:228,1,140,10|2,0:0|0:0,0:0:0:0:
76,221,36195,1,0,0:0:0:0:
184,272,36398,6,0,P|182:308|185:353,1,70
284,252,36803,2,0,P|288:196|288:132,1,105,2|0,0:0|0:0,0:0:0:0:
248,116,37208,2,0,P|320:116|368:48,1,140,8|2,0:0|0:0,0:0:0:0:
284,40,37816,1,0,0:0:0:0:
156,92,38019,6,0,P|156:140|172:184,1,70
240,256,38425,2,0,P|192:250|104:268,1,105,2|0,0:0|0:0,0:0:0:0:
95,287,38830,2,0,L|79:135,1,140,8|2,0:0|0:0,0:0:0:0:
80,147,39438,1,0,0:0:0:0:
192,44,39641,6,0,L|176:140,1,70
168,216,40046,2,0,P|200:204|256:200,1,70
396,252,40452,2,0,P|344:292|272:280,1,140,8|0,0:0|0:0,0:0:0:0:
320,212,41060,1,2,0:0:0:0:
240,352,41262,6,0,L|164:336,1,70,2|0,0:0|0:0,0:0:0:0:
152,232,41668,1,2,0:0:0:0:
56,304,41871,2,0,P|50:267|48:220,1,70,2|8,0:0|0:0,0:0:0:0:
160,162,42276,2,0,P|157:196|151:231,1,70,2|0,0:0|0:0,0:0:0:0:
62,124,42681,1,2,0:0:0:0:
212,80,42884,6,0,P|252:136|236:216,2,140,0|0|8,0:0|0:0|0:0,0:0:0:0:
116,34,43898,1,0,0:0:0:0:
62,124,44100,1,0,0:0:0:0:
160,162,44303,1,2,0:0:0:0:
160,162,44506,6,0,P|202:160|255:153,1,70,2|0,0:0|0:0,0:0:0:0:
316,45,44911,2,0,P|278:49|251:71,1,70,2|0,0:0|0:0,0:0:0:0:
394,221,45316,2,0,P|389:164|310:131,1,140,8|2,0:0|0:0,0:0:0:0:
320,129,45925,1,0,0:0:0:0:
179,221,46127,6,0,L|330:206,2,140,2|0|8,0:0|0:0|0:0,0:0:0:0:
179,221,47141,1,0,0:0:0:0:
82,164,47343,1,2,0:0:0:0:
55,273,47546,1,2,0:0:0:0:
125,361,47749,6,0,L|221:344,1,70
313,363,48154,2,0,P|329:340|334:283,1,70
236,167,48560,2,0,L|259:318,1,140,8|0,0:0|0:0,0:0:0:0:
327,201,49168,1,2,0:0:0:0:
266,79,49371,6,0,P|236:70|194:65,1,70,2|0,0:0|0:0,0:0:0:0:
355,130,49776,2,0,P|389:125|423:116,1,70,2|0,0:0|0:0,0:0:0:0:
512,32,50181,2,0,L|502:182,1,140,8|2,0:0|0:0,0:0:0:0:
502,171,50789,1,0,0:0:0:0:
304,258,50992,6,0,P|281:228|271:165,1,70,2|0,0:0|0:0,0:0:0:0:
384,120,51398,2,0,P|377:157|338:207,1,70,2|0,0:0|0:0,0:0:0:0:
188,101,51803,2,0,P|250:80|306:133,1,140,10|0,0:0|0:0,0:0:0:0:
303,123,52411,1,0,0:0:0:0:
183,189,52614,6,0,L|102:183,1,70,2|0,0:0|0:0,0:0:0:0:
58,293,53019,2,0,L|139:287,1,70
298,218,53425,2,0,P|248:173|183:189,1,140,8|0,0:0|0:0,0:0:0:0:
228,247,54033,1,0,0:0:0:0:
232,73,54235,5,2,0:0:0:0:
232,73,56668,5,2,0:0:0:0:
265,232,57073,1,2,0:0:0:0:
248,152,57276,1,2,0:0:0:0:
281,312,57681,1,2,0:0:0:0:
281,312,57884,1,2,0:0:0:0:
94,361,60722,5,2,0:0:0:0:
256,192,60823,12,0,67107,0:0:0:0:
