osu file format v14

[General]
AudioFilename: audio.mp3
AudioLeadIn: 0
PreviewTime: 28185
Countdown: 0
SampleSet: Soft
StackLeniency: 0.7
Mode: 0
LetterboxInBreaks: 0
WidescreenStoryboard: 1

[Editor]
DistanceSpacing: 1.4
BeatDivisor: 4
GridSize: 16
TimelineZoom: 1.1

[Metadata]
Title:Shiroi Tori
TitleUnicode:白い鳥
Artist:mimimemeMIMI
ArtistUnicode:みみめめMIMI
Creator:samplefish
Version:Hard
Source:
Tags:きみのヒロインになりたくて Kimi no Heroine lanturn ni Naritakute White Bird タカオ ユキ Takao Yuki ユカ Yuka fhána fhana mafumafu
BeatmapID:1496152
BeatmapSetID:707085

[Difficulty]
HPDrainRate:4
CircleSize:4
OverallDifficulty:5
ApproachRate:7
SliderMultiplier:2.4
SliderTickRate:1

[Events]
//Background and Video events
0,0,"Shiroi+Tori.jpg",0,0
//Break Periods
//Storyboard Layer 0 (Background)
//Storyboard Layer 1 (Fail)
//Storyboard Layer 2 (Pass)
//Storyboard Layer 3 (Foreground)
//Storyboard Sound Samples

[TimingPoints]
509,784.313725490196,4,2,1,50,1,0
705,781.758957654723,4,2,1,50,1,0
1096,805.369127516779,4,2,1,50,1,0
1498,842.696629213483,4,2,1,50,1,0
2341,810.810810810811,4,2,1,50,1,0
15313,-100,4,2,1,70,0,0
29911,810.810810810811,4,2,1,90,1,1
54235,-100,4,2,1,90,0,0
60721,-74.0740740740741,4,2,1,30,0,0
61532,-74.0740740740741,4,2,1,25,0,0
62343,-74.0740740740741,4,2,1,20,0,0
63154,-74.0740740740741,4,2,1,15,0,0
63965,-74.0740740740741,4,2,1,20,0,0
64775,-74.0740740740741,4,2,1,25,0,0
65586,-74.0740740740741,4,2,1,30,0,0
66397,-74.0740740740741,4,2,1,35,0,0
67006,-100,4,2,1,5,0,0
67208,-50,4,2,1,5,0,0

[Colours]
Combo1 : 255,208,206
Combo2 : 255,255,255
Combo3 : 255,243,198
Combo4 : 206,215,255

[HitObjects]
422,309,509,5,2,0:0:0:0:
422,309,705,1,2,0:0:0:0:
288,228,1095,1,2,0:0:0:0:
382,111,1498,1,2,0:0:0:0:
382,111,2341,6,0,P|317:97|275:140,1,120,2|0,0:0|0:0,0:0:0:0:
279,128,2949,1,0,0:0:0:0:
486,260,3760,1,2,0:0:0:0:
486,260,3962,6,0,P|491:193|493:135,1,120,2|2,0:0|0:0,0:0:0:0:
364,51,4773,2,0,P|365:110|370:170,1,120,2|0,0:0|0:0,0:0:0:0:
408,336,5584,6,0,P|368:301|272:352,1,120,2|0,0:0|0:0,0:0:0:0:
304,307,6192,1,0,0:0:0:0:
277,125,6800,1,2,0:0:0:0:
67,240,7611,2,0,P|61:200|52:92,1,120,2|2,0:0|0:0,0:0:0:0:
208,186,8422,1,2,0:0:0:0:
241,351,8827,6,0,P|269:349|360:337,1,120
459,250,9638,1,2,0:0:0:0:
408,128,10043,1,2,0:0:0:0:
276,140,10449,6,0,P|279:83|290:-11,2,120,0|2|0,0:0|0:0|0:0,0:0:0:0:
408,128,11665,1,2,0:0:0:0:
356,249,12070,6,0,P|298:281|224:249,2,120
276,77,13489,1,2,0:0:0:0:
276,77,13692,6,0,L|294:209,1,120,2|2,0:0|0:0,0:0:0:0:
292,195,14908,2,0,P|267:187|192:189,1,60,2|2,0:0|0:0,0:0:0:0:
159,223,15313,6,0,L|149:125,1,60
84,113,15719,2,0,L|94:15,1,60
167,19,16124,2,0,P|197:18|261:40,1,60
278,89,16530,2,0,P|307:89|337:83,1,60,0|2,0:0|0:0,0:0:0:0:
418,62,16935,6,0,L|406:206,2,120,2|2|0,0:0|0:0|0:0,0:0:0:0:
255,17,18151,2,0,P|227:18|181:27,1,60,2|0,0:0|0:0,0:0:0:0:
141,88,18557,6,0,P|104:82|-4:71,2,120,2|0|0,0:0|0:0|0:0,0:0:0:0:
268,198,19773,1,2,0:0:0:0:
253,115,19976,1,2,0:0:0:0:
181,158,20178,6,0,L|172:234,1,60
89,227,20584,2,0,L|97:303,1,60
140,359,20989,2,0,L|277:351,1,120
342,334,21597,1,2,0:0:0:0:
342,334,21800,6,0,P|351:272|359:188,1,120,2|0,0:0|0:0,0:0:0:0:
200,152,22611,2,0,P|206:211|214:271,1,120,2|0,0:0|0:0,0:0:0:0:
288,119,23422,6,0,P|261:77|169:69,2,120,2|2|0,0:0|0:0|0:0,0:0:0:0:
324,283,24638,2,0,P|295:285|242:306,1,60,2|0,0:0|0:0,0:0:0:0:
189,326,25043,6,0,L|167:243,1,60
121,201,25449,2,0,P|121:165|130:115,1,60
207,130,25854,2,0,P|207:159|204:189,1,60
173,268,26259,2,0,L|262:274,1,60,0|0,0:0|0:0,0:0:0:0:
307,311,26665,6,0,L|332:313,2,15
307,311,28286,5,2,0:0:0:0:
423,206,28692,1,2,0:0:0:0:
373,58,29097,1,2,0:0:0:0:
373,58,29705,1,2,0:0:0:0:
314,109,29911,6,0,L|236:100,1,60,4|0,0:0|0:0,0:0:0:0:
214,176,30316,2,0,L|273:182,1,60,0|0,0:0|0:0,0:0:0:0:
358,186,30722,2,0,P|360:234|351:337,1,120,8|0,0:0|0:0,0:0:0:0:
287,355,31330,1,2,0:0:0:0:
287,355,31533,6,0,L|198:346,1,60,2|0,0:0|0:0,0:0:0:0:
173,284,31938,2,0,L|84:275,1,60,2|0,0:0|0:0,0:0:0:0:
58,213,32343,2,0,P|31:151|97:89,1,120,10|0,0:0|0:0,0:0:0:0:
133,82,32952,1,2,0:0:0:0:
133,82,33154,6,0,P|168:75|219:71,1,60,2|0,0:0|0:0,0:0:0:0:
234,145,33560,2,0,P|198:151|148:156,1,60,0|0,0:0|0:0,0:0:0:0:
151,234,33965,2,0,P|235:224|302:208,1,120,8|0,0:0|0:0,0:0:0:0:
320,149,34573,1,2,0:0:0:0:
320,149,34776,6,0,L|313:60,1,60,2|0,0:0|0:0,0:0:0:0:
398,102,35181,2,0,L|405:13,1,60,2|0,0:0|0:0,0:0:0:0:
485,23,35587,2,0,P|479:50|479:102,1,60,10|0,0:0|0:0,0:0:0:0:
505,161,35992,2,0,P|510:188|511:240,1,60,2|0,0:0|0:0,0:0:0:0:
428,206,36398,6,0,L|446:349,2,120,0|2|8,0:0|0:0|0:0,0:0:0:0:
388,131,37411,1,0,0:0:0:0:
380,46,37614,6,0,P|323:34|250:103,2,120,2|0|2,0:0|0:0|0:0,0:0:0:0:
388,131,38627,1,0,0:0:0:0:
306,150,38830,2,0,L|150:133,1,120,8|2,0:0|0:0,0:0:0:0:
108,105,39438,1,0,0:0:0:0:
43,159,39641,6,0,P|46:186|60:236,1,60,0|0,0:0|0:0,0:0:0:0:
137,227,40046,2,0,P|133:256|126:285,1,60,0|0,0:0|0:0,0:0:0:0:
68,347,40452,2,0,P|120:337|200:366,1,120,8|0,0:0|0:0,0:0:0:0:
231,286,41060,1,2,0:0:0:0:
304,325,41262,6,0,L|402:316,1,60,2|0,0:0|0:0,0:0:0:0:
420,257,41668,1,2,0:0:0:0:
501,276,41871,2,0,P|506:239|506:179,1,60,2|8,0:0|0:0,0:0:0:0:
411,178,42276,2,0,P|413:207|417:237,1,60,2|0,0:0|0:0,0:0:0:0:
428,320,42681,1,2,0:0:0:0:
353,354,42884,6,0,P|319:331|208:353,2,120,0|0|8,0:0|0:0|0:0,0:0:0:0:
428,320,43898,1,0,0:0:0:0:
485,259,44100,1,0,0:0:0:0:
498,175,44303,1,2,0:0:0:0:
498,175,44506,6,0,P|496:133|486:86,1,60,2|0,0:0|0:0,0:0:0:0:
417,78,44911,2,0,P|413:107|412:137,1,60,2|0,0:0|0:0,0:0:0:0:
333,110,45316,2,0,P|282:99|220:144,1,120,8|2,0:0|0:0,0:0:0:0:
226,132,45925,1,0,0:0:0:0:
152,94,46127,6,0,P|147:112|143:179,1,60,2|0,0:0|0:0,0:0:0:0:
58,141,46533,2,0,P|59:159|80:223,1,60,0|0,0:0|0:0,0:0:0:0:
1,236,46938,2,0,P|10:251|57:300,1,60,8|0,0:0|0:0,0:0:0:0:
121,286,47343,1,2,0:0:0:0:
204,297,47546,1,2,0:0:0:0:
267,352,47749,6,0,L|332:340,1,60,0|0,0:0|0:0,0:0:0:0:
343,258,48154,2,0,L|283:268,1,60,0|0,0:0|0:0,0:0:0:0:
204,297,48560,2,0,P|198:239|266:182,1,120,8|0,0:0|0:0,0:0:0:0:
234,192,49168,1,2,0:0:0:0:
317,185,49371,6,0,P|324:157|328:89,1,60,2|0,0:0|0:0,0:0:0:0:
246,104,49776,2,0,P|239:76|235:8,1,60,2|0,0:0|0:0,0:0:0:0:
311,10,50181,2,0,P|400:19|417:78,1,120,8|2,0:0|0:0,0:0:0:0:
412,37,50789,1,0,0:0:0:0:
444,115,50992,6,0,L|436:216,1,60,2|0,0:0|0:0,0:0:0:0:
355,183,51398,2,0,L|363:82,1,60,2|0,0:0|0:0,0:0:0:0:
281,154,51803,2,0,P|230:175|135:122,1,120,10|0,0:0|0:0,0:0:0:0:
168,160,52411,1,0,0:0:0:0:
167,75,52614,6,0,P|196:77|223:89,1,60,2|0,0:0|0:0,0:0:0:0:
281,154,53019,2,0,P|310:151|337:139,1,60,0|0,0:0|0:0,0:0:0:0:
405,88,53425,2,0,P|422:146|374:212,1,120,8|0,0:0|0:0,0:0:0:0:
325,241,54033,1,0,0:0:0:0:
256,192,54235,5,2,0:0:0:0:
256,192,56668,6,0,P|251:142|246:65,1,120,2|2,0:0|0:0,0:0:0:0:
321,35,57276,2,0,P|326:94|330:154,1,120,2|2,0:0|0:0,0:0:0:0:
256,192,57884,1,2,0:0:0:0:
256,336,60722,5,2,0:0:0:0:
256,192,60823,12,0,67107,0:0:0:0:
