osu file format v14

[General]
AudioFilename: audio.mp3
AudioLeadIn: 0
PreviewTime: 28185
Countdown: 0
SampleSet: Soft
StackLeniency: 0.7
Mode: 0
LetterboxInBreaks: 0
WidescreenStoryboard: 1

[Editor]
DistanceSpacing: 1.1
BeatDivisor: 4
GridSize: 16
TimelineZoom: 4.499998

[Metadata]
Title:Shiroi Tori
TitleUnicode:白い鳥
Artist:mimimemeMIMI
ArtistUnicode:みみめめMIMI
Creator:samplefish
Version:Easy
Source:
Tags:きみのヒロインになりたくて Kimi no Heroine lanturn ni Naritakute White Bird タカオ ユキ Takao Yuki ユカ Yuka fhána fhana mafumafu
BeatmapID:1496151
BeatmapSetID:707085

[Difficulty]
HPDrainRate:2
CircleSize:3
OverallDifficulty:2
ApproachRate:3
SliderMultiplier:1.6
SliderTickRate:1

[Events]
//Background and Video events
0,0,"Shiroi+Tori.jpg",0,0
//Break Periods
//Storyboard Layer 0 (Background)
//Storyboard Layer 1 (Fail)
//Storyboard Layer 2 (Pass)
//Storyboard Layer 3 (Foreground)
//Storyboard Sound Samples

[TimingPoints]
509,784.313725490196,4,2,1,50,1,0
705,781.758957654723,4,2,1,50,1,0
1096,805.369127516779,4,2,1,5,1,0
1096,-100,4,2,1,5,0,0
1297,-100,4,2,1,50,0,0
1498,842.696629213483,4,2,1,50,1,0
2341,810.810810810811,4,2,1,50,1,0
15313,-100,4,2,1,70,0,0
29911,810.810810810811,4,2,1,90,1,1
54235,-100,4,2,1,90,0,0
60721,-74.0740740740741,4,2,1,30,0,0
61532,-74.0740740740741,4,2,1,25,0,0
62343,-74.0740740740741,4,2,1,20,0,0
63154,-74.0740740740741,4,2,1,15,0,0
63965,-74.0740740740741,4,2,1,20,0,0
64775,-74.0740740740741,4,2,1,25,0,0
65586,-74.0740740740741,4,2,1,30,0,0
66397,-74.0740740740741,4,2,1,35,0,0
67006,-100,4,2,1,5,0,0
67208,-50,4,2,1,5,0,0

[Colours]
Combo1 : 255,208,206
Combo2 : 255,255,255
Combo3 : 255,243,198
Combo4 : 206,215,255

[HitObjects]
152,204,509,6,0,B|256:168|256:232|352:192,1,201.7,2|2,0:0|0:0,0:0:0:0:
476,92,2341,6,0,P|476:176|464:264,1,160,2|0,0:0|0:0,0:0:0:0:
324,320,3962,2,0,P|323:240|333:160,1,160,2|2,0:0|0:0,0:0:0:0:
186,259,5584,6,0,B|142:255|142:255|74:279|74:279|26:271,1,160,2|0,0:0|0:0,0:0:0:0:
59,188,6800,1,2,0:0:0:0:
213,103,7611,2,0,L|222:24,2,80,2|2|2,0:0|0:0|0:0,0:0:0:0:
300,95,8827,6,0,P|363:91|417:169,1,160,0|2,0:0|0:0,0:0:0:0:
413,252,10043,2,0,L|407:342,1,80,2|0,0:0|0:0,0:0:0:0:
320,334,10854,2,0,L|331:167,1,160,2|2,0:0|0:0,0:0:0:0:
355,89,12070,6,0,P|310:55|203:58,2,160,0|0|2,0:0|0:0|0:0,0:0:0:0:
410,157,14097,2,0,P|405:223|391:328,1,160,2|2,0:0|0:0,0:0:0:0:
308,340,15313,6,0,B|271:321|228:318|228:318|193:345|125:343,1,160,2|0,0:0|0:0,0:0:0:0:
36,213,16935,2,0,P|28:131|87:79,1,160,2|0,0:0|0:0,0:0:0:0:
165,60,18151,1,2,0:0:0:0:
236,111,18557,6,0,P|231:170|226:273,1,160,2|0,0:0|0:0,0:0:0:0:
275,343,19773,1,2,0:0:0:0:
359,367,20178,2,0,P|387:370|439:372,1,80,2|0,0:0|0:0,0:0:0:0:
463,287,20989,2,0,P|423:283|383:281,1,80
311,230,21800,6,0,P|296:173|365:96,2,160,2|2|2,0:0|0:0|0:0,0:0:0:0:
237,278,23827,2,0,L|135:283,1,80,2|0,0:0|0:0,0:0:0:0:
72,307,24638,1,2,0:0:0:0:
19,236,25043,6,0,P|16:209|16:120,1,80
101,147,25854,2,0,P|104:186|105:226,1,80
72,307,26665,5,0,0:0:0:0:
72,307,28286,1,2,0:0:0:0:
158,289,28692,1,2,0:0:0:0:
205,214,29097,1,2,0:0:0:0:
56,118,29911,6,0,L|64:197,1,80,4|0,0:0|0:0,0:0:0:0:
81,284,30721,2,0,P|117:275|172:302,1,80,8|0,0:0|0:0,0:0:0:0:
226,343,31532,1,2,0:0:0:0:
292,285,31937,1,2,0:0:0:0:
378,272,32342,2,0,P|383:229|389:167,1,80,10|0,0:0|0:0,0:0:0:0:
430,115,33153,6,0,P|392:103|326:130,1,80,2|0,0:0|0:0,0:0:0:0:
290,172,33964,2,0,P|251:179|213:167,1,80,8|0,0:0|0:0,0:0:0:0:
146,110,34775,2,0,L|138:13,2,80,2|2|10,0:0|0:0|0:0,0:0:0:0:
153,197,35991,1,2,0:0:0:0:
160,284,36397,5,0,0:0:0:0:
235,329,36802,2,0,L|328:318,1,80,2|8,0:0|0:0,0:0:0:0:
335,234,37613,2,0,L|255:243,1,80,2|0,0:0|0:0,0:0:0:0:
274,157,38424,2,0,L|367:146,1,80,2|8,0:0|0:0,0:0:0:0:
421,91,39234,1,2,0:0:0:0:
336,64,39640,6,0,L|144:82,1,160,0|8,0:0|0:0,0:0:0:0:
93,49,40856,1,0,0:0:0:0:
29,110,41261,2,0,P|27:157|42:209,1,80,2|2,0:0|0:0,0:0:0:0:
116,218,42072,2,0,P|118:265|103:317,1,80,10|2,0:0|0:0,0:0:0:0:
32,336,42883,6,0,L|219:323,1,160,2|8,0:0|0:0,0:0:0:0:
285,306,44099,1,0,0:0:0:0:
365,341,44505,1,2,0:0:0:0:
442,299,44910,2,0,L|456:207,1,80,2|8,0:0|0:0,0:0:0:0:
464,132,45721,1,2,0:0:0:0:
426,52,46127,6,0,P|348:48|276:92,1,160,2|8,0:0|0:0,0:0:0:0:
256,172,47342,1,2,0:0:0:0:
224,256,47748,2,0,P|156:296|77:292,1,160,2|8,0:0|0:0,0:0:0:0:
12,232,48964,1,0,0:0:0:0:
56,156,49370,6,0,L|44:56,1,80,2|2,0:0|0:0,0:0:0:0:
120,28,50180,1,8,0:0:0:0:
184,92,50586,1,2,0:0:0:0:
264,60,50991,2,0,L|372:52,1,80,2|2,0:0|0:0,0:0:0:0:
432,44,51802,2,0,P|480:112|432:204,1,160,10|2,0:0|0:0,0:0:0:0:
404,248,53018,5,0,0:0:0:0:
337,305,53424,2,0,P|298:303|257:266,1,80,8|0,0:0|0:0,0:0:0:0:
256,192,54234,1,2,0:0:0:0:
256,192,56667,6,0,L|256:50,2,120,2|2|2,0:0|0:0|0:0,0:0:0:0:
256,192,60721,12,2,67106,0:0:0:0:
