osu file format v14

[General]
AudioFilename: audio.mp3
AudioLeadIn: 0
PreviewTime: 53055
Countdown: 0
SampleSet: Soft
StackLeniency: 0.4
Mode: 0
LetterboxInBreaks: 0
WidescreenStoryboard: 1

[Editor]
Bookmarks: 15187,22143,46491
DistanceSpacing: 1
BeatDivisor: 4
GridSize: 8
TimelineZoom: 1.4

[Metadata]
Title:Sentimental Love (TV Size)
TitleUnicode:センチメンタルラブ (TV Size)
Artist:mimimemeMIMI
ArtistUnicode:みみめめMIMI
Creator:Present
Version:Winnie's Insane
Source:君のいる町
Tags:OP a town where you live Kimi no Iru Machi opening anime cover Garden Pata-Mon Curi [C_u_r_i] Reillia Winnie Kocari Kencho Karen Moecho Chokori
BeatmapID:2164599
BeatmapSetID:899538

[Difficulty]
HPDrainRate:5.4
CircleSize:4.5
OverallDifficulty:8.2
ApproachRate:8.8
SliderMultiplier:1.62
SliderTickRate:1

[Events]
//Background and Video events
0,0,"1.jpg",0,0
//Break Periods
//Storyboard Layer 0 (Background)
//Storyboard Layer 1 (Fail)
//Storyboard Layer 2 (Pass)
//Storyboard Layer 3 (Foreground)
//Storyboard Layer 4 (Overlay)
//Storyboard Sound Samples

[TimingPoints]
1153,434.782608695652,4,2,3,40,1,0
1153,-121.951219512195,4,2,3,40,0,0
11587,-111.111111111111,4,2,3,45,0,0
11805,-111.111111111111,4,2,3,50,0,0
12022,-111.111111111111,4,2,3,55,0,0
12239,-111.111111111111,4,2,3,60,0,0
12457,-111.111111111111,4,2,3,65,0,0
12674,-111.111111111111,4,2,3,70,0,0
12892,-111.111111111111,4,2,3,75,0,0
13109,-111.111111111111,4,2,3,80,0,0
13326,-100,4,2,3,40,0,0
15066,-100,4,2,3,55,0,0
21152,-100,4,2,3,50,0,0
21370,-100,4,2,3,54,0,0
21587,-100,4,2,3,58,0,0
21805,-100,4,2,3,62,0,0
22022,-100,4,2,3,66,0,0
22239,-128.205128205128,4,2,3,35,0,0
28979,-128.205128205128,4,2,3,40,0,0
44196,-113.636363636364,4,2,3,40,0,0
44631,-113.636363636364,4,2,3,55,0,0
46370,-102.040816326531,4,2,3,50,0,0
51370,-102.040816326531,4,2,3,60,0,0
52892,-102.040816326531,4,2,3,40,0,0
53326,-100,4,2,3,60,0,0
58544,-100,4,2,3,40,0,0
58979,-100,4,2,3,45,0,0
59413,-100,4,2,3,50,0,0
59631,-100,4,2,3,55,0,0
59848,-100,4,2,3,62,0,0
59957,-100,4,2,3,64,0,0
60066,-100,4,2,3,66,0,0
60174,-100,4,2,3,68,0,0
60283,-92.5925925925926,4,2,3,75,0,1
65826,-92.5925925925926,4,2,3,5,0,1
65935,-92.5925925925926,4,2,3,75,0,1
74087,-92.5925925925926,4,2,3,70,0,1
74196,-92.5925925925926,4,2,3,75,0,1
88109,-100,4,2,3,40,0,0

[Colours]
Combo1 : 43,149,255
Combo2 : 255,64,64
Combo3 : 255,128,64

[HitObjects]
433,260,1153,6,0,P|386:212|321:216,2,132.840002026978,0|0|0,3:0|3:0|3:0,0:0:0:0:
343,101,2457,1,0,3:0:0:0:
249,83,2674,1,0,0:0:0:0:
215,169,2892,2,0,P|261:216|326:212,2,132.840002026978,0|0|0,3:0|3:0|3:0,0:0:0:0:
160,37,4196,1,0,3:0:0:0:
151,130,4413,1,0,0:0:0:0:
215,169,4631,6,0,P|146:162|83:154,1,132.840002026978,0|0,3:0|3:0,0:0:0:0:
56,57,5283,1,0,0:0:0:0:
83,154,5500,2,0,P|76:190|72:224,1,66.4200010134888,0|0,3:0|0:0,0:0:0:0:
17,294,5935,1,0,3:0:0:0:
244,350,6370,2,0,B|181:380|116:349|116:349|139:317|181:320,1,199.260003040466,0|0,3:0|0:0,0:0:0:0:
172,319,7239,2,0,P|166:252|167:173,1,132.840002026978,0|0,3:0|3:0,0:0:0:0:
243,53,8109,6,0,P|310:60|381:18,1,132.840002026978,0|0,3:0|3:0,0:0:0:0:
454,39,8761,1,0,0:0:0:0:
374,164,8979,2,0,P|373:96|365:20,1,132.840002026978,0|0,3:0|3:0,0:0:0:0:
463,122,9631,1,0,0:0:0:0:
280,152,9848,6,0,P|328:144|374:164,2,99.6300015202332,0|0|0,3:0|0:0|0:0,0:0:0:0:
318,236,10718,1,0,3:0:0:0:
457,203,10935,1,0,0:0:0:0:
396,350,11152,2,0,L|408:265,1,66.4200010134888,0|0,3:0|0:0,0:0:0:0:
432,88,11587,5,2,3:2:0:0:
400,258,11805,1,2,0:0:0:0:
356,50,12022,1,2,3:2:0:0:
451,178,12239,1,2,0:0:0:0:
285,99,12457,1,2,3:2:0:0:
478,108,12674,1,2,0:0:0:0:
203,73,12892,1,2,3:2:0:0:
445,26,13109,1,2,0:0:0:0:
361,164,13326,5,0,3:0:0:0:
361,164,14196,2,0,B|284:111|255:224|168:166,1,202.5,0|0,0:0|0:0,0:0:0:0:
129,94,14848,1,8,0:0:0:0:
97,113,14957,1,8,0:0:0:0:
64,130,15066,5,6,3:2:0:0:
91,17,15283,1,0,3:0:0:0:
5,193,15500,1,8,3:2:0:0:
148,259,15718,2,0,B|176:322|146:388|146:388|134:361,1,162,0|0,3:0|0:0,0:0:0:0:
254,343,16370,2,0,P|293:350|357:365,1,81,8|0,0:0|3:0,0:0:0:0:
483,285,16696,1,0,3:0:0:0:
483,285,16805,6,0,P|443:290|403:293,1,81,2|0,3:2|0:0,0:0:0:0:
409,161,17239,2,0,P|449:156|490:154,1,81,12|0,0:3|0:0,0:0:0:0:
269,216,17674,1,2,3:2:0:0:
269,216,17783,2,0,P|265:174|259:121,1,81,8|0,0:0|0:0,0:0:0:0:
255,95,18109,1,12,0:3:0:0:
357,66,18326,1,4,0:0:0:0:
285,294,18544,6,0,P|245:295|212:274,1,81,6|0,0:3|3:0,0:0:0:0:
155,178,18979,1,8,3:2:0:0:
81,330,19196,2,0,P|75:271|63:237,1,81,0|2,3:0|0:0,0:0:0:0:
46,221,19522,2,0,P|52:162|64:128,1,81,8|0,0:0|0:0,0:0:0:0:
48,106,19848,1,8,0:0:0:0:
200,47,20066,1,0,3:0:0:0:
233,59,20174,1,0,3:0:0:0:
266,43,20283,2,0,P|304:26|356:32,1,81,2|0,3:2|3:0,0:0:0:0:
322,119,20718,1,8,3:2:0:0:
451,28,20935,6,0,L|430:163,1,121.5,0|0,3:0|3:0,0:0:0:0:
396,168,21370,1,2,3:2:0:0:
382,206,21479,1,0,3:0:0:0:
390,245,21587,1,8,3:2:0:0:
424,266,21696,1,8,3:2:0:0:
447,299,21805,1,4,3:2:0:0:
450,339,21913,1,0,3:0:0:0:
432,375,22022,6,0,L|297:352,1,121.5,2|0,3:2|0:0,0:0:0:0:
285,324,22457,2,0,L|216:336,1,63.1800021209107,2|0,3:2|0:0,0:0:0:0:
194,341,22892,5,2,3:2:0:0:
178,344,23326,1,2,3:2:0:0:
133,259,23544,1,0,1:0:0:0:
37,354,23761,2,0,P|45:295|53:225,1,126.360004241821,2|2,3:2|3:2,0:0:0:0:
29,134,24413,2,0,P|58:130|107:119,1,63.1800021209107,0|2,0:0|3:2,0:0:0:0:
157,46,24848,1,0,0:0:0:0:
176,186,25066,2,0,P|206:191|248:198,1,63.1800021209107,2|0,3:2|1:0,0:0:0:0:
394,82,25500,6,0,P|333:89|258:100,1,126.360004241821,6|2,3:2|3:2,0:0:0:0:
339,182,26370,2,0,P|402:189|465:199,1,126.360004241821,2|2,3:2|3:2,0:0:0:0:
256,205,27022,1,0,1:0:0:0:
256,205,27131,1,0,1:0:0:0:
256,205,27239,2,0,L|273:274,1,63.1800021209107,2|0,3:2|1:0,0:0:0:0:
360,314,27674,1,2,3:2:0:0:
164,346,27892,2,0,L|179:294,1,31.5900010604554,8|0,1:2|1:2,1:2:0:0:
181,272,28109,2,0,L|98:256,1,63.1800021209107,4|4,1:2|3:2,0:0:0:0:
138,59,28544,1,0,0:0:0:0:
221,152,28761,1,8,1:2:0:0:
221,152,28870,1,8,0:0:0:0:
221,152,28979,6,0,P|256:147|304:136,1,63.1800021209107,6|0,3:2|1:0,0:0:0:0:
152,91,29413,1,2,3:2:0:0:
144,3,29631,1,0,1:0:0:0:
218,174,29848,2,0,B|159:199|159:199|88:180,1,126.360004241821,2|2,3:2|3:2,0:0:0:0:
46,84,30500,1,0,1:0:0:0:
80,241,30718,2,0,P|85:205|95:166,1,63.1800021209107,6|0,3:2|1:0,0:0:0:0:
14,359,31152,2,0,P|10:327|3:297,1,63.1800021209107,2|0,3:2|1:0,0:0:0:0:
154,282,31587,2,0,P|216:277|285:270,1,126.360004241821,2|2,3:2|3:2,0:0:0:0:
460,191,32239,1,0,1:0:0:0:
382,358,32457,6,0,P|386:325|393:285,1,63.1800021209107,6|0,3:2|1:0,0:0:0:0:
307,126,32892,2,0,P|315:156|321:186,1,63.1800021209107,2|0,3:2|1:0,0:0:0:0:
479,54,33326,2,0,P|421:21|352:35,1,126.360004241821,2|2,3:2|3:2,0:0:0:0:
295,96,33979,1,8,0:0:0:0:
374,305,34196,2,0,B|374:230|374:230|357:182,1,126.360004241821,2|2,3:2|3:2,0:0:0:0:
204,138,34848,1,4,1:2:0:0:
357,182,35066,1,2,3:2:0:0:
305,47,35283,1,4,1:2:0:0:
197,157,35500,2,0,P|165:161|121:164,1,63.1800021209107,2|8,3:2|1:2,0:0:0:0:
108,144,35826,1,8,0:0:0:0:
108,144,35935,6,0,P|43:154|-32:161,1,126.360004241821,6|2,3:2|3:2,0:0:0:0:
16,289,36587,2,0,P|47:293|78:292,1,63.1800021209107,0|2,1:0|3:2,0:0:0:0:
228,332,37022,1,0,1:0:0:0:
174,241,37239,1,2,3:2:0:0:
339,293,37457,2,0,P|332:238|328:160,1,126.360004241821,4|0,3:2|1:0,0:0:0:0:
399,91,38109,1,2,3:2:0:0:
329,23,38326,1,0,1:0:0:0:
329,23,38435,1,0,0:0:0:0:
329,23,38544,2,0,L|237:14,1,63.1800021209107,2|0,3:2|1:0,0:0:0:0:
196,105,38979,2,0,L|228:102,1,31.5900010604554,2|0,3:2|0:0,0:0:0:0:
149,34,39196,2,0,L|118:27,1,31.5900010604554,8|0,3:2|0:0,0:0:0:0:
31,71,39413,6,0,P|42:134|49:199,1,126.360004241821,6|2,3:2|3:2,0:0:0:0:
82,285,40066,1,0,1:0:0:0:
171,223,40283,2,0,P|177:174|185:145,1,63.1800021209107,2|0,3:2|1:0,0:0:0:0:
132,85,40718,1,2,3:2:0:0:
264,194,40935,2,0,P|327:203|387:156,1,126.360004241821,4|0,3:2|1:0,0:0:0:0:
305,118,41587,1,2,3:2:0:0:
275,256,41805,2,0,P|271:224|264:194,1,63.1800021209107,12|2,3:2|3:2,0:0:0:0:
382,55,42239,1,4,1:2:0:0:
391,146,42457,2,0,P|383:177|379:219,1,63.1800021209107,2|8,3:2|1:2,0:0:0:0:
397,235,42783,1,8,0:0:0:0:
397,235,42892,6,0,P|407:269|395:317,1,63.1800021209107,6|0,3:2|3:2,0:0:0:0:
484,338,43326,1,2,3:2:0:0:
348,379,43544,2,0,P|287:368|216:360,1,126.360004241821,0|0,3:2|3:2,0:0:0:0:
38,311,44196,2,0,P|97:302|167:290,1,106.92000326294,2|0,3:2|0:0,0:0:0:0:
197,222,44631,5,2,3:2:0:0:
265,284,44848,1,4,3:2:0:0:
291,57,45066,1,8,3:2:0:0:
249,141,45283,1,6,3:2:0:0:
249,141,45718,2,0,L|336:153,1,71.280002175293,2|8,3:2|3:2,0:0:0:0:
355,134,46044,1,0,3:0:0:0:
391,119,46152,1,2,3:2:0:0:
430,123,46261,1,0,3:0:0:0:
469,140,46370,6,0,B|485:203|485:203|469:243|469:243|471:266|480:301,1,158.759998546509,6|2,3:2|0:0,0:0:0:0:
384,357,47022,2,0,P|379:323|367:263,1,79.3799992732544,0|0,3:2|0:0,0:0:0:0:
399,190,47457,1,0,0:0:0:0:
282,302,47674,2,0,P|241:298|206:278,1,79.3799992732544,2|8,0:0|0:0,0:0:0:0:
186,241,48000,1,8,0:0:0:0:
186,241,48109,2,0,L|90:251,1,79.3799992732544,6|0,3:2|0:0,0:0:0:0:
62,333,48544,1,2,0:0:0:0:
55,165,48761,2,0,L|233:149,1,158.759998546509,8|8,3:2|0:0,0:0:0:0:
246,121,49305,1,8,0:0:0:0:
246,121,49413,1,2,0:0:0:0:
421,69,49631,1,2,0:0:0:0:
421,69,49739,1,8,0:0:0:0:
421,69,49848,6,0,P|364:40|306:48,1,119.069998909882,6|0,3:2|0:0,0:0:0:0:
310,45,50283,1,2,0:0:0:0:
349,133,50500,2,0,P|357:211|358:291,1,158.759998546509,0|4,3:2|0:0,0:0:0:0:
347,325,51044,1,0,0:0:0:0:
347,325,51152,1,2,0:0:0:0:
253,194,51370,5,4,0:0:0:0:
219,201,51805,5,4,0:0:0:0:
185,209,52239,5,4,0:0:0:0:
221,291,52457,1,0,0:0:0:0:
182,298,52565,1,0,0:0:0:0:
144,287,52674,1,0,0:0:0:0:
114,262,52783,1,0,0:0:0:0:
98,226,52892,2,0,P|56:234|18:238,1,79.3799992732544,8|0,0:0|0:0,0:0:0:0:
188,121,53326,6,0,B|227:128|245:112|245:112|260:131|311:134,1,121.5,6|0,3:2|0:0,0:0:0:0:
337,113,53761,1,8,0:0:0:0:
352,29,53979,1,2,0:0:0:0:
445,258,54196,2,0,P|441:218|432:179,1,81,8|2,3:2|0:0,0:0:0:0:
350,33,54631,2,0,P|340:75|337:124,1,81,8|2,0:0|0:0,0:0:0:0:
394,349,55066,6,0,P|318:324|225:323,1,162,6|8,3:2|0:0,0:0:0:0:
169,377,55718,1,2,0:0:0:0:
179,174,55935,2,0,P|181:215|187:254,1,81,8|2,3:2|0:0,0:0:0:0:
71,344,56370,2,0,P|77:304|80:264,1,81,8|2,0:0|0:0,0:0:0:0:
95,101,56805,1,6,3:2:0:0:
80,264,57022,1,0,0:0:0:0:
24,193,57239,1,8,0:0:0:0:
173,247,57457,1,2,0:0:0:0:
19,329,57674,1,8,0:0:0:0:
20,157,57892,1,2,0:0:0:0:
191,242,58109,2,0,P|232:249|283:256,1,81,8|2,0:0|0:0,0:0:0:0:
434,384,58544,5,2,3:2:0:0:
443,353,58652,1,0,3:2:0:0:
453,322,58761,1,2,3:2:0:0:
462,290,58870,1,0,3:2:0:0:
417,226,58979,5,8,3:2:0:0:
401,197,59087,1,0,3:2:0:0:
395,164,59196,1,2,3:2:0:0:
403,132,59305,1,0,3:2:0:0:
458,78,59413,5,8,3:2:0:0:
434,55,59522,1,0,3:2:0:0:
401,56,59631,1,2,3:2:0:0:
379,31,59739,1,8,3:2:0:0:
347,22,59848,2,0,L|281:30,1,40.5,8|8,3:2|3:2,0:0:0:0:
266,159,60066,2,0,L|319:154,1,40.5,8|8,3:2|3:2,0:0:0:0:
172,365,60283,6,0,B|204:275|128:296|156:197,1,174.960004271484,6|8,3:2|0:0,0:0:0:0:
188,79,60935,1,0,1:0:0:0:
188,79,61044,1,0,0:0:0:0:
188,79,61152,1,2,0:0:0:0:
75,126,61370,1,0,1:0:0:0:
189,264,61587,2,0,P|233:271|289:276,1,87.4800021357422,8|0,0:0|1:0,0:0:0:0:
389,374,62022,6,0,P|369:319|392:199,1,174.960004271484,2|8,3:2|0:0,0:0:0:0:
277,149,62674,1,0,1:0:0:0:
277,149,62783,1,0,0:0:0:0:
277,149,62892,1,2,0:0:0:0:
370,83,63109,1,0,1:0:0:0:
474,219,63326,2,0,P|431:211|373:205,1,87.4800021357422,8|0,0:0|1:0,0:0:0:0:
264,46,63761,6,0,B|180:11|177:92|93:62,1,174.960004271484,2|8,3:2|0:0,0:0:0:0:
11,12,64413,1,0,1:0:0:0:
37,142,64631,2,0,P|46:188|50:233,1,87.4800021357422,2|0,3:2|1:0,0:0:0:0:
27,339,65066,1,8,0:0:0:0:
302,327,65500,2,0,P|237:331|160:310,1,131.220003203613,2|0,3:2|0:0,0:0:0:0:
159,278,65935,1,8,0:0:0:0:
213,152,66152,1,0,1:0:0:0:
213,152,66261,2,0,P|210:107|200:52,1,87.4800021357422,0|8,0:0|0:0,0:0:0:0:
180,32,66587,1,0,1:0:0:0:
320,221,66805,6,0,P|322:178|330:135,1,87.4800021357422,12|0,0:3|1:0,0:0:0:0:
438,33,67239,2,0,P|453:117|461:211,1,174.960004271484,2|8,3:2|3:2,0:0:0:0:
408,300,67892,1,0,1:0:0:0:
320,221,68109,2,0,P|271:206|181:256,1,131.220003203613,2|0,3:2|0:0,0:0:0:0:
175,265,68544,2,0,P|183:309|185:352,1,87.4800021357422,8|0,0:0|1:0,0:0:0:0:
125,185,68979,1,2,0:0:0:0:
276,294,69196,1,0,0:0:0:0:
276,294,69305,1,0,0:0:0:0:
276,294,69413,1,8,0:0:0:0:
253,126,69631,1,0,1:0:0:0:
59,250,69848,2,0,P|37:180|100:96,1,174.960004271484,2|8,3:2|0:0,0:0:0:0:
30,19,70500,1,0,1:0:0:0:
166,166,70718,6,0,P|254:163|342:148,1,174.960004271484,2|8,3:2|0:0,0:0:0:0:
309,54,71370,1,0,1:0:0:0:
299,249,71587,1,2,0:0:0:0:
452,172,71805,1,0,1:0:0:0:
339,148,72022,1,8,0:0:0:0:
453,71,72239,1,0,1:0:0:0:
449,265,72457,6,0,B|381:248|381:248|345:264|345:264|278:244,1,174.960004271484,2|12,3:2|0:3,0:0:0:0:
394,341,73109,1,0,1:0:0:0:
218,304,73326,1,2,3:2:0:0:
218,304,73435,2,0,P|198:259|206:207,1,87.4800021357422,0|0,0:0|0:0,0:0:0:0:
224,190,73761,1,12,0:3:0:0:
244,156,73870,1,2,3:2:0:0:
252,117,73979,1,8,3:2:0:0:
239,79,74087,1,8,3:2:0:0:
223,42,74196,6,0,B|162:63|162:63|87:59,1,131.220003203613,6|0,3:2|0:0,0:0:0:0:
63,36,74631,1,8,0:0:0:0:
43,197,74848,2,0,L|152:207,1,87.4800021357422,0|2,1:0|0:0,0:0:0:0:
321,229,75283,1,0,1:0:0:0:
321,229,75392,1,0,0:0:0:0:
321,229,75500,1,8,0:0:0:0:
236,148,75718,1,0,1:0:0:0:
129,366,75935,6,0,P|111:314|112:227,1,131.220003203613,2|0,3:2|0:0,0:0:0:0:
130,204,76370,1,8,0:0:0:0:
30,69,76587,2,0,P|42:110|49:156,1,87.4800021357422,0|2,1:0|0:0,0:0:0:0:
106,10,77022,1,0,1:0:0:0:
221,221,77239,2,0,P|224:177|232:135,1,87.4800021357422,8|0,0:0|1:0,0:0:0:0:
254,102,77566,1,0,1:0:0:0:
254,102,77674,6,0,L|359:86,1,87.4800021357422,6|0,0:3|1:0,0:0:0:0:
419,11,78109,1,8,0:0:0:0:
491,324,78544,2,0,P|431:249|335:255,1,174.960004271484,6|8,0:3|0:0,0:0:0:0:
271,306,79196,1,0,1:0:0:0:
80,122,79413,2,0,P|122:62|227:63,1,174.960004271484,6|8,0:3|3:2,0:0:0:0:
301,130,80066,1,0,1:0:0:0:
199,256,80283,1,2,3:2:0:0:
199,256,80392,2,0,P|196:215|186:157,1,87.4800021357422,8|0,0:0|0:0,0:0:0:0:
165,137,80718,1,8,3:2:0:0:
227,18,80935,1,0,1:0:0:0:
33,237,81152,6,0,B|123:203|111:286|198:256,1,174.960004271484,2|8,3:2|0:0,0:0:0:0:
164,160,81805,1,0,1:0:0:0:
265,314,82022,2,0,P|282:275|274:221,1,87.4800021357422,2|0,0:0|1:0,0:0:0:0:
259,134,82457,1,8,0:0:0:0:
190,69,82674,1,0,1:0:0:0:
87,254,82892,2,0,P|102:190|108:125,1,131.220003203613,2|0,0:0|0:0,0:0:0:0:
98,87,83326,1,8,0:0:0:0:
259,134,83544,2,0,P|324:136|409:124,1,131.220003203613,0|8,1:0|0:0,0:0:0:0:
417,100,83979,1,0,1:0:0:0:
320,35,84196,1,8,0:0:0:0:
342,262,84413,1,0,1:0:0:0:
430,194,84631,5,6,0:3:0:0:
409,347,84848,1,0,1:0:0:0:
345,163,85066,1,12,0:3:0:0:
284,342,85283,1,0,1:0:0:0:
266,98,85500,1,6,0:3:0:0:
416,106,85718,1,0,1:0:0:0:
204,157,85935,1,12,0:3:0:0:
485,170,86152,1,0,1:0:0:0:
255,237,86370,5,6,0:3:0:0:
391,193,86587,6,0,L|349:185,1,43.7400010678711,8|0,1:2|0:0,0:0:0:0:
218,345,86805,6,0,P|262:339|306:337,1,87.4800021357422,8|2,0:0|1:2,0:0:0:0:
31,373,87239,1,2,0:0:0:0:
31,373,87348,2,0,P|36:331|43:273,1,87.4800021357422,8|0,0:0|0:0,0:0:0:0:
54,244,87674,1,8,0:0:0:0:
44,201,87783,1,8,0:0:0:0:
68,164,87892,1,4,3:2:0:0:
59,121,88000,1,8,0:0:0:0:
71,44,88109,5,0,3:2:0:0:
