osu file format v14

[General]
AudioFilename: audio.mp3
AudioLeadIn: 0
PreviewTime: 53055
Countdown: 0
SampleSet: Soft
StackLeniency: 0.4
Mode: 0
LetterboxInBreaks: 0
WidescreenStoryboard: 1

[Editor]
Bookmarks: 15187,22143,46491
DistanceSpacing: 3.7
BeatDivisor: 4
GridSize: 4
TimelineZoom: 1.4

[Metadata]
Title:Sentimental Love (TV Size)
TitleUnicode:センチメンタルラブ (TV Size)
Artist:mimimemeMIMI
ArtistUnicode:みみめめMIMI
Creator:Present
Version:Tragic Love Insane
Source:君のいる町
Tags:OP a town where you live Kimi no Iru Machi opening anime cover Garden Pata-Mon Curi [C_u_r_i] Reillia Winnie Kocari Kencho Karen Moecho Chokori
BeatmapID:2164598
BeatmapSetID:899538

[Difficulty]
HPDrainRate:4.8
CircleSize:4
OverallDifficulty:8.4
ApproachRate:8.2
SliderMultiplier:1.6
SliderTickRate:1

[Events]
//Background and Video events
0,0,"1.jpg",0,0
//Break Periods
//Storyboard Layer 0 (Background)
//Storyboard Layer 1 (Fail)
//Storyboard Layer 2 (Pass)
//Storyboard Layer 3 (Foreground)
//Storyboard Layer 4 (Overlay)
//Storyboard Sound Samples

[TimingPoints]
1153,434.782608695652,4,2,3,40,1,0
1153,-125,4,2,3,40,0,0
11587,-100,4,2,3,45,0,0
11805,-100,4,2,3,50,0,0
12022,-100,4,2,3,55,0,0
12239,-100,4,2,3,60,0,0
12457,-100,4,2,3,65,0,0
12674,-100,4,2,3,70,0,0
12892,-100,4,2,3,75,0,0
13109,-100,4,2,3,80,0,0
13326,-200,4,2,3,40,0,0
15066,-100,4,2,3,55,0,0
21152,-100,4,2,3,50,0,0
21370,-100,4,2,3,54,0,0
21587,-100,4,2,3,58,0,0
21805,-100,4,2,3,62,0,0
22022,-125,4,2,3,66,0,0
22239,-125,4,2,3,35,0,0
28979,-125,4,2,3,40,0,0
44631,-125,4,2,3,55,0,0
46370,-125,4,2,3,50,0,0
50174,-125,4,2,3,50,0,0
50283,-125,4,2,3,50,0,0
51370,-125,4,2,3,60,0,0
52892,-125,4,2,3,40,0,0
53326,-100,4,2,3,60,0,0
58544,-100,4,2,3,40,0,0
58979,-100,4,2,3,45,0,0
59413,-100,4,2,3,50,0,0
59631,-100,4,2,3,55,0,0
59848,-100,4,2,3,62,0,0
59957,-100,4,2,3,64,0,0
60066,-100,4,2,3,66,0,0
60174,-100,4,2,3,68,0,0
60283,-90.9090909090909,4,2,3,75,0,1
66805,-133.333333333333,4,2,3,75,0,1
67131,-133.333333333333,4,2,3,75,0,1
67239,-90.9090909090909,4,2,3,75,0,1
74087,-90.9090909090909,4,2,3,70,0,0
74196,-90.9090909090909,4,2,3,75,0,1
75935,-133.333333333333,4,2,3,75,0,1
76261,-133.333333333333,4,2,3,5,0,1
76370,-90.9090909090909,4,2,3,75,0,1
80718,-133.333333333333,4,2,3,75,0,1
81152,-90.9090909090909,4,2,3,75,0,1
87239,-66.6666666666667,4,2,3,75,0,1
88109,-125,4,2,3,40,0,0

[Colours]
Combo1 : 43,149,255
Combo2 : 255,64,64
Combo3 : 255,128,64

[HitObjects]
85,89,1153,5,0,3:0:0:0:
57,174,1370,1,0,0:0:0:0:
161,127,1587,1,0,3:0:0:0:
133,212,1805,2,0,P|86:254|21:252,2,128,0|0|0,0:0|0:0|0:0,0:0:0:0:
245,149,2892,6,0,L|309:159,1,64,0|0,3:0|0:0,0:0:0:0:
390,208,3326,1,0,3:0:0:0:
324,278,3544,2,0,L|198:258,2,128,0|0|0,0:0|0:0|0:0,0:0:0:0:
438,261,4631,6,0,P|455:236|459:202,1,64,0|0,3:0|0:0,0:0:0:0:
386,98,5066,2,0,P|368:122|364:156,1,64,0|0,3:0|0:0,0:0:0:0:
463,74,5500,2,0,P|450:46|423:25,1,64,0|0,3:0|0:0,0:0:0:0:
445,152,5935,2,0,P|474:155|506:141,1,64,0|0,3:0|0:0,0:0:0:0:
386,98,6370,6,0,P|363:153|393:216,1,128,0|0,3:0|3:0,0:0:0:0:
463,74,7022,1,0,0:0:0:0:
463,74,7239,2,0,P|426:26|357:21,1,128,0|0,3:0|3:0,0:0:0:0:
150,111,8109,6,0,L|134:237,1,128,0|0,3:0|3:0,0:0:0:0:
85,321,8761,1,0,0:0:0:0:
133,237,8979,2,0,P|166:229|199:233,1,64,0|0,3:0|0:0,0:0:0:0:
262,301,9413,2,0,P|280:274|288:244,1,64,0|0,3:0|0:0,0:0:0:0:
304,121,9848,6,0,L|402:115,2,96,0|0|0,3:0|0:0|0:0,0:0:0:0:
190,169,10718,2,0,P|187:200|194:231,1,64,0|0,3:0|0:0,0:0:0:0:
262,301,11152,2,0,P|280:274|288:244,1,64,0|0,3:0|0:0,0:0:0:0:
304,121,11587,5,2,3:2:0:0:
190,169,11805,1,2,0:0:0:0:
288,243,12022,1,2,3:2:0:0:
217,73,12239,1,2,0:0:0:0:
192,269,12457,5,2,3:2:0:0:
374,192,12674,1,2,0:0:0:0:
105,158,12892,1,2,3:2:0:0:
320,321,13109,1,2,0:0:0:0:
363,63,13326,5,0,3:0:0:0:
182,132,14848,5,8,0:0:0:0:
178,130,14957,1,8,0:0:0:0:
174,128,15066,2,0,P|134:121|95:133,1,80,6|0,3:2|3:0,0:0:0:0:
105,291,15500,2,0,P|145:297|184:286,1,80,8|0,3:2|3:0,0:0:0:0:
296,97,15935,5,2,0:0:0:0:
141,212,16152,1,0,0:0:0:0:
245,363,16370,1,8,0:0:0:0:
400,258,16587,1,0,3:0:0:0:
405,261,16696,1,0,3:0:0:0:
410,263,16805,6,0,L|488:280,1,80,2|0,3:2|0:0,0:0:0:0:
353,123,17239,2,0,L|328:45,1,80,12|0,0:3|0:0,0:0:0:0:
272,227,17674,2,0,L|245:256,2,40,2|8|0,3:2|0:0|0:0,0:0:0:0:
476,274,18109,1,12,0:3:0:0:
277,333,18326,1,4,0:0:0:0:
272,335,18435,1,0,0:0:0:0:
267,337,18544,6,0,P|227:337|191:321,1,80,6|0,0:3|3:0,0:0:0:0:
366,264,18979,2,0,P|386:298|390:337,1,80,8|0,3:2|3:0,0:0:0:0:
258,210,19413,2,0,P|268:192|283:181,2,40,2|8|0,0:0|0:0|0:0,0:0:0:0:
216,384,19848,1,8,0:0:0:0:
62,343,20066,1,0,3:0:0:0:
63,338,20174,1,0,3:0:0:0:
64,333,20283,6,0,L|74:294,1,40,2|0,3:2|0:0,0:0:0:0:
156,232,20500,2,0,L|146:193,1,40,0|0,3:0|0:0,0:0:0:0:
41,186,20718,2,0,L|51:147,1,40,8|0,3:2|0:0,0:0:0:0:
133,85,20935,2,0,L|123:46,1,40,0|0,3:0|0:0,0:0:0:0:
231,132,21152,6,0,L|270:122,3,40,0|0|2|0,3:0|3:0|3:2|3:0,0:0:0:0:
327,48,21587,1,8,3:2:0:0:
346,67,21696,1,8,3:2:0:0:
359,92,21805,1,4,3:2:0:0:
364,120,21913,1,0,3:0:0:0:
360,147,22022,5,2,3:2:0:0:
380,247,22457,1,2,3:2:0:0:
291,296,22892,1,2,3:2:0:0:
216,226,23326,1,2,3:2:0:0:
291,296,23544,5,0,1:0:0:0:
193,328,23761,2,0,P|161:336|130:334,1,64,2|0,3:2|1:0,0:0:0:0:
89,239,24196,2,0,L|104:109,2,128,2|2|2,3:2|3:2|3:2,0:0:0:0:
29,322,25283,5,0,1:0:0:0:
130,334,25500,2,0,P|162:335|193:328,1,64,6|0,3:2|1:0,0:0:0:0:
299,351,25935,2,0,P|300:319|292:288,1,64,2|0,3:2|1:0,0:0:0:0:
315,182,26370,2,0,P|283:180|252:188,1,64,2|0,3:2|1:0,0:0:0:0:
146,165,26805,2,0,P|144:196|152:227,1,64,2|0,3:2|1:0,0:0:0:0:
170,253,27131,1,0,1:0:0:0:
170,253,27239,5,2,3:2:0:0:
252,187,27457,2,0,P|283:180|315:184,1,64,0|2,1:0|3:2,0:0:0:0:
292,288,27892,1,8,1:2:0:0:
152,227,28109,2,0,P|121:219|89:221,1,64,2|4,3:2|1:2,0:0:0:0:
192,328,28544,1,4,3:2:0:0:
174,130,28761,1,8,1:2:0:0:
173,126,28870,1,8,0:0:0:0:
172,122,28979,6,0,L|164:57,1,64,6|0,3:2|1:0,0:0:0:0:
252,187,29413,2,0,L|244:252,1,64,2|0,3:2|1:0,0:0:0:0:
99,142,29848,2,0,L|91:77,1,64,2|0,3:2|1:0,0:0:0:0:
239,34,30283,5,2,3:2:0:0:
154,195,30500,1,0,1:0:0:0:
317,270,30718,2,0,L|324:206,1,64,6|0,3:2|1:0,0:0:0:0:
198,114,31152,5,2,3:2:0:0:
113,275,31370,1,0,1:0:0:0:
309,333,31587,2,0,L|316:269,1,64,2|0,3:2|1:0,0:0:0:0:
198,114,32022,2,0,L|205:177,1,64,2|0,3:2|1:0,0:0:0:0:
309,333,32457,5,6,3:2:0:0:
198,114,32892,1,2,3:2:0:0:
309,333,33326,6,0,L|316:269,1,64,2|0,3:2|1:0,0:0:0:0:
198,114,33761,2,0,L|205:177,1,64,2|8,3:2|0:0,0:0:0:0:
219,318,34196,1,2,3:2:0:0:
30,296,34631,5,2,3:2:0:0:
77,162,34848,1,4,1:2:0:0:
205,177,35066,2,0,P|234:183|268:180,1,64,2|4,3:2|1:2,0:0:0:0:
323,51,35500,2,0,P|303:73|288:104,1,64,2|8,3:2|1:2,0:0:0:0:
274,140,35826,1,8,0:0:0:0:
268,179,35935,6,0,L|279:275,1,96,6|0,3:2|0:0,0:0:0:0:
351,248,36370,2,0,L|343:183,1,64,2|0,3:2|1:0,0:0:0:0:
195,205,36805,2,0,L|202:269,1,64,2|0,3:2|1:0,0:0:0:0:
289,353,37239,1,2,3:2:0:0:
202,268,37457,2,0,L|195:205,1,64,4|2,3:2|3:2,0:0:0:0:
343,184,37892,2,0,L|351:248,1,64,0|2,1:0|3:2,0:0:0:0:
289,353,38326,5,0,1:0:0:0:
268,179,38544,1,2,3:2:0:0:
420,161,38761,1,0,1:0:0:0:
441,335,38979,1,2,3:2:0:0:
289,353,39196,2,0,P|255:363|226:359,1,64,8|6,3:2|3:2,0:0:0:0:
212,212,39631,2,0,P|237:236|248:263,1,64,0|2,1:0|3:2,0:0:0:0:
128,349,40066,2,0,P|136:314|154:291,1,64,0|2,1:0|3:2,0:0:0:0:
289,353,40500,2,0,P|255:363|226:359,1,64,0|2,1:0|3:2,0:0:0:0:
86,297,40935,5,4,3:2:0:0:
151,158,41152,1,2,3:2:0:0:
292,220,41370,1,0,1:0:0:0:
227,359,41587,1,2,3:2:0:0:
86,297,41805,2,0,P|71:251|74:199,1,96,12|0,3:2|0:0,0:0:0:0:
151,158,42239,5,4,1:2:0:0:
292,220,42457,1,2,3:2:0:0:
433,158,42674,1,8,1:2:0:0:
436,158,42783,1,8,0:0:0:0:
439,158,42892,5,6,3:2:0:0:
292,89,43109,1,0,3:2:0:0:
442,158,43326,5,2,3:2:0:0:
292,220,43544,1,0,3:2:0:0:
445,158,43761,5,2,3:2:0:0:
292,89,43979,1,0,3:2:0:0:
211,269,44196,2,0,P|246:301|295:313,1,96,2|0,3:2|0:0,0:0:0:0:
292,220,44631,5,2,3:2:0:0:
181,128,44848,1,4,3:2:0:0:
59,205,45066,1,8,3:2:0:0:
94,344,45283,2,0,B|125:369|166:360|166:360|217:347,1,128,6|2,3:2|3:2,0:0:0:0:
285,306,45826,1,0,3:0:0:0:
286,311,45935,2,0,L|294:342,1,32,8|0,3:2|3:0,0:0:0:0:
206,270,46152,2,0,L|175:278,1,32,2|0,3:2|3:0,0:0:0:0:
125,216,46370,6,0,L|218:192,1,96,6|0,3:2|0:0,0:0:0:0:
223,191,46805,1,2,0:0:0:0:
299,132,47022,2,0,P|277:109|246:96,1,64,0|2,3:2|0:0,0:0:0:0:
388,168,47457,2,0,P|397:138|393:105,1,64,0|2,0:0|0:0,0:0:0:0:
319,19,47892,1,8,0:0:0:0:
318,24,48000,1,8,0:0:0:0:
317,29,48109,6,0,P|260:7|196:18,1,128,6|2,3:2|0:0,0:0:0:0:
93,73,48761,2,0,B|73:143|111:131|91:200,1,128,8|8,3:2|0:0,0:0:0:0:
19,166,49305,1,8,0:0:0:0:
18,171,49413,2,0,L|13:204,3,32,2|2|2|8,0:0|0:0|0:0|0:0,0:0:0:0:
68,273,49848,6,0,P|115:271|154:245,1,96,6|0,3:2|0:0,0:0:0:0:
158,241,50283,1,2,0:0:0:0:
242,193,50500,1,0,3:2:0:0:
312,259,50718,1,2,0:0:0:0:
272,347,50935,1,4,0:0:0:0:
176,335,51152,1,2,0:0:0:0:
144,167,51370,5,4,0:0:0:0:
294,79,51805,5,4,0:0:0:0:
419,199,52239,5,4,0:0:0:0:
347,356,52674,5,0,0:0:0:0:
176,335,52892,2,0,L|168:357,2,21.3333333333333,0|0|0,3:0|3:0|3:0,2:0:0:0:
248,301,53109,2,0,L|255:321,2,21.3333333333333,0|0|0,3:0|3:0|3:0,2:0:0:0:
275,224,53326,6,0,P|281:187|268:147,1,80,6|0,3:2|0:0,0:0:0:0:
124,164,53761,2,0,P|118:201|131:241,1,80,8|2,0:0|0:0,0:0:0:0:
218,352,54196,1,8,3:2:0:0:
378,331,54413,1,2,0:0:0:0:
358,174,54631,1,8,0:0:0:0:
200,193,54848,1,2,0:0:0:0:
140,339,55066,6,0,P|178:352|217:352,1,80,6|0,3:2|0:0,0:0:0:0:
378,331,55500,1,8,0:0:0:0:
342,158,55718,1,2,0:0:0:0:
211,274,55935,1,8,3:2:0:0:
445,274,56152,1,2,0:0:0:0:
409,101,56370,5,8,0:0:0:0:
278,217,56587,1,2,0:0:0:0:
512,217,56805,1,6,3:2:0:0:
512,217,57239,5,8,0:0:0:0:
278,217,57457,1,2,0:0:0:0:
240,43,57674,5,8,0:0:0:0:
357,245,57892,1,2,0:0:0:0:
225,365,58109,5,8,0:0:0:0:
341,163,58326,1,2,0:0:0:0:
90,203,58544,5,2,3:2:0:0:
78,184,58652,1,0,3:2:0:0:
96,172,58761,1,2,3:2:0:0:
107,191,58870,1,0,3:2:0:0:
89,205,58979,5,8,3:2:0:0:
74,183,59087,1,0,3:2:0:0:
96,168,59196,1,2,3:2:0:0:
110,191,59305,1,0,3:2:0:0:
88,208,59413,5,8,3:2:0:0:
72,182,59521,1,0,3:2:0:0:
97,166,59630,1,2,3:2:0:0:
113,192,59739,1,8,3:2:0:0:
87,213,59848,5,8,3:2:0:0:
68,180,59956,1,8,3:2:0:0:
98,161,60065,1,8,3:2:0:0:
117,194,60174,1,8,3:2:0:0:
93,186,60283,6,0,P|91:231|106:276,1,88.000002685547,6|0,3:2|1:0,0:0:0:0:
207,216,60718,1,8,0:0:0:0:
275,307,60935,2,0,L|363:301,1,88.000002685547,0|2,1:0|0:0,0:0:0:0:
363,131,61370,2,0,L|275:125,1,88.000002685547,0|8,1:0|0:0,0:0:0:0:
207,216,61805,1,0,1:0:0:0:
259,49,62022,6,0,L|391:58,1,132.00000402832,2|0,3:2|0:0,0:0:0:0:
363,131,62457,2,0,L|275:125,1,88.000002685547,8|0,0:0|1:0,0:0:0:0:
129,74,62892,1,2,0:0:0:0:
124,72,63000,1,8,0:0:0:0:
119,70,63109,1,0,1:0:0:0:
36,190,63326,1,8,0:0:0:0:
117,314,63544,1,0,1:0:0:0:
259,275,63761,6,0,L|273:188,1,88.000002685547,2|0,3:2|1:0,0:0:0:0:
129,74,64196,2,0,L|143:161,1,88.000002685547,8|0,0:0|1:0,0:0:0:0:
336,140,64631,2,0,P|302:114|259:111,1,88.000002685547,2|0,3:2|1:0,0:0:0:0:
78,209,65066,2,0,P|112:235|156:240,1,88.000002685547,8|0,0:0|1:0,0:0:0:0:
365,47,65500,6,0,B|317:40|286:77|286:77|259:110,1,132.00000402832,2|0,3:2|0:0,0:0:0:0:
272,188,65935,2,0,L|287:277,1,88.000002685547,8|0,0:0|1:0,0:0:0:0:
211,371,66370,1,6,0:3:0:0:
204,371,66479,1,8,0:0:0:0:
199,370,66587,1,0,1:0:0:0:
117,286,66805,2,0,L|131:196,1,90.0000034332277,12|0,0:3|0:0,0:0:0:0:
103,130,67239,6,0,B|138:153|138:153|184:145,1,88.000002685547,2|0,3:2|1:0,0:0:0:0:
329,119,67674,2,0,B|290:138|290:138|274:182,1,88.000002685547,8|0,3:2|1:0,0:0:0:0:
226,321,68109,1,2,3:2:0:0:
388,281,68326,1,0,1:0:0:0:
275,180,68544,1,8,0:0:0:0:
320,358,68761,1,0,1:0:0:0:
456,204,68979,6,0,P|447:161|451:118,1,88.000002685547,2|0,0:0|1:0,0:0:0:0:
305,12,69413,2,0,P|314:55|310:98,1,88.000002685547,8|0,0:0|1:0,0:0:0:0:
475,32,69848,5,2,3:2:0:0:
432,40,69957,1,8,0:0:0:0:
388,36,70066,1,0,1:0:0:0:
283,183,70283,2,0,P|326:174|369:178,1,88.000002685547,8|0,0:0|1:0,0:0:0:0:
212,277,70718,6,0,P|182:244|164:205,1,88.000002685547,2|0,3:2|1:0,0:0:0:0:
328,291,71152,2,0,P|314:332|289:367,1,88.000002685547,8|0,0:0|1:0,0:0:0:0:
106,333,71587,5,2,0:0:0:0:
32,178,71805,1,0,1:0:0:0:
138,122,72022,1,8,0:0:0:0:
212,277,72239,1,0,1:0:0:0:
32,178,72457,6,0,P|19:135|22:93,1,88.000002685547,2|0,3:2|1:0,0:0:0:0:
141,4,72892,2,0,P|184:14|219:37,1,88.000002685547,12|0,0:3|1:0,3:0:0:0:
238,186,73326,5,2,3:2:0:0:
373,17,73544,1,8,1:2:0:0:
392,165,73761,2,0,P|389:188|381:208,1,44.0000013427735,12|2,0:3|3:2,0:0:0:0:
258,224,73979,2,0,P|245:206|237:185,1,44.0000013427735,8|8,3:2|3:2,0:0:0:0:
464,159,74196,6,0,P|459:206|443:246,1,88.000002685547,6|0,3:2|1:0,0:0:0:0:
338,352,74631,1,8,0:0:0:0:
207,278,74848,2,0,P|181:242|166:201,1,88.000002685547,0|2,1:0|0:0,0:0:0:0:
283,111,75283,2,0,P|264:150|236:184,1,88.000002685547,0|8,1:0|0:0,0:0:0:0:
131,312,75718,1,0,1:0:0:0:
96,128,75935,6,0,P|140:122|184:131,1,90.0000034332277,2|0,3:2|0:0,0:0:0:0:
235,184,76370,2,0,P|279:189|323:180,1,88.000002685547,8|0,0:0|1:0,0:0:0:0:
437,86,76805,1,2,0:0:0:0:
438,80,76913,1,8,0:0:0:0:
439,75,77022,1,0,1:0:0:0:
273,39,77239,1,8,0:0:0:0:
323,180,77457,1,0,1:0:0:0:
322,185,77566,1,0,1:0:0:0:
321,191,77674,6,0,L|308:279,1,88.000002685547,6|0,0:3|1:0,0:0:0:0:
182,278,78109,2,0,L|169:190,1,88.000002685547,8|0,0:0|1:0,0:0:0:0:
308,278,78544,2,0,L|295:366,1,88.000002685547,6|0,0:3|1:0,0:0:0:0:
170,191,78979,2,0,L|157:103,1,88.000002685547,8|0,0:0|1:0,0:0:0:0:
258,50,79413,5,6,0:3:0:0:
397,137,79631,1,0,1:0:0:0:
308,277,79848,1,8,3:2:0:0:
169,190,80066,1,0,1:0:0:0:
58,311,80283,1,2,3:2:0:0:
57,316,80392,1,8,0:0:0:0:
56,322,80500,1,0,1:0:0:0:
37,149,80718,5,8,3:2:0:0:
37,149,81152,6,0,B|62:87|62:87|77:52|106:43,1,132.00000402832,2|0,3:2|0:0,0:0:0:0:
133,111,81587,2,0,P|177:119|219:113,1,88.000002685547,8|0,0:0|1:0,0:0:0:0:
379,163,82022,2,0,P|335:155|293:161,1,88.000002685547,2|0,0:0|1:0,0:0:0:0:
192,234,82457,1,8,0:0:0:0:
237,29,82674,1,0,1:0:0:0:
37,149,82892,6,0,B|62:211|62:211|77:246|106:255,1,132.00000402832,2|0,0:0|0:0,0:0:0:0:
164,302,83326,2,0,P|208:304|245:283,1,88.000002685547,8|0,0:0|1:0,0:0:0:0:
364,192,83761,1,2,3:2:0:0:
369,191,83870,1,8,0:0:0:0:
375,190,83978,1,0,1:0:0:0:
192,234,84196,1,8,0:0:0:0:
418,281,84413,1,0,1:0:0:0:
368,65,84631,5,6,0:3:0:0:
165,112,84849,1,0,1:0:0:0:
215,328,85066,1,12,0:3:0:0:
418,281,85284,1,0,1:0:0:0:
368,65,85500,5,6,0:3:0:0:
165,112,85718,1,0,1:0:0:0:
418,281,85935,1,12,0:3:0:0:
215,328,86152,1,0,1:0:0:0:
165,112,86370,6,0,L|154:69,1,44.0000013427735,6|0,0:3|0:0,0:0:0:0:
368,65,86587,2,0,L|411:54,1,44.0000013427735,8|0,1:2|0:0,0:0:0:0:
418,281,86805,2,0,L|429:324,1,44.0000013427735,8|0,0:0|0:0,0:0:0:0:
215,328,87022,2,0,L|172:337,1,44.0000013427735,2|0,1:2|0:0,0:0:0:0:
79,283,87239,5,2,0:0:0:0:
74,280,87348,2,0,P|46:239|96:232,1,120.000004577637,8|0,0:0|0:0,0:0:0:0:
202,224,87674,1,8,0:0:0:0:
227,224,87782,1,8,0:0:0:0:
250,229,87891,1,4,3:2:0:0:
273,239,88000,1,8,0:0:0:0:
293,253,88108,5,4,3:2:0:0:
