osu file format v14

[General]
AudioFilename: audio.mp3
AudioLeadIn: 0
PreviewTime: 53055
Countdown: 0
SampleSet: Soft
StackLeniency: 0.7
Mode: 0
LetterboxInBreaks: 0
WidescreenStoryboard: 1

[Editor]
Bookmarks: 22143,60404,88230
DistanceSpacing: 1.3
BeatDivisor: 4
GridSize: 32
TimelineZoom: 0.8999999

[Metadata]
Title:Sentimental Love (TV Size)
TitleUnicode:センチメンタルラブ (TV Size)
Artist:mimimemeMIMI
ArtistUnicode:みみめめMIMI
Creator:Present
Version:Pata-Mon's Hard
Source:君のいる町
Tags:OP a town where you live Kimi no Iru Machi opening anime cover Garden Pata-Mon Curi [C_u_r_i] Reillia Winnie Kocari Kencho Karen Moecho Chokori
BeatmapID:2164595
BeatmapSetID:899538

[Difficulty]
HPDrainRate:5
CircleSize:3.4
OverallDifficulty:6
ApproachRate:7
SliderMultiplier:1.4
SliderTickRate:1

[Events]
//Background and Video events
0,0,"1.jpg",0,0
//Break Periods
//Storyboard Layer 0 (Background)
//Storyboard Layer 1 (Fail)
//Storyboard Layer 2 (Pass)
//Storyboard Layer 3 (Foreground)
//Storyboard Layer 4 (Overlay)
//Storyboard Sound Samples

[TimingPoints]
1153,434.782608695652,4,2,2,30,1,0
1153,-142.857142857143,4,2,2,30,0,0
11587,-117.647058823529,4,2,2,40,0,0
15066,-100,4,2,2,50,0,0
21696,-100,4,2,2,30,0,0
22022,-117.647058823529,4,2,2,30,0,0
44196,-117.647058823529,4,2,2,40,0,0
53326,-100,4,2,2,50,0,0
60283,-86.9565217391304,4,2,2,60,0,1
88109,-100,4,2,2,50,0,0

[Colours]
Combo1 : 43,149,255
Combo2 : 255,64,64
Combo3 : 255,128,64

[HitObjects]
339,190,1153,6,0,P|332:146|298:107,1,97.9999970092774,2|0,0:0|0:0,0:0:0:0:
214,107,1805,2,0,P|174:165|183:221,2,97.9999970092774,2|2|0,0:0|0:0|0:0,0:0:0:0:
256,180,2892,6,0,L|256:308,1,97.9999970092774,2|0,0:0|0:0,0:0:0:0:
302,348,3544,2,0,P|236:359|180:313,2,97.9999970092774,2|2|0,0:0|0:0|0:0,0:0:0:0:
339,273,4631,6,0,P|405:262|461:308,1,97.9999970092774,2|2,0:0|0:0,0:0:0:0:
432,107,5500,2,0,P|366:118|310:72,1,97.9999970092774,2|2,0:0|0:0,0:0:0:0:
199,16,6370,6,0,P|105:21|32:64,1,146.999995513916,2|0,0:0|0:0,0:0:0:0:
12,112,7239,2,0,L|12:240,1,97.9999970092774,2|2,0:0|0:0,0:0:0:0:
107,347,8109,6,0,B|203:379|203:315|299:347,1,195.999994018555,2|0,0:0|0:0,0:0:0:0:
464,371,9413,2,0,L|464:322,1,48.9999985046387,2|0,0:0|0:0,0:0:0:0:
408,260,9848,6,0,B|376:164|440:164|408:68,1,195.999994018555,2|0,0:0|0:0,0:0:0:0:
249,117,11152,2,0,L|200:117,1,48.9999985046387,2|0,0:0|0:0,0:0:0:0:
79,189,11587,6,0,P|110:188|154:173,1,59.5000011348725,2|0,0:0|0:0,0:0:0:0:
167,264,12022,2,0,P|194:247|224:212,1,59.5000011348725,2|0,0:0|0:0,0:0:0:0:
281,284,12457,2,0,P|296:256|305:211,1,59.5000011348725,2|0,0:0|0:0,0:0:0:0:
390,245,12892,2,0,P|389:214|375:170,1,59.5000011348725,2|0,0:0|0:0,0:0:0:0:
342,107,13326,5,2,0:0:0:0:
342,107,15066,6,0,P|293:126|235:114,1,70,6|0,0:0|0:0,0:0:0:0:
187,107,15500,1,0,1:0:0:0:
142,186,15718,2,0,P|142:258|174:333,1,140,2|0,0:0|0:0,0:0:0:0:
241,373,16370,1,0,1:0:0:0:
316,321,16587,1,2,0:0:0:0:
316,321,16696,1,2,0:0:0:0:
316,321,16805,6,0,L|413:329,1,70,2|0,0:0|0:0,0:0:0:0:
460,274,17239,1,0,1:0:0:0:
421,191,17457,1,2,0:0:0:0:
460,108,17674,2,0,P|461:75|432:15,1,70,2|0,0:0|0:0,0:0:0:0:
363,10,18109,2,0,L|256:18,1,70,0|0,1:0|0:0,0:0:0:0:
148,61,18544,6,0,L|255:69,1,70,2|0,0:0|0:0,0:0:0:0:
300,106,18979,1,0,1:0:0:0:
277,194,19196,2,0,P|235:224|125:210,1,140,2|0,0:0|0:0,0:0:0:0:
78,165,19848,1,0,1:0:0:0:
9,225,20066,1,2,0:0:0:0:
9,225,20174,1,2,0:0:0:0:
9,225,20283,6,0,P|10:268|27:333,1,70,2|0,0:0|0:0,0:0:0:0:
64,370,20718,1,0,1:0:0:0:
145,329,20935,2,0,P|226:313|300:342,1,140,2|0,0:0|0:0,0:0:0:0:
361,370,21587,1,0,1:0:0:0:
361,370,21696,1,0,1:0:0:0:
361,370,21805,1,0,1:0:0:0:
323,248,22022,6,0,L|328:171,1,59.5000011348725,2|0,0:0|0:0,0:0:0:0:
395,131,22457,2,0,P|463:118|519:123,2,119.000002269745,2|2|2,0:0|0:0|0:0,0:0:0:0:
327,189,23544,1,2,0:0:0:0:
259,131,23761,6,0,L|158:124,1,59.5000011348725,2|0,0:0|0:0,0:0:0:0:
123,80,24196,1,2,0:0:0:0:
47,127,24413,2,0,P|47:162|81:227,1,59.5000011348725,2|0,0:0|0:0,0:0:0:0:
124,240,24848,2,0,P|124:275|90:340,1,59.5000011348725,2|0,0:0|0:0,0:0:0:0:
60,366,25283,1,2,0:0:0:0:
147,383,25500,6,0,L|248:378,1,59.5000011348725,2|0,0:0|0:0,0:0:0:0:
284,335,25935,2,0,P|349:337|421:381,2,119.000002269745,2|2|2,0:0|0:0|0:0,0:0:0:0:
284,156,27239,6,0,P|349:154|421:110,1,119.000002269745,2|2,0:0|0:0,0:0:0:0:
454,61,27892,1,0,1:0:0:0:
380,10,28109,2,0,L|269:13,1,59.5000011348725,2|0,0:0|0:0,0:0:0:0:
238,48,28544,2,0,L|127:45,1,59.5000011348725,2|0,0:0|1:0,0:0:0:0:
146,78,28870,1,0,1:0:0:0:
146,78,28979,6,0,P|149:114|180:174,1,59.5000011348725,2|0,0:0|0:0,0:0:0:0:
74,170,29413,2,0,P|94:199|151:236,1,59.5000011348725,2|0,0:0|0:0,0:0:0:0:
201,214,29848,2,0,P|198:250|167:310,1,59.5000011348725,2|0,0:0|0:0,0:0:0:0:
129,337,30283,1,2,0:0:0:0:
215,358,30500,1,0,0:0:0:0:
277,293,30718,6,0,L|384:296,1,59.5000011348725,2|0,0:0|0:0,0:0:0:0:
425,298,31152,1,2,0:0:0:0:
425,298,31370,1,0,0:0:0:0:
469,220,31587,2,0,P|467:184|446:131,1,59.5000011348725,2|0,0:0|0:0,0:0:0:0:
394,101,32022,2,0,P|396:65|417:12,1,59.5000011348725,2|0,0:0|0:0,0:0:0:0:
322,2,32457,6,0,L|223:10,1,59.5000011348725,2|0,0:0|0:0,0:0:0:0:
211,79,32892,2,0,P|224:118|192:219,2,119.000002269745,2|2|2,0:0|0:0|0:0,0:0:0:0:
140,24,33979,1,0,1:0:0:0:
69,79,34196,6,0,P|56:118|88:219,1,119.000002269745,2|2,0:0|0:0,0:0:0:0:
140,248,34848,1,2,0:0:0:0:
211,193,35066,2,0,P|254:193|310:217,1,59.5000011348725,2|0,0:0|0:0,0:0:0:0:
348,239,35500,1,2,0:0:0:0:
427,196,35718,1,0,1:0:0:0:
427,196,35826,1,0,1:0:0:0:
427,196,35935,6,0,P|437:248|437:329,1,119.000002269745,2|2,0:0|0:0,0:0:0:0:
366,366,36587,2,0,L|272:360,1,59.5000011348725,2|0,0:0|0:0,0:0:0:0:
239,302,37022,1,2,0:0:0:0:
239,302,37239,1,0,0:0:0:0:
171,362,37457,6,0,L|77:368,1,59.5000011348725,2|0,0:0|0:0,0:0:0:0:
40,310,37892,2,0,P|31:282|36:217,1,59.5000011348725,2|0,0:0|0:0,0:0:0:0:
74,175,38326,1,2,0:0:0:0:
28,98,38544,2,0,P|30:69|40:40,2,59.5000011348725,2|0|2,0:0|0:0|0:0,0:0:0:0:
74,175,39196,1,0,1:0:0:0:
156,140,39413,5,2,0:0:0:0:
156,140,39631,2,0,P|192:143|252:174,1,59.5000011348725,2|0,0:0|0:0,0:0:0:0:
248,68,40066,2,0,P|277:88|314:145,1,59.5000011348725,2|0,0:0|0:0,0:0:0:0:
363,51,40500,2,0,P|378:83|381:151,1,59.5000011348725,2|0,0:0|0:0,0:0:0:0:
337,183,40935,6,0,P|343:211|357:238,1,59.5000011348725,2|0,0:0|0:0,0:0:0:0:
280,284,41370,2,0,P|300:305|325:322,1,59.5000011348725,2|0,0:0|0:0,0:0:0:0:
197,252,41805,2,0,P|168:258|141:272,1,59.5000011348725,2|0,0:0|0:0,0:0:0:0:
96,195,42239,2,0,P|75:215|58:240,1,59.5000011348725,2|0,0:0|0:0,0:0:0:0:
128,112,42674,1,0,1:0:0:0:
128,112,42783,1,0,1:0:0:0:
128,112,42892,6,0,P|122:83|108:56,2,59.5000011348725,2|0|0,0:0|0:0|0:0,0:0:0:0:
184,181,43544,2,0,P|212:190|242:191,2,59.5000011348725,2|0|0,0:0|0:0|0:0,0:0:0:0:
327,163,44196,2,0,P|340:189|346:218,1,59.5000011348725,2|0,0:0|0:0,0:0:0:0:
268,354,44631,5,2,0:0:0:0:
346,309,44848,1,2,0:0:0:0:
424,354,45066,1,0,1:0:0:0:
346,219,45283,2,0,P|349:159|370:99,1,119.000002269745,2|0,0:0|0:0,0:0:0:0:
428,37,45935,1,0,1:0:0:0:
455,122,46152,1,2,0:0:0:0:
341,19,46370,6,0,P|267:24|211:44,1,119.000002269745,6|0,0:0|0:0,0:0:0:0:
152,90,47022,2,0,L|82:87,1,59.5000011348725,2|0,0:0|0:0,0:0:0:0:
9,55,47457,2,0,L|6:125,1,59.5000011348725,2|0,0:0|0:0,0:0:0:0:
73,175,47892,1,0,1:0:0:0:
73,175,48000,1,0,1:0:0:0:
73,175,48109,6,0,P|85:219|80:308,1,119.000002269745,2|0,0:0|0:0,0:0:0:0:
133,366,48761,2,0,L|203:363,1,59.5000011348725,2|0,0:0|0:0,0:0:0:0:
271,321,49196,2,0,L|306:322,2,29.7500005674362,0|0|0,1:0|1:0|0:0,0:0:0:0:
218,248,49631,1,0,1:0:0:0:
218,248,49739,1,0,1:0:0:0:
218,248,49848,6,0,P|206:204|211:115,1,119.000002269745,2|0,0:0|0:0,0:0:0:0:
252,54,50500,2,0,L|322:57,1,59.5000011348725,2|0,0:0|0:0,0:0:0:0:
373,120,50935,2,0,L|443:117,1,59.5000011348725,2|0,0:0|0:0,0:0:0:0:
397,32,51370,5,2,0:0:0:0:
167,79,51805,1,2,0:0:0:0:
214,309,52239,1,2,0:0:0:0:
444,262,52674,1,2,0:0:0:0:
370,212,52892,2,0,P|340:206|297:208,1,59.5000011348725,0|0,1:0|0:0,0:0:0:0:
214,309,53326,6,0,P|226:270|224:221,1,70,4|0,1:2|0:0,0:0:0:0:
158,180,53761,1,0,1:0:0:0:
158,88,53979,1,2,0:0:0:0:
228,30,54196,2,0,P|269:18|317:23,1,70,0|0,1:0|0:0,0:0:0:0:
372,69,54631,2,0,P|407:69|440:58,1,70,0|0,1:0|0:0,0:0:0:0:
510,0,55065,5,0,1:0:0:0:
357,159,55501,1,0,1:0:0:0:
287,101,55718,2,0,P|246:89|198:94,1,70,2|0,0:0|1:0,0:0:0:0:
143,140,56152,2,0,P|108:140|75:129,1,70,2|0,0:0|1:0,0:0:0:0:
5,71,56587,1,2,0:0:0:0:
38,212,56805,6,0,B|52:246|38:280|38:280|24:314|38:348,1,140,0|0,1:0|1:0,0:0:0:0:
122,314,57457,1,2,0:0:0:0:
206,348,57674,2,0,P|247:346|299:320,2,70,0|0|0,1:0|0:0|1:0,0:0:0:0:
122,314,58326,1,2,0:0:0:0:
144,162,58544,6,0,P|155:196|156:231,1,70,6|0,0:0|0:0,0:0:0:0:
209,97,58979,2,0,P|220:63|221:28,1,70,0|0,1:0|0:0,0:0:0:0:
274,162,59413,1,0,1:0:0:0:
346,106,59631,1,0,1:0:0:0:
346,106,59739,1,0,1:0:0:0:
346,106,59848,2,0,L|404:109,3,35,0|0|0|0,1:0|1:0|1:0|1:0,0:0:0:0:
423,138,60283,6,0,P|436:174|429:250,1,80.5000015354157,6|0,0:0|0:0,0:0:0:0:
403,314,60718,1,0,1:0:0:0:
307,272,60935,2,0,P|267:265|215:278,1,80.5000015354157,2|0,0:0|0:0,0:0:0:0:
132,314,61370,1,2,0:0:0:0:
63,236,61587,1,0,1:0:0:0:
116,146,61805,1,2,0:0:0:0:
218,167,62022,6,0,P|263:142|291:97,1,80.5000015354157,2|0,0:0|0:0,0:0:0:0:
305,17,62457,1,0,1:0:0:0:
380,88,62674,2,0,L|483:90,1,80.5000015354157,2|0,0:0|0:0,0:0:0:0:
512,180,63109,1,2,0:0:0:0:
422,232,63326,1,0,1:0:0:0:
512,284,63544,1,2,0:0:0:0:
460,374,63761,6,0,L|357:376,1,80.5000015354157,2|0,0:0|0:0,0:0:0:0:
287,325,64196,2,0,L|184:327,1,80.5000015354157,0|0,1:0|0:0,0:0:0:0:
102,370,64631,2,0,L|100:267,1,80.5000015354157,2|0,0:0|0:0,0:0:0:0:
151,197,65066,2,0,L|149:94,1,80.5000015354157,0|0,1:0|0:0,0:0:0:0:
0,88,65500,6,0,L|4:294,1,161.000003070831,2|0,0:0|1:0,0:0:0:0:
16,353,66152,1,2,0:0:0:0:
100,290,66370,1,2,0:0:0:0:
100,290,66479,2,0,P|153:279|190:282,1,80.5000015354157,0|0,1:0|0:0,0:0:0:0:
218,315,66805,2,0,P|271:325|308:323,1,80.5000015354157,0|0,1:0|0:0,0:0:0:0:
376,218,67239,6,0,P|444:320|564:284,1,161.000003070831,6|0,0:0|1:0,0:0:0:0:
480,222,67892,1,2,0:0:0:0:
431,129,68109,2,0,P|336:121|296:150,1,80.5000015354157,2|0,0:0|0:0,0:0:0:0:
276,186,68544,2,0,P|181:194|141:165,1,80.5000015354157,0|0,1:0|0:0,0:0:0:0:
103,148,68979,6,0,L|91:266,1,80.5000015354157,2|0,0:0|0:0,0:0:0:0:
91,280,69305,1,2,0:0:0:0:
91,280,69413,1,0,1:0:0:0:
168,350,69631,2,0,P|263:358|303:329,1,80.5000015354157,2|0,0:0|0:0,0:0:0:0:
336,310,70066,1,2,0:0:0:0:
426,363,70283,1,0,1:0:0:0:
479,273,70500,1,2,0:0:0:0:
389,220,70718,6,0,P|372:175|375:124,1,80.5000015354157,2|0,0:0|0:0,0:0:0:0:
388,40,71152,1,0,1:0:0:0:
290,78,71370,2,0,L|180:74,1,80.5000015354157,2|0,0:0|0:0,0:0:0:0:
111,113,71805,1,2,0:0:0:0:
29,48,72022,1,0,1:0:0:0:
127,10,72239,1,2,0:0:0:0:
13,151,72457,6,0,L|19:258,1,80.5000015354157,2|0,0:0|0:0,0:0:0:0:
24,336,72892,1,0,1:0:0:0:
107,198,73109,2,0,L|113:305,1,80.5000015354157,2|0,0:0|0:0,0:0:0:0:
118,383,73544,1,2,0:0:0:0:
216,272,73761,2,0,L|264:256,3,40.2500007677078,0|0|0|0,1:0|1:0|1:0|1:0,0:0:0:0:
299,285,74196,6,0,P|344:298|413:289,1,80.5000015354157,6|0,0:0|0:0,0:0:0:0:
474,257,74631,1,0,1:0:0:0:
428,162,74848,2,0,L|434:53,1,80.5000015354157,2|0,0:0|0:0,0:0:0:0:
359,6,75283,1,2,0:0:0:0:
265,51,75500,1,0,1:0:0:0:
171,6,75718,1,2,0:0:0:0:
98,82,75935,6,0,L|104:191,1,80.5000015354157,2|0,0:0|0:0,0:0:0:0:
56,257,76370,1,0,1:0:0:0:
153,298,76587,2,0,P|193:298|231:286,1,80.5000015354157,2|0,0:0|0:0,0:0:0:0:
305,212,77022,1,2,0:0:0:0:
406,238,77239,1,0,1:0:0:0:
332,312,77457,1,2,0:0:0:0:
433,338,77674,6,0,P|469:320|496:290,1,80.5000015354157,2|0,0:0|0:0,0:0:0:0:
496,186,78109,2,0,P|426:136|360:145,1,80.5000015354157,0|0,1:0|0:0,0:0:0:0:
406,238,78544,2,0,P|370:220|343:190,1,80.5000015354157,2|0,0:0|0:0,0:0:0:0:
343,86,78979,2,0,P|413:36|479:45,1,80.5000015354157,0|0,1:0|0:0,0:0:0:0:
253,138,79413,6,0,L|73:138,1,161.000003070831,2|0,0:0|1:0,0:0:0:0:
0,190,80066,1,2,0:0:0:0:
36,287,80283,1,2,0:0:0:0:
36,287,80392,2,0,P|89:298|126:295,1,80.5000015354157,0|0,1:0|0:0,0:0:0:0:
154,262,80718,2,0,P|207:252|244:254,1,80.5000015354157,0|0,1:0|0:0,0:0:0:0:
333,338,81152,6,0,L|341:160,1,161.000003070831,6|0,0:0|1:0,0:0:0:0:
345,72,81805,1,2,0:0:0:0:
433,128,82022,2,0,P|485:125|532:104,2,80.5000015354157,2|0|0,0:0|0:0|1:0,0:0:0:0:
345,72,82674,1,2,0:0:0:0:
252,119,82892,6,0,P|240:157|240:198,1,80.5000015354157,2|0,0:0|0:0,0:0:0:0:
270,239,83218,1,2,0:0:0:0:
270,239,83326,1,0,1:0:0:0:
186,302,83544,2,0,L|72:299,1,80.5000015354157,2|0,0:0|0:0,0:0:0:0:
11,254,83979,1,2,0:0:0:0:
57,160,84196,1,0,1:0:0:0:
11,66,84413,1,2,0:0:0:0:
105,20,84631,6,0,L|219:17,1,80.5000015354157,2|0,0:0|0:0,0:0:0:0:
290,15,85066,1,0,1:0:0:0:
188,122,85283,2,0,L|74:125,1,80.5000015354157,2|0,0:0|0:0,0:0:0:0:
110,228,85718,2,0,L|224:225,1,80.5000015354157,2|0,0:0|1:0,0:0:0:0:
295,223,86153,1,2,0:0:0:0:
454,168,86370,5,2,0:0:0:0:
355,139,86587,1,0,1:0:0:0:
359,306,86805,1,0,1:0:0:0:
457,272,87022,1,2,0:0:0:0:
295,223,87239,1,2,0:0:0:0:
295,223,87348,2,0,L|181:226,1,80.5000015354157,0|0,1:0|0:0,0:0:0:0:
171,255,87674,2,0,L|114:253,3,40.2500007677078,0|0|0|0,1:0|1:0|1:0|1:0,0:0:0:0:
85,251,88109,5,2,0:0:0:0:
