osu file format v14

[General]
AudioFilename: audio.mp3
AudioLeadIn: 0
PreviewTime: 53055
Countdown: 0
SampleSet: Soft
StackLeniency: 0.7
Mode: 0
LetterboxInBreaks: 0
WidescreenStoryboard: 1

[Editor]
Bookmarks: 1274,8230,15187,22143,29100,36056,43013,49969,56926,60404,67360,74317,81273,88230
DistanceSpacing: 2
BeatDivisor: 8
GridSize: 16
TimelineZoom: 1.38

[Metadata]
Title:Sentimental Love (TV Size)
TitleUnicode:センチメンタルラブ (TV Size)
Artist:mimimemeMIMI
ArtistUnicode:みみめめMIMI
Creator:Present
Version:Kencho's Insane
Source:君のいる町
Tags:OP a town where you live Kimi no Iru Machi opening anime cover Garden Pata-Mon Curi [C_u_r_i] Reillia Winnie Kocari Kencho Karen Moecho Chokori
BeatmapID:2164593
BeatmapSetID:899538

[Difficulty]
HPDrainRate:5.7
CircleSize:4.3
OverallDifficulty:7.9
ApproachRate:8.1
SliderMultiplier:1.6
SliderTickRate:1

[Events]
//Background and Video events
0,0,"2.jpg",0,0
//Break Periods
//Storyboard Layer 0 (Background)
//Storyboard Layer 1 (Fail)
//Storyboard Layer 2 (Pass)
//Storyboard Layer 3 (Foreground)
//Storyboard Layer 4 (Overlay)
//Storyboard Sound Samples

[TimingPoints]
1153,434.782608695652,4,2,3,40,1,0
1153,-166.666666666667,4,2,3,40,0,0
11587,-166.666666666667,4,2,3,45,0,0
11805,-166.666666666667,4,2,3,50,0,0
12022,-166.666666666667,4,2,3,55,0,0
12239,-166.666666666667,4,2,3,60,0,0
12457,-166.666666666667,4,2,3,65,0,0
12674,-166.666666666667,4,2,3,70,0,0
12892,-166.666666666667,4,2,3,75,0,0
13109,-166.666666666667,4,2,3,80,0,0
13326,-166.666666666667,4,2,3,40,0,0
15066,-100,4,2,3,55,0,0
21152,-83.3333333333333,4,2,3,50,0,0
21370,-71.4285714285714,4,2,3,54,0,0
21587,-62.5,4,2,3,58,0,0
21805,-55.5555555555556,4,2,3,62,0,0
22022,-166.666666666667,4,2,3,66,0,0
22239,-166.666666666667,4,2,3,35,0,0
28979,-100,4,2,3,40,0,0
35935,-100,4,2,3,40,0,0
44631,-100,4,2,3,55,0,0
46370,-111.111111111111,4,2,3,50,0,0
51370,-125,4,2,3,60,0,0
52892,-125,4,2,3,40,0,0
53326,-90.9090909090909,4,2,3,60,0,0
58544,-90.9090909090909,4,2,3,40,0,0
58979,-90.9090909090909,4,2,3,45,0,0
59413,-90.9090909090909,4,2,3,50,0,0
59631,-90.9090909090909,4,2,3,55,0,0
59848,-90.9090909090909,4,2,3,62,0,0
59957,-90.9090909090909,4,2,3,64,0,0
60066,-90.9090909090909,4,2,3,66,0,0
60174,-90.9090909090909,4,2,3,68,0,0
60283,-83.3333333333333,4,2,3,75,0,1
64631,-71.4285714285714,4,2,3,75,0,1
65500,-83.3333333333333,4,2,3,75,0,1
65826,-83.3333333333333,4,2,3,5,0,1
65935,-83.3333333333333,4,2,3,75,0,1
73761,-62.5,4,2,3,75,0,1
74087,-62.5,4,2,3,70,0,0
74196,-83.3333333333333,4,2,3,75,0,1
78544,-71.4285714285714,4,2,3,75,0,1
79413,-83.3333333333333,4,2,3,75,0,1
87348,-50,4,2,3,75,0,1
88109,-83.3333333333333,4,2,3,40,0,0

[Colours]
Combo1 : 43,149,255
Combo2 : 255,64,64
Combo3 : 255,128,64

[HitObjects]
213,259,1153,6,0,L|207:307,1,47.9999985351563,0|0,3:0|0:0,0:0:0:0:
130,283,1588,2,0,L|137:236,1,47.9999985351563,0|0,3:0|0:0,0:0:0:0:
298,259,2023,2,0,L|305:307,1,47.9999985351563,0|0,3:0|0:0,0:0:0:0:
382,283,2457,2,0,L|375:236,1,47.9999985351563,0|0,3:0|0:0,0:0:0:0:
305,77,2892,6,0,L|299:125,1,47.9999985351563,0|0,3:0|0:0,0:0:0:0:
375,148,3327,2,0,L|382:101,1,47.9999985351563,0|0,3:0|0:0,0:0:0:0:
207,77,3762,2,0,L|214:125,1,47.9999985351563,0|0,3:0|0:0,0:0:0:0:
137,148,4196,2,0,L|130:101,1,47.9999985351563,0|0,3:0|0:0,0:0:0:0:
375,236,4631,6,0,L|382:283,1,47.9999985351563,0|0,3:0|0:0,0:0:0:0:
299,355,5066,2,0,L|305:307,1,47.9999985351563,0|0,3:0|0:0,0:0:0:0:
221,172,5500,2,0,L|228:219,1,47.9999985351563,0|0,3:0|0:0,0:0:0:0:
124,331,5935,2,0,L|130:283,1,47.9999985351563,0|0,3:0|0:0,0:0:0:0:
60,60,6370,6,0,L|74:156,1,95.9999970703126,0|0,3:0|3:0,0:0:0:0:
38,227,7022,1,0,0:0:0:0:
155,143,7239,2,0,L|148:190,1,47.9999985351563,0|0,3:0|0:0,0:0:0:0:
60,60,7674,1,0,3:0:0:0:
60,60,8109,6,0,L|107:53,1,47.9999985351563,0|0,3:0|0:0,0:0:0:0:
203,39,8544,2,0,L|210:86,1,47.9999985351563,0|0,3:0|0:0,0:0:0:0:
224,182,8979,2,0,L|177:189,1,47.9999985351563,0|0,3:0|0:0,0:0:0:0:
81,203,9413,2,0,L|74:156,1,47.9999985351563,0|0,3:0|0:0,0:0:0:0:
156,332,9848,6,0,L|203:339,1,47.9999985351563,0|0,3:0|0:0,0:0:0:0:
320,210,10283,2,0,L|273:203,1,47.9999985351563,0|0,3:0|0:0,0:0:0:0:
299,353,10718,2,0,L|306:306,1,47.9999985351563,0|0,3:0|0:0,0:0:0:0:
177,189,11152,2,0,L|170:236,1,47.9999985351563,0|0,3:0|0:0,0:0:0:0:
342,211,11587,5,2,3:2:0:0:
275,142,11805,1,2,0:0:0:0:
177,189,12022,1,2,3:2:0:0:
194,308,12239,1,2,0:0:0:0:
324,330,12457,1,2,3:2:0:0:
391,202,12674,1,2,0:0:0:0:
282,89,12892,1,2,3:2:0:0:
130,163,13109,1,2,0:0:0:0:
155,341,13326,5,0,3:0:0:0:
155,341,14848,5,8,0:0:0:0:
155,341,14957,1,8,0:0:0:0:
155,341,15066,6,0,L|144:262,1,80,6|0,3:2|3:0,0:0:0:0:
127,143,15500,1,8,3:2:0:0:
239,188,15718,2,0,B|332:203|300:151|394:166,1,160,0|0,3:0|0:0,0:0:0:0:
485,244,16370,1,8,0:0:0:0:
375,329,16587,1,0,3:0:0:0:
375,329,16696,1,0,3:0:0:0:
375,329,16805,6,0,L|364:250,1,80,2|0,3:2|0:0,0:0:0:0:
404,87,17239,2,0,L|393:166,1,80,12|0,0:3|0:0,0:0:0:0:
257,25,17674,1,2,3:2:0:0:
257,25,17783,2,0,L|268:104,1,80,8|0,0:0|0:0,0:0:0:0:
280,184,18109,1,12,0:3:0:0:
404,87,18326,1,4,0:0:0:0:
256,192,18544,6,0,P|216:193|179:179,1,80,6|0,0:3|3:0,0:0:0:0:
115,77,18979,1,8,3:2:0:0:
233,96,19196,1,0,3:0:0:0:
111,231,19413,1,2,0:0:0:0:
111,231,19522,2,0,P|95:194|97:155,1,80,8|0,0:0|0:0,0:0:0:0:
115,77,19848,1,8,0:0:0:0:
256,192,20066,1,0,3:0:0:0:
256,192,20174,1,0,3:0:0:0:
256,192,20283,6,0,P|296:193|333:179,1,80,2|0,3:2|3:0,0:0:0:0:
397,77,20718,1,8,3:2:0:0:
279,96,20935,1,0,3:0:0:0:
401,231,21152,6,0,P|413:209|418:187,1,47.9999985351563,0|0,3:0|3:0,0:0:0:0:
323,265,21370,6,0,P|337:288|359:305,1,55.9999982910157,2|0,3:2|3:0,0:0:0:0:
333,179,21587,6,0,B|301:179|301:179|273:194,1,64,8|8,3:2|3:2,0:0:0:0:
189,264,21805,6,0,B|153:264|153:264|121:247,1,71.9999978027344,4|0,3:2|3:0,0:0:0:0:
60,166,22022,5,2,3:2:0:0:
55,181,22457,1,2,3:2:0:0:
60,196,22892,1,2,3:2:0:0:
55,211,23326,1,2,3:2:0:0:
81,287,23544,1,0,1:0:0:0:
55,363,23761,5,2,3:2:0:0:
70,368,24196,1,2,3:2:0:0:
85,363,24631,1,2,3:2:0:0:
100,368,25066,1,2,3:2:0:0:
176,342,25283,1,0,1:0:0:0:
252,368,25500,5,6,3:2:0:0:
257,353,25935,1,2,3:2:0:0:
252,338,26370,1,2,3:2:0:0:
257,323,26805,1,2,3:2:0:0:
231,247,27022,1,0,1:0:0:0:
231,247,27131,1,0,1:0:0:0:
231,247,27239,6,0,L|236:200,1,47.9999985351563,2|0,3:2|1:0,0:0:0:0:
245,119,27674,1,2,3:2:0:0:
171,151,27892,1,8,1:2:0:0:
310,167,28109,1,2,3:2:0:0:
254,39,28326,1,4,1:2:0:0:
384,135,28544,1,4,3:2:0:0:
467,23,28761,1,8,1:2:0:0:
467,23,28870,1,8,0:0:0:0:
467,23,28979,6,0,L|458:102,1,80,6|0,3:2|1:0,0:0:0:0:
393,214,29413,2,0,L|384:135,1,80,2|0,3:2|1:0,0:0:0:0:
328,7,29848,2,0,L|319:86,1,80,2|0,3:2|1:0,0:0:0:0:
254,198,30283,2,0,L|245:119,1,80,2|0,3:2|1:0,0:0:0:0:
102,66,30718,6,0,B|142:72|142:72|179:60,1,80,6|0,3:2|1:0,0:0:0:0:
28,111,31152,2,0,B|16:74|16:74|22:34,1,80,2|0,3:2|1:0,0:0:0:0:
104,153,31587,2,0,P|143:158|182:147,1,80,2|0,3:2|1:0,0:0:0:0:
30,198,32022,2,0,P|25:237|36:276,1,80,2|0,3:2|1:0,0:0:0:0:
122,343,32457,6,0,L|201:332,1,80,6|0,3:2|1:0,0:0:0:0:
269,244,32892,2,0,L|348:233,1,80,2|0,3:2|1:0,0:0:0:0:
135,354,33326,2,0,L|214:343,1,80,2|0,3:2|1:0,0:0:0:0:
282,255,33761,1,2,3:2:0:0:
202,195,33979,1,8,0:0:0:0:
295,266,34196,6,0,L|374:255,1,80,2|0,3:2|1:0,0:0:0:0:
442,165,34631,1,2,3:2:0:0:
363,176,34848,1,4,1:2:0:0:
273,108,35066,1,2,3:2:0:0:
352,97,35283,1,4,1:2:0:0:
420,7,35500,1,2,3:2:0:0:
341,18,35718,1,8,1:2:0:0:
341,18,35826,1,8,0:0:0:0:
341,18,35935,6,0,L|262:29,1,80,6|0,3:2|1:0,0:0:0:0:
115,108,36370,2,0,L|194:119,1,80,2|0,3:2|1:0,0:0:0:0:
363,176,36805,2,0,L|284:187,1,80,2|0,3:2|1:0,0:0:0:0:
216,277,37239,1,2,3:2:0:0:
194,119,37457,1,4,3:2:0:0:
126,209,37674,6,0,P|85:212|48:201,1,80,2|0,3:2|1:0,0:0:0:0:
162,48,38109,2,0,P|185:82|194:119,1,80,2|0,3:2|1:0,0:0:0:0:
5,98,38544,2,0,P|22:60|50:34,1,80,2|0,3:2|1:0,0:0:0:0:
97,116,38979,1,2,3:2:0:0:
47,220,39196,1,8,3:2:0:0:
205,198,39413,6,0,L|126:209,1,80,6|0,3:2|1:0,0:0:0:0:
258,285,39848,2,0,L|179:296,1,80,2|0,3:2|1:0,0:0:0:0:
211,180,40283,2,0,L|132:191,1,80,2|0,3:2|1:0,0:0:0:0:
264,267,40718,1,2,3:2:0:0:
290,169,40935,1,4,3:2:0:0:
343,256,41152,6,0,B|383:259|383:259|419:243,1,80,2|0,3:2|1:0,0:0:0:0:
472,172,41587,1,2,3:2:0:0:
368,172,41805,1,12,3:2:0:0:
420,101,42022,1,2,3:2:0:0:
332,46,42239,1,4,1:2:0:0:
443,93,42457,1,2,3:2:0:0:
368,197,42674,1,8,1:2:0:0:
368,197,42783,1,8,0:0:0:0:
368,197,42892,6,0,P|367:235|387:275,1,80,6|0,3:2|3:2,0:0:0:0:
453,217,43326,1,2,3:2:0:0:
374,351,43544,2,0,L|385:272,1,80,0|2,3:2|3:2,0:0:0:0:
466,323,43979,1,0,3:2:0:0:
282,379,44196,2,0,L|293:300,1,80,2|0,3:2|0:0,0:0:0:0:
320,102,44631,5,2,3:2:0:0:
218,225,44848,1,4,3:2:0:0:
396,193,45066,1,8,3:2:0:0:
207,304,45283,2,0,P|145:259|150:183,1,160,6|2,3:2|3:2,0:0:0:0:
198,113,45826,1,0,3:0:0:0:
198,113,45935,2,0,P|193:94|185:76,1,40,8|0,3:2|3:0,0:0:0:0:
82,155,46152,2,0,P|74:173|69:192,1,40,2|0,3:2|3:0,0:0:0:0:
218,225,46370,6,0,L|290:219,1,71.9999978027344,6|0,3:2|0:0,0:0:0:0:
207,304,46805,1,2,0:0:0:0:
350,292,47022,2,0,L|206:304,1,143.999995605469,0|0,3:2|0:0,0:0:0:0:
339,371,47674,1,2,0:0:0:0:
290,219,47892,1,8,0:0:0:0:
290,219,48000,1,8,0:0:0:0:
290,219,48109,6,0,L|218:225,1,71.9999978027344,6|0,3:2|0:0,0:0:0:0:
301,140,48544,1,2,0:0:0:0:
158,152,48761,2,0,L|302:140,1,143.999995605469,8|8,3:2|0:0,0:0:0:0:
312,61,49305,1,8,0:0:0:0:
312,61,49413,2,0,P|309:43|303:24,1,35.9999989013672,2|2,0:0|0:0,0:0:0:0:
376,112,49631,2,0,P|393:118|412:122,1,35.9999989013672,2|8,0:0|0:0,0:0:0:0:
301,140,49848,6,0,P|277:166|269:200,1,71.9999978027344,6|0,3:2|0:0,0:0:0:0:
295,283,50283,1,2,0:0:0:0:
192,173,50500,2,0,B|178:256|225:228|212:312,1,143.999995605469,0|4,3:2|0:0,0:0:0:0:
135,285,51152,1,2,0:0:0:0:
269,200,51370,5,4,0:0:0:0:
264,175,51805,1,4,0:0:0:0:
259,150,52239,1,4,0:0:0:0:
254,125,52674,1,0,0:0:0:0:
159,144,52892,6,0,L|139:148,2,21.3333333333333,0|0|0,3:0|3:0|3:0,0:0:0:0:
89,92,53109,2,0,L|69:88,2,21.3333333333333,2|0|0,3:2|3:0|3:0,0:0:0:0:
64,163,53326,6,0,P|43:201|43:245,1,88.000002685547,6|0,3:2|0:0,0:0:0:0:
256,343,53761,2,0,P|277:305|277:261,1,88.000002685547,8|2,0:0|0:0,0:0:0:0:
128,223,54196,1,8,3:2:0:0:
192,283,54413,1,2,0:0:0:0:
211,198,54631,1,8,0:0:0:0:
109,308,54848,1,2,0:0:0:0:
147,138,55066,6,0,P|124:100|87:79,1,88.000002685547,6|0,3:2|0:0,0:0:0:0:
128,223,55500,1,8,0:0:0:0:
211,198,55718,1,2,0:0:0:0:
109,308,55935,1,8,3:2:0:0:
64,163,56152,1,2,0:0:0:0:
211,198,56370,1,8,0:0:0:0:
166,53,56587,1,2,0:0:0:0:
275,258,56805,6,0,P|239:282|195:285,1,88.000002685547,6|0,3:2|0:0,0:0:0:0:
64,163,57239,1,8,0:0:0:0:
211,198,57457,1,2,0:0:0:0:
166,53,57674,1,8,0:0:0:0:
109,308,57892,1,2,0:0:0:0:
358,233,58109,1,8,0:0:0:0:
230,113,58326,1,2,0:0:0:0:
192,283,58544,6,0,L|198:326,3,44.0000013427735,2|0|2|0,3:2|3:2|3:2|3:2,0:0:0:0:
128,223,58979,2,0,L|85:229,3,44.0000013427735,8|0|2|0,3:2|3:2|3:2|3:2,0:0:0:0:
211,198,59413,6,0,L|205:155,1,44.0000013427735,8|0,3:2|3:2,0:0:0:0:
97,101,59631,2,0,L|140:95,1,44.0000013427735,2|8,3:2|3:2,0:0:0:0:
224,70,59848,5,8,3:2:0:0:
257,66,59957,1,8,3:2:0:0:
290,62,60066,1,8,3:2:0:0:
323,58,60174,1,8,3:2:0:0:
368,41,60283,6,0,P|356:87|364:134,1,95.9999970703126,6|0,3:2|1:0,0:0:0:0:
399,274,60718,1,8,0:0:0:0:
265,221,60935,2,0,P|217:223|175:245,1,95.9999970703126,0|2,1:0|0:0,0:0:0:0:
72,384,61370,2,0,P|93:341|95:293,1,95.9999970703126,0|8,1:0|0:0,0:0:0:0:
13,187,61805,1,0,1:0:0:0:
175,245,62022,6,0,B|190:199|190:199|183:152,1,95.9999970703126,2|0,3:2|1:0,0:0:0:0:
88,43,62457,1,8,0:0:0:0:
226,83,62674,2,0,P|274:84|318:66,1,95.9999970703126,0|2,1:0|0:0,0:0:0:0:
383,19,63000,1,8,0:0:0:0:
383,19,63109,2,0,L|369:114,1,95.9999970703126,0|8,1:0|0:0,0:0:0:0:
346,272,63544,1,0,1:0:0:0:
203,175,63761,6,0,P|251:166|298:162,1,95.9999970703126,2|0,3:2|1:0,0:0:0:0:
512,211,64196,2,0,P|464:220|417:224,1,95.9999970703126,8|0,0:0|1:0,0:0:0:0:
347,5,64631,6,0,P|363:58|369:114,1,111.999996582031,2|0,3:2|1:0,0:0:0:0:
368,381,65066,2,0,P|352:328|346:272,1,111.999996582031,8|0,0:0|1:0,0:0:0:0:
449,108,65500,6,0,P|423:173|357:193,1,143.999995605469,2|0,3:2|0:0,0:0:0:0:
281,165,65935,2,0,P|257:167|235:175,1,47.9999985351563,8|0,0:0|0:0,0:0:0:0:
180,234,66152,1,0,1:0:0:0:
244,94,66370,1,6,0:3:0:0:
209,87,66479,1,8,0:0:0:0:
174,80,66587,1,0,1:0:0:0:
281,165,66805,1,12,0:3:0:0:
257,14,67022,1,0,1:0:0:0:
111,183,67239,6,0,P|96:251|137:308,1,143.999995605469,2|0,3:2|0:0,0:0:0:0:
212,337,67674,2,0,L|307:323,1,95.9999970703126,8|0,3:2|1:0,0:0:0:0:
74,357,68109,1,2,3:2:0:0:
180,234,68326,1,0,1:0:0:0:
354,382,68544,2,0,P|380:342|377:295,1,95.9999970703126,8|0,0:0|1:0,0:0:0:0:
127,175,68979,6,0,B|164:181|164:181|175:175|175:175|268:189,1,143.999995605469,2|0,0:0|0:0,0:0:0:0:
347,201,69413,1,8,0:0:0:0:
212,337,69631,2,0,P|186:297|189:250,1,95.9999970703126,0|2,1:0|3:2,0:0:0:0:
262,277,69957,1,8,0:0:0:0:
262,277,70066,2,0,L|357:291,1,95.9999970703126,0|8,1:0|0:0,0:0:0:0:
417,216,70500,1,0,1:0:0:0:
380,378,70718,6,0,P|354:338|357:291,1,95.9999970703126,2|0,3:2|1:0,0:0:0:0:
381,127,71152,1,8,0:0:0:0:
229,188,71370,2,0,P|274:203|322:202,1,95.9999970703126,0|2,1:0|0:0,0:0:0:0:
209,5,71805,2,0,L|195:100,1,95.9999970703126,0|8,1:0|0:0,0:0:0:0:
171,262,72239,1,0,1:0:0:0:
415,216,72457,6,0,P|370:201|322:202,1,95.9999970703126,2|0,3:2|1:0,0:0:0:0:
103,348,72892,1,12,0:3:0:0:
195,100,73109,1,0,1:0:0:0:
265,355,73326,1,2,3:2:0:0:
58,189,73544,1,8,1:2:0:0:
322,202,73761,6,0,P|353:195|379:178,1,64,12|2,0:3|3:2,0:0:0:0:
384,87,73979,2,0,P|415:94|441:111,1,64,8|8,3:2|3:2,0:0:0:0:
482,291,74196,6,0,P|467:246|468:198,1,95.9999970703126,6|0,3:2|1:0,0:0:0:0:
504,46,74631,1,8,0:0:0:0:
380,177,74848,2,0,P|333:182|289:164,1,95.9999970703126,0|2,1:0|0:0,0:0:0:0:
162,48,75283,2,0,P|209:43|253:61,1,95.9999970703126,0|8,1:0|0:0,0:0:0:0:
99,136,75718,1,0,1:0:0:0:
289,164,75935,6,0,L|194:150,1,95.9999970703126,2|0,3:2|1:0,0:0:0:0:
229,239,76370,1,8,0:0:0:0:
159,61,76587,1,0,1:0:0:0:
134,225,76805,1,2,0:0:0:0:
129,260,76913,1,8,0:0:0:0:
124,295,77022,1,0,1:0:0:0:
251,228,77239,1,8,0:0:0:0:
41,119,77457,1,0,1:0:0:0:
41,119,77566,1,0,1:0:0:0:
41,119,77674,6,0,L|55:214,1,95.9999970703126,6|0,0:3|1:0,0:0:0:0:
304,172,78109,2,0,P|262:151|216:159,1,95.9999970703126,8|0,0:0|1:0,0:0:0:0:
113,371,78544,6,0,L|129:260,1,111.999996582031,6|0,0:3|1:0,0:0:0:0:
367,243,78979,2,0,P|318:266|263:258,1,111.999996582031,8|0,0:0|1:0,0:0:0:0:
178,10,79413,6,0,B|220:113|154:93|196:196,1,191.999994140625,6|8,0:3|3:2,0:0:0:0:
277,137,80066,1,0,1:0:0:0:
97,70,80283,1,2,3:2:0:0:
63,58,80392,1,8,0:0:0:0:
29,45,80500,1,0,1:0:0:0:
187,103,80718,1,8,3:2:0:0:
129,259,80935,1,0,1:0:0:0:
294,232,81152,6,0,P|341:240|378:269,1,95.9999970703126,2|0,3:2|1:0,0:0:0:0:
219,293,81587,1,8,0:0:0:0:
277,137,81805,1,0,1:0:0:0:
112,164,82022,2,0,P|65:156|28:127,1,95.9999970703126,2|0,0:0|1:0,0:0:0:0:
187,103,82457,1,8,0:0:0:0:
129,259,82674,1,0,1:0:0:0:
277,137,82892,6,0,P|346:147|387:205,1,143.999995605469,2|0,0:0|0:0,0:0:0:0:
376,283,83326,1,8,0:0:0:0:
203,198,83544,2,0,L|219:292,1,95.9999970703126,0|2,1:0|3:2,0:0:0:0:
232,372,83870,1,8,0:0:0:0:
232,372,83979,2,0,P|275:350|297:309,1,95.9999970703126,0|8,1:0|0:0,0:0:0:0:
129,259,84413,1,0,1:0:0:0:
277,137,84631,5,6,0:3:0:0:
457,205,84848,1,0,1:0:0:0:
203,198,85066,5,12,0:3:0:0:
171,8,85283,1,0,1:0:0:0:
293,232,85500,5,6,0:3:0:0:
145,354,85718,1,0,1:0:0:0:
187,103,85935,5,12,0:3:0:0:
457,205,86152,1,0,1:0:0:0:
219,293,86370,5,6,0:3:0:0:
171,8,86587,1,8,1:2:0:0:
367,171,86805,5,8,0:0:0:0:
145,354,87022,1,2,1:2:0:0:
187,103,87239,5,2,0:0:0:0:
187,103,87348,2,0,B|219:193|167:169|199:259,1,160,8|0,0:0|0:0,0:0:0:0:
337,233,87674,6,0,B|307:206|307:206|268:210,1,80,8|8,0:0|0:0,0:0:0:0:
49,129,87892,2,0,B|79:156|79:156|118:152,1,80,4|8,3:2|0:0,0:0:0:0:
256,54,88109,5,0,3:2:0:0:
