osu file format v14

[General]
AudioFilename: sentimental love.mp3
AudioLeadIn: 1300
PreviewTime: 59659
Countdown: 0
SampleSet: Soft
StackLeniency: 0.7
Mode: 0
LetterboxInBreaks: 0
WidescreenStoryboard: 0

[Editor]
Bookmarks: 38898,45853
DistanceSpacing: 0.6
BeatDivisor: 4
GridSize: 32
TimelineZoom: 1

[Metadata]
Title:Sentimental Love
TitleUnicode:センチメンタルラブ
Artist:mimimemeMIMI
ArtistUnicode:みみめめMIMI
Creator:Kocari
Version:Normal
Source:君のいる町
Tags:Kimi no Iru Machi Gaia tv size opening
BeatmapID:751599
BeatmapSetID:337416

[Difficulty]
HPDrainRate:3.5
CircleSize:3.5
OverallDifficulty:3.5
ApproachRate:4.5
SliderMultiplier:1.4
SliderTickRate:1

[Events]
//Background and Video events
0,0,"BG.jpg",0,0
//Break Periods
//Storyboard Layer 0 (Background)
//Storyboard Layer 1 (Fail)
//Storyboard Layer 2 (Pass)
//Storyboard Layer 3 (Foreground)
//Storyboard Sound Samples

[TimingPoints]
638,434.782608695652,4,2,1,35,1,0
11072,-100,4,2,1,40,0,0
11507,-100,4,2,1,50,0,0
11942,-100,4,2,1,60,0,0
12377,-100,4,2,1,70,0,0
13681,-100,4,2,1,35,0,0
14551,-100,4,2,1,50,0,0
21507,-100,4,2,1,35,0,0
45855,-100,4,2,1,45,0,0
59768,-100,4,2,1,70,0,1
87594,-100,4,2,1,25,0,0

[Colours]
Combo1 : 255,128,128
Combo2 : 0,172,255
Combo3 : 255,117,255
Combo4 : 255,148,40

[HitObjects]
69,284,638,6,0,L|63:127,2,140,2|0|2,0:0|0:0|0:0,0:0:0:0:
129,342,1942,1,0,0:0:0:0:
197,293,2377,2,0,P|230:275|331:284,1,140,2|0,0:0|0:0,0:0:0:0:
399,237,3246,2,0,L|406:87,1,140,2|0,0:0|0:0,0:0:0:0:
328,63,4116,6,0,P|264:83|188:38,1,140,2|0,0:0|0:0,0:0:0:0:
161,38,4768,1,0,0:0:0:0:
161,38,4985,2,0,L|155:177,1,140,2|0,0:0|0:0,0:0:0:0:
88,229,5855,2,0,P|148:261|217:234,1,140,2|0,0:0|0:0,0:0:0:0:
246,214,6507,1,0,0:0:0:0:
246,214,6724,2,0,L|385:216,1,140,2|0,0:0|0:0,0:0:0:0:
440,281,7594,6,0,P|468:212|426:144,1,140,2|0,0:0|0:0,0:0:0:0:
412,125,8246,1,0,0:0:0:0:
412,125,8464,2,0,L|324:123,1,70,2|0,0:0|0:0,0:0:0:0:
304,105,8898,2,0,L|216:103,1,70,0|0,0:0|0:0,0:0:0:0:
194,90,9333,2,0,P|203:190|171:293,2,210,2|0|2,0:0|0:0|0:0,0:0:0:0:
118,53,11072,5,0,1:0:0:0:
62,116,11507,1,0,1:0:0:0:
99,190,11942,1,0,1:0:0:0:
177,160,12377,1,0,1:0:0:0:
244,209,12811,1,0,0:0:0:0:
364,100,13681,6,0,P|396:73|463:181,1,210,2|4,0:0|0:1,0:0:0:0:
441,202,14551,1,0,0:0:0:0:
358,185,14985,1,8,0:0:0:0:
299,244,15420,2,0,P|298:279|301:322,2,70,0|0|8,0:0|0:0|0:0,0:0:0:0:
248,177,16290,2,0,P|177:178|104:187,1,140,0|8,0:0|0:0,0:0:0:0:
99,102,17159,2,0,P|170:101|243:92,1,140,0|8,0:0|0:0,0:0:0:0:
279,83,17811,1,8,0:3:0:0:
279,83,18029,6,0,P|348:105|423:92,1,140,4|8,0:3|0:0,0:0:0:0:
467,30,18898,2,0,L|457:175,1,140,0|8,0:0|0:0,0:0:0:0:
413,241,19768,2,0,P|344:219|269:232,1,140,0|8,0:0|0:0,0:0:0:0:
242,250,20420,2,0,B|269:194|228:151|228:151|273:102|242:40,1,210,8|8,0:0|0:0,0:0:0:0:
173,88,21507,6,0,P|102:88|33:84,1,140,4|2,0:1|0:0,0:0:0:0:
29,168,22377,2,0,P|99:167|168:171,1,140,0|2,0:0|0:0,0:0:0:0:
248,199,23246,2,0,P|252:269|250:347,1,140,0|2,0:0|0:0,0:0:0:0:
334,338,24116,2,0,P|330:268|332:190,1,140,0|2,0:0|0:0,0:0:0:0:
387,135,24985,5,0,0:0:0:0:
331,72,25420,1,2,0:0:0:0:
267,127,25855,2,0,P|189:124|125:113,2,140,0|2|0,0:0|0:0|0:0,0:0:0:0:
310,54,27159,2,0,L|385:62,1,70
416,82,27594,2,0,P|408:121|403:165,2,70,0|8|4,1:0|0:3|0:3,0:0:0:0:
498,65,28464,6,0,P|491:135|472:232,1,140,0|2,0:0|0:0,0:0:0:0:
418,261,29333,2,0,P|349:248|279:241,1,140,0|2,0:0|0:0,0:0:0:0:
240,225,29985,1,0,0:0:0:0:
240,225,30203,2,0,P|246:155|259:86,2,140,0|2|0,0:0|0:0|0:0,0:0:0:0:
191,293,31507,1,2,0:0:0:0:
131,233,31942,6,0,P|124:163|111:94,2,140,0|2|0,0:0|0:0|0:0,0:0:0:0:
146,315,33246,1,2,0:0:0:0:
218,272,33681,2,0,P|283:255|354:281,1,140,0|2,0:3|0:0,0:0:0:0:
387,296,34333,1,8,0:3:0:0:
387,296,34551,2,0,L|394:205,1,70
415,191,34985,2,0,L|422:100,1,70
409,80,35420,6,0,P|345:98|268:77,1,140,0|2,0:0|0:0,0:0:0:0:
208,29,36290,1,0,0:0:0:0:
148,88,36724,1,2,0:0:0:0:
88,147,37159,2,0,P|89:223|97:304,1,140,0|2,0:0|0:0,0:0:0:0:
120,319,37811,1,0,0:0:0:0:
120,319,38029,2,0,P|188:305|264:333,1,140,0|2,0:0|0:0,0:0:0:0:
327,367,38898,6,0,P|393:387|460:373,2,140,0|2|0,0:0|0:0|0:0,0:0:0:0:
274,304,40203,1,2,0:0:0:0:
215,243,40637,2,0,P|190:304|219:369,2,140,0|2|0,0:0|0:0|0:0,0:0:0:0:
233,205,41724,2,0,P|242:133|240:57,1,140,8|8,0:3|0:0,0:0:0:0:
204,44,42377,6,0,P|140:62|71:45,2,140,0|2|0,0:0|0:0|0:0,0:0:0:0:
280,0,43681,1,8,0:0:0:0:
344,54,44116,2,0,L|432:28,2,70,10|8|8,0:0|0:0|0:0,0:0:0:0:
312,81,44768,2,0,P|313:156|326:238,1,140,8|0,0:0|0:0,0:0:0:0:
341,257,45420,1,8,0:0:0:0:
293,326,45855,6,0,B|192:293|192:293|68:335,2,210,4|8|0,0:1|0:3|0:0,0:0:0:0:
376,329,47594,2,0,P|417:287|325:180,2,210,8|8|8,0:0|0:0|0:0,0:0:0:0:
299,294,49333,6,0,B|271:268|235:300|199:331|167:304,1,140,8|0,0:3|0:0,0:0:0:0:
129,289,49985,1,8,0:0:0:0:
167,214,50420,1,8,0:3:0:0:
225,153,50855,2,0,P|158:132|86:182,2,140,8|8|8,0:0|0:0|0:0,0:0:0:0:
301,188,52159,1,8,0:0:0:0:
349,119,52594,1,8,0:0:0:0:
349,119,52811,6,0,L|347:273,1,140,4|8,0:1|0:0,0:0:0:0:
431,258,53681,2,0,L|432:118,1,140,8|8,0:0|0:0,0:0:0:0:
390,45,54551,1,8,0:0:0:0:
349,119,54985,1,8,0:0:0:0:
303,189,55420,2,0,P|264:191|223:187,2,70,8|0|8,0:0|0:0|0:0,0:0:0:0:
339,264,56290,6,0,P|267:270|193:262,1,140,4|8,0:1|0:0,0:0:0:0:
141,203,57159,1,8,0:0:0:0:
75,255,57594,1,8,0:0:0:0:
11,199,58029,2,0,L|4:115,2,70,8|8|8,0:0|0:0|0:0,0:0:0:0:
75,255,58898,2,0,L|70:348,2,70,8|8|8,0:0|0:0|0:0,0:0:0:0:
141,203,59768,6,0,P|212:187|276:219,1,140,4|8,0:1|0:0,0:0:0:0:
303,240,60420,2,0,P|374:240|446:235,1,140,0|0,0:0|0:0,0:0:0:0:
475,208,61072,1,8,0:0:0:0:
433,135,61507,2,0,P|362:135|290:140,1,140,0|8,0:0|0:0,0:0:0:0:
256,160,62159,2,0,P|186:164|116:164,1,140,0|0,0:0|0:0,0:0:0:0:
76,149,62811,1,8,0:0:0:0:
21,84,63246,6,0,P|-6:125|29:220,2,140,0|8|0,0:1|0:0|0:0,0:0:0:0:
80,24,64551,1,8,0:0:0:0:
130,90,64985,2,0,P|201:108|277:74,1,140,0|8,0:0|0:0,0:0:0:0:
289,54,65637,1,8,0:0:0:0:
289,54,65855,2,0,L|284:207,1,140,0|8,0:0|0:0,0:0:0:0:
349,247,66724,6,0,P|282:223|201:258,1,140,4|8,0:1|0:0,0:0:0:0:
158,301,67594,2,0,L|172:378,2,70,0|0|8,0:0|0:0|0:0,0:0:0:0:
91,249,68464,2,0,P|114:215|86:119,1,140,0|8,0:0|0:0,0:0:0:0:
35,186,69333,1,0,0:0:0:0:
91,249,69768,1,8,0:0:0:0:
160,201,70203,6,0,P|226:186|294:210,1,140,4|8,0:1|0:0,0:0:0:0:
366,248,71072,1,0,0:0:0:0:
425,188,71507,1,8,0:0:0:0:
483,128,71942,2,0,L|477:55,2,70,8|8|8,0:0|0:0|0:0,0:0:0:0:
425,188,72811,2,0,L|416:265,2,70,8|8|8,0:0|0:0|0:0,0:0:0:0:
357,137,73681,6,0,B|326:127|326:127|242:144|242:144|206:133,1,140,4|8,0:1|0:0,0:0:0:0:
150,91,74551,1,0,0:0:0:0:
79,136,74985,1,8,0:0:0:0:
8,180,75420,2,0,P|13:250|26:329,1,140,0|8,0:0|0:0,0:0:0:0:
60,340,76072,2,0,P|108:316|216:347,1,140,0|0,0:0|0:0,0:0:0:0:
230,339,76724,1,8,0:0:0:0:
306,304,77159,6,0,P|309:236|315:160,1,140,4|8,0:1|0:0,0:0:0:0:
368,99,78029,1,0,0:0:0:0:
299,50,78464,1,8,0:0:0:0:
245,114,78898,2,0,B|224:128|198:110|198:110|105:151|45:90,1,210,4|8,0:3|0:0,0:0:0:0:
31,56,79768,2,0,L|17:215,1,140,8|8,0:0|0:0,0:0:0:0:
70,262,80637,6,0,P|137:242|216:276,1,140,4|8,0:1|0:0,0:0:0:0:
276,301,81507,1,0,0:0:0:0:
346,254,81942,1,8,0:0:0:0:
408,310,82377,2,0,P|430:262|382:178,1,140,0|8,0:0|0:0,0:0:0:0:
360,164,83029,2,0,L|212:161,1,140
180,146,83681,1,8,0:0:0:0:
129,78,84116,6,0,P|103:114|132:216,2,140,4|8|0,0:1|0:0|0:0,0:0:0:0:
180,146,85420,1,8,0:0:0:0:
250,99,85855,2,0,B|315:74|315:74|383:101,1,140,0|8,0:0|0:0,0:0:0:0:
442,42,86724,1,0,0:0:0:0:
482,115,87159,1,8,0:0:0:0:
429,180,87594,1,4,0:1:0:0:
