osu file format v14

[General]
AudioFilename: audio.mp3
AudioLeadIn: 0
PreviewTime: 56454
Countdown: 0
SampleSet: Soft
StackLeniency: 0.4
Mode: 0
LetterboxInBreaks: 0
WidescreenStoryboard: 1

[Editor]
DistanceSpacing: 0.9
BeatDivisor: 4
GridSize: 32
TimelineZoom: 2.26

[Metadata]
Title:Sayonara Usotsuki (TV Size)
TitleUnicode:サヨナラ嘘ツキ (TV Size)
Artist:mimimemeMIMI
ArtistUnicode:みみめめMIMI
Creator:Wanpachi
Version:Normal
Source:ブレイドアンドソウル
Tags:blade & and soul bns deca decaedeus cycopton synderes zhuxiaoyan frostwich japanese pop jpop j-pop anime ブレイドアンドソウル opening version op ver unison square takao タカオユキ
BeatmapID:3239097
BeatmapSetID:1558261

[Difficulty]
HPDrainRate:4
CircleSize:3.2
OverallDifficulty:4
ApproachRate:5.4
SliderMultiplier:1
SliderTickRate:1

[Events]
//Background and Video events
0,0,"background.jpg",0,0
//Break Periods
2,14127,23337
2,81215,82678
//Storyboard Layer 0 (Background)
//Storyboard Layer 1 (Fail)
//Storyboard Layer 2 (Pass)
//Storyboard Layer 3 (Foreground)
//Storyboard Layer 4 (Overlay)
//Storyboard Sound Samples

[TimingPoints]
-1897,329.67032967033,4,2,0,40,1,0
7828,-100,4,2,0,70,0,0
8487,-100,4,2,0,70,0,0
13927,-100,4,2,0,40,0,0
24476,-100,4,2,0,50,0,0
35026,-100,4,2,0,50,0,0
43103,-100,4,2,0,50,0,0
45575,-100,4,2,0,50,0,0
50850,-100,4,2,0,50,0,0
57443,-90.9090909090909,4,2,0,80,0,1
57526,-90.9090909090909,4,2,0,80,0,0
68322,-90.9090909090909,4,2,0,80,0,1
68405,-90.9090909090909,4,2,0,80,0,0
73267,-90.9090909090909,4,2,0,80,0,1
77223,-90.9090909090909,4,2,0,80,0,0
78542,-100,4,2,0,70,0,0
89421,-100,4,2,0,70,0,0
90081,-100,4,2,0,60,0,0
90740,-100,4,2,0,50,0,0
91399,-100,4,2,0,40,0,0
92059,-100,4,2,0,5,0,0

[Colours]
Combo1 : 17,254,176
Combo2 : 173,255,95
Combo3 : 255,88,100
Combo4 : 255,94,55

[HitObjects]
52,147,8487,6,0,P|87:70|161:57,1,150,6|0,3:2|1:0,0:0:0:0:
224,96,9311,2,0,L|273:89,1,50,2|2,3:2|3:2,0:0:0:0:
313,68,9641,2,0,L|362:74,1,50,2|2,1:2|0:2,0:0:0:0:
404,57,9971,1,6,3:2:0:0:
477,117,10300,1,2,1:2:0:0:
477,117,10465,2,0,P|467:170|462:228,1,100,2|2,0:0|3:2,0:0:0:0:
484,255,10960,1,2,1:2:0:0:
423,321,11289,6,0,L|319:308,1,100,6|0,3:2|1:0,0:0:0:0:
285,283,11784,1,6,3:2:0:0:
205,324,12113,1,2,3:2:0:0:
119,295,12443,2,0,P|122:230|142:183,1,100,6|2,3:2|3:2,0:0:0:0:
178,181,12938,1,2,1:2:0:0:
178,181,13103,2,0,B|238:189|288:139|292:104|292:104|284:81|284:81|297:58|297:58|287:33|287:33|294:13,1,250,2|2,3:2|0:0,0:0:0:0:
58,29,24476,6,0,P|42:81|43:139,1,100,6|0,3:2|1:2,0:0:0:0:
96,197,25135,2,0,L|88:256,1,50,2|0,0:0|3:2,0:0:0:0:
152,318,25630,1,2,1:2:0:0:
152,318,25795,2,0,P|203:275|257:272,1,100,2|2,0:0|1:2,0:0:0:0:
312,313,26454,2,0,L|429:292,1,100,2|2,3:2|1:2,0:0:0:0:
477,235,27113,5,2,3:2:0:0:
420,165,27443,1,2,1:2:0:0:
478,96,27773,2,0,P|466:42|412:13,1,100,2|2,0:0|0:0,0:0:0:0:
346,44,28432,2,0,L|282:38,1,50,2|0,0:0|3:0,0:0:0:0:
220,88,28927,2,0,P|173:108|132:150,1,100,0|0,0:0|3:0,0:0:0:0:
117,181,29421,1,0,1:0:0:0:
182,243,29751,6,0,L|168:361,1,100,2|0,3:2|1:0,0:0:0:0:
88,380,30410,2,0,P|57:367|19:363,1,50,2|0,0:0|3:0,0:0:0:0:
9,284,30905,1,2,1:2:0:0:
9,284,31070,2,0,L|23:174,1,100,2|0,0:0|1:0,0:0:0:0:
65,106,31729,2,0,L|58:51,2,50,2|2|2,3:2|3:2|1:2,0:0:0:0:
150,134,32388,5,2,3:2:0:0:
221,79,32718,2,0,P|301:78|331:99,1,100,6|2,1:2|0:0,0:0:0:0:
377,152,33377,1,2,0:2:0:0:
466,142,33707,1,2,0:0:0:0:
494,227,34037,2,0,P|464:247|442:262,1,50,6|0,1:2|0:0,0:0:0:0:
439,298,34366,2,0,L|328:279,1,100,2|2,3:2|3:2,0:0:0:0:
300,275,34861,1,2,3:2:0:0:
300,275,35026,6,0,P|253:305|203:312,2,100,6|2|0,1:2|3:2|3:0,0:0:0:0:
285,232,35850,1,2,1:2:0:0:
341,162,36179,2,0,L|456:176,2,100,2|2|2,1:2|0:0|0:0,0:0:0:0:
316,123,37004,1,0,3:0:0:0:
238,77,37333,1,0,3:0:0:0:
154,111,37663,6,0,P|99:103|59:67,2,100,2|0|0,1:2|3:0|3:0,0:0:0:0:
171,152,38487,1,2,1:2:0:0:
123,228,38817,2,0,L|10:244,2,100,2|2|8,1:2|0:0|0:3,0:0:0:0:
148,264,39641,1,0,3:2:0:0:
234,239,39971,2,0,P|270:247|295:263,1,50,0|0,3:0|1:0,0:0:0:0:
313,221,40300,6,0,L|300:102,1,100,2|0,1:2|3:0,0:0:0:0:
386,90,40960,2,0,L|396:189,1,100,0|0,3:0|3:0,0:0:0:0:
437,218,41454,1,2,0:0:0:0:
437,218,41619,1,2,1:2:0:0:
446,307,41949,1,0,3:0:0:0:
367,351,42278,2,0,P|315:328|262:321,1,100,6|0,1:2|3:0,0:0:0:0:
233,344,42773,2,0,L|169:334,1,50,0|0,1:0|3:0,0:0:0:0:
94,350,43267,6,0,P|64:286|69:241,1,100,4|8,1:2|0:3,0:0:0:0:
83,219,43762,1,8,0:3:0:0:
83,219,43927,1,4,0:3:0:0:
48,136,44256,1,6,3:2:0:0:
112,73,44586,1,2,1:2:0:0:
199,94,44916,2,0,P|263:91|303:60,1,100,6|2,1:2|1:2,0:0:0:0:
328,44,45410,1,2,1:2:0:0:
328,44,45575,5,4,3:2:0:0:
400,96,45905,2,0,P|393:127|389:155,1,50,2|2,3:2|3:2,0:0:0:0:
365,182,46234,2,0,L|253:173,1,100,2|2,3:2|3:2,0:0:0:0:
225,196,46729,1,2,3:2:0:0:
188,278,47059,1,2,3:2:0:0:
242,349,47388,2,0,P|309:337|344:309,1,100,2|0,3:2|3:2,0:0:0:0:
365,286,47883,1,0,3:2:0:0:
452,257,48212,5,0,3:2:0:0:
452,257,48377,2,0,L|441:155,1,100,2|2,3:2|3:2,0:0:0:0:
470,123,48872,2,0,P|441:75|387:60,1,100,2|2,3:2|3:2,0:0:0:0:
359,76,49366,1,2,3:2:0:0:
285,24,49696,1,2,3:2:0:0:
219,86,50026,2,0,L|98:106,1,100,2|8,3:2|0:3,0:0:0:0:
75,99,50520,2,0,P|60:130|58:157,1,50,4|4,0:3|0:3,0:0:0:0:
80,184,50850,5,6,3:2:0:0:
66,276,51179,1,0,1:0:0:0:
66,276,51344,2,0,L|172:259,1,100,2|2,0:0|3:2,0:0:0:0:
199,231,51839,2,0,P|231:241|269:246,1,50,2|2,1:2|0:0,0:0:0:0:
286,266,52168,1,6,3:2:0:0:
332,190,52498,1,0,1:0:0:0:
332,190,52663,2,0,L|322:77,1,100,2|2,0:0|3:2,0:0:0:0:
360,64,53157,2,0,P|398:80|413:93,1,50,2|2,1:2|0:0,0:0:0:0:
439,114,53487,5,6,3:2:0:0:
425,203,53817,1,0,1:0:0:0:
492,270,54146,1,0,1:0:0:0:
492,270,54311,2,0,P|486:301|481:324,1,50,2|2,3:2|1:2,0:0:0:0:
446,347,54641,2,0,B|406:343|406:343|386:353|386:353|331:366,1,100,6|2,3:2|3:2,0:0:0:0:
305,370,55135,1,0,1:0:0:0:
240,307,55465,2,0,P|248:278|252:250,1,50,8|4,0:3|0:3,0:0:0:0:
284,227,55795,2,0,P|279:202|272:178,1,50,8|4,0:3|0:3,0:0:0:0:
244,150,56124,5,2,1:2:0:0:
244,150,56289,1,2,1:2:0:0:
139,64,56784,2,0,P|85:95|76:184,1,150,0|0,3:0|1:0,0:0:0:0:
97,219,57443,6,0,P|89:275|76:339,1,110.000003356934,6|0,3:2|1:0,0:0:0:0:
111,364,57938,2,0,L|237:356,1,110.000003356934,2|2,0:3|0:3,0:0:0:0:
255,321,58432,1,0,1:0:0:0:
349,351,58762,1,2,3:2:0:0:
431,294,59092,1,0,1:0:0:0:
431,294,59256,2,0,P|434:224|424:168,1,110.000003356934,2|2,0:3|0:3,0:0:0:0:
397,153,59751,1,0,1:0:0:0:
397,153,59916,6,0,L|407:35,1,110.000003356934,2|2,0:3|0:3,0:0:0:0:
364,16,60410,1,2,1:2:0:0:
277,63,60740,2,0,P|246:51|223:44,1,55.0000016784668,2|2,3:2|0:3,0:0:0:0:
178,60,61070,1,2,1:2:0:0:
86,37,61399,1,2,3:2:0:0:
86,37,61564,2,0,L|81:157,1,110.000003356934,2|2,0:3|0:3,0:0:0:0:
45,181,62059,2,0,P|81:220|95:289,1,110.000003356934,2|0,3:2|1:0,0:0:0:0:
182,321,62718,6,0,L|200:200,1,110.000003356934,6|2,3:2|1:2,0:0:0:0:
243,189,63212,1,2,0:3:0:0:
243,189,63377,2,0,P|224:122|228:73,1,110.000003356934,2|2,3:2|1:2,0:0:0:0:
306,23,64037,2,0,L|375:32,1,55.0000016784668,6|2,3:2|0:3,0:0:0:0:
396,63,64366,2,0,L|450:55,1,55.0000016784668,2|2,1:2|0:3,0:0:0:0:
492,82,64696,1,2,3:2:0:0:
441,167,65026,1,2,1:2:0:0:
490,252,65355,6,0,P|465:309|421:344,1,110.000003356934,6|2,3:2|1:2,0:0:0:0:
381,324,65850,1,6,3:2:0:0:
290,364,66179,5,2,3:2:0:0:
203,316,66509,2,0,L|85:328,1,110.000003356934,6|2,3:2|3:2,0:0:0:0:
55,303,67004,1,2,1:2:0:0:
55,303,67168,2,0,P|84:244|88:186,1,110.000003356934,2|2,3:2|3:2,0:0:0:0:
109,155,67663,2,0,L|96:92,2,55.0000016784668,0|4|2,1:0|0:3|0:0,0:0:0:0:
199,115,68322,6,0,P|224:163|232:217,1,110.000003356934,4|2,1:2|3:2,0:0:0:0:
200,256,68817,1,2,0:3:0:0:
266,329,69146,2,0,L|391:314,1,110.000003356934,2|2,0:3|0:3,0:0:0:0:
424,312,69641,1,2,1:2:0:0:
484,233,69971,2,0,P|468:201|462:166,1,55.0000016784668,2|2,3:2|0:3,0:0:0:0:
422,154,70300,2,0,P|429:127|442:103,1,55.0000016784668,2|2,1:2|0:3,0:0:0:0:
480,71,70630,5,2,3:2:0:0:
395,18,70960,1,2,1:2:0:0:
314,72,71289,1,2,3:2:0:0:
314,72,71454,2,0,P|251:45|245:43,1,55.0000016784668,2|0,0:3|1:0,0:0:0:0:
220,73,71784,2,0,L|88:96,1,110.000003356934,2|2,0:3|0:3,0:0:0:0:
67,109,72278,1,2,1:2:0:0:
67,109,72443,2,0,P|83:163|85:240,1,110.000003356934,2|2,0:3|0:3,0:0:0:0:
64,260,72938,1,0,1:0:0:0:
111,346,73267,6,0,L|183:339,1,55.0000016784668,6|2,1:2|3:2,0:0:0:0:
213,328,73597,1,2,1:3:0:0:
181,234,73927,1,2,1:3:0:0:
244,158,74256,1,2,1:3:0:0:
217,62,74586,2,0,P|248:51|289:35,1,55.0000016784668,6|2,1:2|3:2,0:0:0:0:
318,36,74916,1,2,1:3:0:0:
413,12,75245,1,2,1:3:0:0:
481,83,75575,1,2,1:3:0:0:
425,165,75905,6,0,P|433:199|443:230,1,55.0000016784668,6|2,3:2|1:2,0:0:0:0:
470,256,76234,1,2,1:2:0:0:
401,327,76564,2,0,L|329:319,1,55.0000016784668,8|8,0:3|0:3,0:0:0:0:
301,299,76894,2,0,L|229:307,1,55.0000016784668,4|4,0:3|0:3,0:0:0:0:
205,332,77223,5,6,1:2:0:0:
38,86,78212,2,0,L|110:78,1,55.0000016784668,2|8,1:2|0:3,0:0:0:0:
133,51,78541,5,6,1:2:0:0:
256,192,78707,12,0,81015,3:0:0:0:
93,211,83817,6,0,P|102:275|110:331,1,100,6|0,1:2|3:0,0:0:0:0:
138,341,84311,2,0,P|185:305|240:295,1,100,6|0,1:2|3:0,0:0:0:0:
264,315,84806,1,6,1:2:0:0:
350,289,85135,1,6,1:2:0:0:
435,330,85465,1,0,3:0:0:0:
435,330,85630,2,0,L|460:215,1,100,6|0,1:2|3:0,0:0:0:0:
491,204,86124,1,6,1:2:0:0:
450,123,86454,6,0,P|405:111|356:75,1,100,6|0,1:2|3:0,0:0:0:0:
339,41,86949,2,0,L|237:52,1,100,6|0,1:2|3:0,0:0:0:0:
201,70,87443,1,2,1:2:0:0:
201,70,87608,1,6,3:2:0:0:
126,18,87938,2,0,P|115:45|111:72,1,50,2|2,1:2|3:2,0:0:0:0:
77,94,88267,2,0,L|94:203,1,100,6|2,1:2|1:2,0:0:0:0:
123,225,88762,2,0,P|110:259|103:294,1,50,8|2,0:3|1:2,0:0:0:0:
225,336,89421,5,6,3:2:0:0:
256,192,89586,12,0,92059,0:0:0:0:
