osu file format v14

[General]
AudioFilename: audio.mp3
AudioLeadIn: 0
PreviewTime: 56454
Countdown: 0
SampleSet: Soft
StackLeniency: 0.4
Mode: 0
LetterboxInBreaks: 0
WidescreenStoryboard: 1

[Editor]
DistanceSpacing: 1.3
BeatDivisor: 4
GridSize: 32
TimelineZoom: 2.26

[Metadata]
Title:Sayonara Usotsuki (TV Size)
TitleUnicode:サヨナラ嘘ツキ (TV Size)
Artist:mimimemeMIMI
ArtistUnicode:みみめめMIMI
Creator:Wanpachi
Version:Hard
Source:ブレイドアンドソウル
Tags:blade & and soul bns deca decaedeus cycopton synderes zhuxiaoyan frostwich japanese pop jpop j-pop anime ブレイドアンドソウル opening version op ver unison square takao タカオユキ
BeatmapID:3237440
BeatmapSetID:1558261

[Difficulty]
HPDrainRate:4.5
CircleSize:3.8
OverallDifficulty:5
ApproachRate:7.8
SliderMultiplier:1.3
SliderTickRate:1

[Events]
//Background and Video events
0,0,"background.jpg",0,0
//Break Periods
2,14044,23501
//Storyboard Layer 0 (Background)
//Storyboard Layer 1 (Fail)
//Storyboard Layer 2 (Pass)
//Storyboard Layer 3 (Foreground)
//Storyboard Layer 4 (Overlay)
//Storyboard Sound Samples

[TimingPoints]
-1897,329.67032967033,4,2,0,40,1,0
3377,-125,4,2,0,40,0,0
7828,-100,4,2,0,70,0,0
8487,-100,4,2,0,70,0,0
13927,-125,4,2,0,40,0,0
24476,-111.111111111111,4,2,0,50,0,0
35026,-125,4,2,0,50,0,0
43103,-111.111111111111,4,2,0,50,0,0
45575,-111.111111111111,4,2,0,50,0,0
50850,-100,4,2,0,50,0,0
57443,-90.9090909090909,4,2,0,80,0,1
57526,-90.9090909090909,4,2,0,80,0,0
68322,-90.9090909090909,4,2,0,80,0,1
68405,-90.9090909090909,4,2,0,80,0,0
73267,-90.9090909090909,4,2,0,80,0,1
77223,-100,4,2,0,80,0,0
78542,-100,4,2,0,70,0,0
89421,-166.666666666667,4,2,0,70,0,0
90081,-166.666666666667,4,2,0,60,0,0
90740,-166.666666666667,4,2,0,50,0,0
91399,-166.666666666667,4,2,0,40,0,0
92059,-166.666666666667,4,2,0,5,0,0

[Colours]
Combo1 : 17,254,176
Combo2 : 173,255,95
Combo3 : 255,88,100
Combo4 : 255,94,55

[HitObjects]
168,18,7828,5,2,3:2:0:0:
168,18,8157,1,2,3:2:0:0:
29,154,8487,6,0,P|91:136|154:120,1,130,6|0,3:2|3:0,0:0:0:0:
230,82,8982,2,0,P|235:113|249:143,1,65,0|0,1:0|0:0,0:0:0:0:
333,127,9311,1,2,3:2:0:0:
380,56,9476,1,2,3:2:0:0:
461,80,9641,2,0,P|476:127|492:161,1,65,2|2,1:2|0:2,0:0:0:0:
510,235,9971,6,0,B|437:226|454:261|377:247,1,130,6|2,3:2|1:2,0:0:0:0:
320,190,10465,2,0,P|315:266|254:304,1,130,2|2,0:0|3:2,0:0:0:0:
220,361,10960,2,0,P|183:342|142:332,1,65,2|2,1:2|0:2,0:0:0:0:
64,339,11289,6,0,P|78:231|83:187,1,130,6|0,3:2|1:0,0:0:0:0:
148,159,11784,1,6,3:2:0:0:
35,40,12113,1,2,3:2:0:0:
35,40,12278,1,0,1:0:0:0:
128,70,12443,6,0,B|199:65|182:90|272:84,1,130,6|2,3:2|3:2,0:0:0:0:
329,41,12938,2,0,P|361:36|392:29,1,65,2|2,1:2|3:2,0:0:0:0:
459,81,13267,2,0,P|455:96|452:112,3,32.5,0|8|4|4,1:0|0:3|0:3|0:3,0:0:0:0:
422,143,13597,1,2,1:2:0:0:
426,159,13679,1,2,1:2:0:0:
429,175,13762,2,0,P|433:190|436:206,1,32.5,2|2,1:2|1:2,0:0:0:0:
436,206,24311,5,2,1:2:0:0:
436,206,24394,1,0,1:0:0:0:
436,206,24476,2,0,P|369:225|347:282,1,116.999996429443,6|0,3:2|1:2,0:0:0:0:
285,307,24971,1,2,0:0:0:0:
217,273,25135,2,0,P|219:258|221:244,2,29.2499991073609,2|0|0,0:0|1:0|3:2,0:0:0:0:
85,351,25630,5,2,1:2:0:0:
117,282,25795,2,0,P|110:246|97:213,1,58.4999982147217,2|0,0:0|3:0,0:0:0:0:
39,182,26124,2,0,P|93:131|113:72,1,116.999996429443,2|2,1:2|3:2,0:0:0:0:
173,51,26619,1,0,3:2:0:0:
244,76,26784,1,2,1:2:0:0:
389,33,27113,6,0,B|445:28|444:58|502:54,2,116.999996429443,2|2|2,3:2|1:2|0:0,0:0:0:0:
345,95,27938,1,0,3:0:0:0:
383,160,28103,2,0,P|396:219|398:234,1,58.4999982147217,2|0,0:0|1:0,0:0:0:0:
469,251,28432,2,0,P|463:279|456:308,1,58.4999982147217,2|0,0:0|3:0,0:0:0:0:
456,308,28927,6,0,P|398:318|368:374,1,116.999996429443,2|0,0:0|3:0,0:0:0:0:
293,376,29421,1,0,1:0:0:0:
219,358,29586,1,2,1:2:0:0:
205,360,29668,1,0,1:0:0:0:
190,361,29751,6,0,P|195:295|189:229,1,116.999996429443,2|0,3:2|1:0,0:0:0:0:
162,173,30245,1,2,0:0:0:0:
199,106,30410,2,0,P|219:106|244:109,2,29.2499991073609,2|0|0,0:0|1:0|3:0,0:0:0:0:
84,4,30905,5,2,1:2:0:0:
33,61,31070,2,0,P|79:117|86:180,1,116.999996429443,2|0,0:0|1:0,0:0:0:0:
30,209,31564,1,2,0:0:0:0:
30,209,31729,2,0,P|26:248|22:279,1,58.4999982147217,2|2,3:2|3:2,0:0:0:0:
97,288,32059,2,0,P|100:317|103:346,1,58.4999982147217,2|2,1:2|0:0,0:0:0:0:
175,370,32388,5,2,3:2:0:0:
291,272,32718,2,0,B|343:268|334:280|393:274,1,87.7499973220826,6|0,1:2|0:0,0:0:0:0:
382,279,33048,2,0,P|389:247|405:215,1,58.4999982147217,2|0,0:0|3:0,0:0:0:0:
465,184,33377,2,0,P|457:150|448:113,1,58.4999982147217,2|0,0:2|0:0,0:0:0:0:
416,58,33707,5,2,0:0:0:0:
416,58,34037,2,0,P|386:104|323:97,1,116.999996429443,6|2,1:2|3:2,0:0:0:0:
260,135,34531,1,8,0:3:0:0:
258,149,34613,1,4,0:3:0:0:
256,164,34696,2,0,P|254:178|252:193,3,29.2499991073609,2|2|2|2,3:2|3:2|3:2|3:2,0:0:0:0:
276,217,35026,5,6,1:2:0:0:
205,332,35355,1,0,3:0:0:0:
76,308,35685,1,0,3:0:0:0:
76,308,35850,2,0,P|69:267|61:235,1,52,2|0,1:2|3:0,0:0:0:0:
121,201,36179,2,0,P|115:175|111:149,1,52,2|0,1:2|3:0,0:0:0:0:
77,18,36674,5,0,3:0:0:0:
208,54,37004,1,0,3:0:0:0:
336,95,37333,1,0,3:0:0:0:
364,177,37498,5,0,3:0:0:0:
364,177,37581,1,0,3:0:0:0:
364,177,37663,1,2,1:2:0:0:
247,246,37993,1,0,3:0:0:0:
310,370,38322,1,0,3:0:0:0:
310,370,38487,2,0,P|347:355|370:351,1,52,2|0,1:2|3:0,0:0:0:0:
400,285,38817,2,0,P|425:291|448:302,1,52,2|0,1:2|3:0,0:0:0:0:
504,179,39311,5,0,3:0:0:0:
457,116,39476,2,0,P|406:120|345:120,1,104,8|4,0:3|0:3,0:0:0:0:
290,167,39971,1,0,3:0:0:0:
219,133,40135,5,0,1:0:0:0:
206,132,40217,1,0,1:0:0:0:
193,131,40299,1,2,1:2:0:0:
253,9,40630,1,0,3:0:0:0:
117,14,40960,1,0,3:0:0:0:
87,85,41124,2,0,P|94:116|101:152,1,52,2|0,1:2|3:0,0:0:0:0:
171,249,41619,5,2,1:2:0:0:
45,299,41949,1,0,3:0:0:0:
168,353,42278,2,0,B|222:351|210:325|272:324,1,104,6|0,1:2|3:0,0:0:0:0:
320,267,42773,2,0,P|316:246|311:229,2,26,0|0|0,1:0|1:0|3:0,0:0:0:0:
471,357,43267,6,0,P|487:266|499:215,1,116.999996429443,4|8,1:2|0:3,0:0:0:0:
458,173,43762,1,8,0:3:0:0:
502,114,43927,1,4,0:3:0:0:
502,114,44009,1,4,0:3:0:0:
502,114,44092,1,4,0:3:0:0:
449,44,44256,5,6,3:2:0:0:
303,87,44586,1,2,1:2:0:0:
333,236,44916,2,0,P|293:292|240:296,1,116.999996429443,6|2,1:2|1:2,0:0:0:0:
187,252,45410,1,2,1:2:0:0:
188,237,45492,1,0,1:0:0:0:
190,222,45574,1,4,3:2:0:0:
42,182,45905,6,0,P|40:167|38:148,3,29.2499991073609,2|0|2|0,3:2|3:2|3:2|3:2,0:0:0:0:
65,126,46234,2,0,P|66:111|69:92,3,29.2499991073609,2|0|0|0,3:2|3:2|3:2|3:2,0:0:0:0:
41,69,46564,2,0,P|39:54|37:35,3,29.2499991073609,2|0|2|0,3:2|3:2|3:2|3:2,0:0:0:0:
64,12,46894,1,0,3:2:0:0:
207,62,47223,6,0,P|221:63|241:66,3,29.2499991073609,0|0|2|0,3:2|3:2|3:2|3:2,0:0:0:0:
263,38,47553,2,0,P|277:36|297:34,3,29.2499991073609,0|0|0|0,3:2|3:2|3:2|3:2,0:0:0:0:
319,61,47883,2,0,P|362:64|406:70,1,87.7499973220826,0|0,3:2|1:2,0:0:0:0:
406,71,48212,1,0,3:2:0:0:
494,195,48542,6,0,P|495:209|498:229,3,29.2499991073609,0|0|2|0,3:2|3:2|3:2|3:2,0:0:0:0:
470,251,48872,2,0,P|468:265|466:285,3,29.2499991073609,2|0|0|0,3:2|3:2|3:2|3:2,0:0:0:0:
494,307,49201,2,0,P|495:321|498:341,3,29.2499991073609,2|0|2|0,3:2|3:2|3:2|3:2,0:0:0:0:
470,363,49531,1,0,3:2:0:0:
371,246,49861,6,0,P|356:244|337:242,3,29.2499991073609,0|0|2|0,3:2|3:2|3:2|3:2,0:0:0:0:
315,270,50191,2,0,P|300:271|281:274,3,29.2499991073609,0|0|8|8,3:2|3:2|0:3|0:3,0:0:0:0:
259,246,50520,1,4,0:3:0:0:
244,244,50602,1,4,0:3:0:0:
229,242,50685,2,0,P|214:240|195:238,1,29.2499991073609,4|4,0:3|0:3,0:0:0:0:
169,268,50850,6,0,P|178:204|166:137,1,130,6|0,3:2|1:0,0:0:0:0:
83,126,51344,2,0,P|90:83|100:12,1,97.5,2|0,0:0|0:0,0:0:0:0:
97,29,51674,1,2,3:2:0:0:
178,54,51839,2,0,P|217:38|242:14,1,65,2|2,1:2|0:0,0:0:0:0:
307,88,52168,6,0,B|379:102|360:121|440:137,1,130,6|0,3:2|1:0,0:0:0:0:
483,198,52663,1,2,0:0:0:0:
425,259,52828,2,0,P|429:291|437:322,1,65,0|2,3:0|3:2,0:0:0:0:
354,339,53157,2,0,P|349:306|341:275,1,65,2|2,1:2|0:0,0:0:0:0:
270,209,53487,6,0,P|225:255|162:256,2,130,6|0|0,3:2|1:0|1:0,0:0:0:0:
225,137,54311,1,2,3:2:0:0:
289,82,54476,1,2,1:2:0:0:
233,2,54641,6,0,P|298:9|363:12,1,130,6|2,3:2|3:2,0:0:0:0:
409,82,55135,2,0,P|425:81|441:79,2,32.5,0|0|0,1:0|1:0|3:0,0:0:0:0:
367,156,55465,2,0,P|350:155|334:153,2,32.5,8|8|4,0:3|0:3|0:3,0:0:0:0:
410,229,55795,1,8,0:3:0:0:
426,228,55877,1,8,0:3:0:0:
442,226,55960,2,0,P|459:225|475:223,1,32.5,4|4,0:3|0:3,0:0:0:0:
504,252,56124,2,0,P|500:284|498:317,1,65,2|2,1:2|1:2,0:0:0:0:
234,58,56784,6,0,P|236:73|240:92,3,32.5,0|0|0|0,3:0|3:0|1:0|1:0,0:0:0:0:
269,119,57113,1,0,1:0:0:0:
266,135,57195,1,0,1:0:0:0:
263,151,57278,2,0,P|260:166|257:185,1,32.5,0|0,1:0|1:0,0:0:0:0:
224,216,57443,6,0,P|299:225|336:292,1,143.000004364014,6|0,3:2|1:0,0:0:0:0:
421,311,57938,2,0,P|420:229|432:159,1,143.000004364014,2|2,0:3|0:3,0:0:0:0:
488,96,58432,1,0,1:0:0:0:
488,96,58597,1,2,0:3:0:0:
406,50,58762,6,0,B|339:69|361:90|273:121,1,143.000004364014,2|0,3:2|1:0,0:0:0:0:
194,84,59256,2,0,B|176:151|206:142|188:234,1,143.000004364014,2|2,0:3|0:3,0:0:0:0:
99,249,59751,1,0,1:0:0:0:
145,329,59916,6,0,P|231:317|311:305,1,143.000004364014,2|2,0:3|0:3,0:0:0:0:
368,264,60410,1,2,1:2:0:0:
403,350,60575,1,2,0:3:0:0:
490,317,60740,2,0,P|500:275|498:231,1,71.5000021820069,2|2,3:2|0:3,0:0:0:0:
429,184,61070,2,0,P|430:148|439:113,1,71.5000021820069,2|2,1:2|0:3,0:0:0:0:
374,47,61399,5,2,3:2:0:0:
300,104,61564,2,0,P|229:95|145:85,1,143.000004364014,2|2,0:3|0:3,0:0:0:0:
76,41,62059,2,0,P|30:101|40:170,1,143.000004364014,2|0,3:2|1:0,0:0:0:0:
100,232,62553,1,0,0:0:0:0:
186,169,62718,6,0,P|197:228|209:327,1,143.000004364014,6|2,3:2|1:2,0:0:0:0:
273,376,63212,1,2,0:3:0:0:
362,349,63377,2,0,P|341:274|308:257,1,107.25000327301,2|0,3:2|0:0,0:0:0:0:
323,264,63707,2,0,P|316:228|312:193,1,71.5000021820069,2|2,1:2|0:3,0:0:0:0:
284,89,64037,5,6,3:2:0:0:
354,28,64201,1,2,0:3:0:0:
444,47,64366,1,2,1:2:0:0:
476,133,64531,1,2,0:3:0:0:
415,203,64696,1,2,3:2:0:0:
511,362,65026,1,2,1:2:0:0:
299,333,65355,6,0,P|222:345|141:372,1,143.000004364014,6|2,3:2|1:2,0:0:0:0:
67,376,65850,1,6,3:2:0:0:
135,203,66179,2,0,P|127:150|102:122,1,71.5000021820069,2|0,3:2|1:0,0:0:0:0:
82,33,66509,6,0,B|164:24|147:56|242:45,1,143.000004364014,6|2,3:2|3:2,0:0:0:0:
285,116,67004,5,2,1:2:0:0:
321,31,67168,2,0,P|353:15|388:13,1,71.5000021820069,2|0,3:2|1:0,0:0:0:0:
478,36,67498,1,2,3:2:0:0:
475,53,67580,1,0,0:0:0:0:
472,71,67663,2,0,P|468:94|463:129,3,35.7500010910034,0|8|4|4,1:0|0:3|0:3|0:3,0:0:0:0:
511,368,68322,6,0,P|450:318|364:332,1,143.000004364014,4|2,1:2|3:2,0:0:0:0:
306,363,68817,2,0,P|299:312|297:261,1,71.5000021820069,2|0,0:3|1:0,0:0:0:0:
365,227,69146,6,0,B|363:153|319:173|316:95,1,143.000004364014,2|2,0:3|0:3,0:0:0:0:
279,10,69641,1,2,1:2:0:0:
201,60,69806,1,2,0:3:0:0:
119,15,69971,2,0,P|85:43|68:91,1,71.5000021820069,2|2,3:2|0:3,0:0:0:0:
4,130,70300,2,0,P|8:165|25:196,1,71.5000021820069,2|2,1:2|0:3,0:0:0:0:
85,268,70630,6,0,P|154:249|223:234,2,143.000004364014,2|2|2,3:2|1:2|3:2,0:0:0:0:
145,338,71454,2,0,P|186:356|211:380,1,71.5000021820069,2|0,0:3|1:0,0:0:0:0:
279,315,71784,6,0,P|356:289|400:217,1,143.000004364014,2|2,0:3|0:3,0:0:0:0:
466,185,72278,1,2,1:2:0:0:
421,103,72443,2,0,P|351:84|288:52,1,143.000004364014,2|2,0:3|0:3,0:0:0:0:
205,95,72938,2,0,P|221:126|230:161,1,71.5000021820069,0|4,1:0|0:3,0:0:0:0:
316,227,73267,5,6,1:2:0:0:
273,309,73432,1,2,3:2:0:0:
192,355,73597,2,0,P|118:346|93:344,1,71.5000021820069,2|0,1:3|3:2,0:0:0:0:
43,293,73927,2,0,P|81:237|96:142,1,143.000004364014,2|2,1:3|1:3,0:0:0:0:
180,122,74421,1,0,3:0:0:0:
103,44,74586,5,6,1:2:0:0:
190,13,74751,1,2,3:2:0:0:
268,62,74916,2,0,P|290:111|300:155,1,71.5000021820069,2|0,1:3|3:0,0:0:0:0:
291,220,75245,2,0,B|380:213|363:249|461:235,1,143.000004364014,2|2,1:3|1:3,0:0:0:0:
502,299,75740,1,2,3:2:0:0:
421,371,75905,6,0,P|370:357|329:352,1,71.5000021820069,6|2,3:2|1:2,0:0:0:0:
269,311,76234,1,2,1:2:0:0:
269,311,76399,1,6,3:2:0:0:
177,368,76564,2,0,P|162:324|161:284,1,71.5000021820069,8|8,0:3|0:3,0:0:0:0:
70,271,76894,1,4,0:3:0:0:
68,254,76976,1,4,0:3:0:0:
65,235,77059,2,0,P|61:206|55:177,1,35.7500010910034,4|4,0:3|0:3,0:0:0:0:
90,169,77223,5,6,1:2:0:0:
507,270,78048,5,0,3:0:0:0:
443,324,78212,1,2,1:2:0:0:
426,322,78294,1,2,1:2:0:0:
410,320,78377,2,0,P|381:316|352:310,1,32.5,8|4,0:3|0:3,0:0:0:0:
347,345,78542,1,6,1:2:0:0:
256,192,78624,12,6,80850,1:2:0:0:
297,123,81179,6,0,P|212:139|202:189,1,130,6|0,1:2|3:0,0:0:0:0:
162,246,81674,2,0,P|172:280|181:324,1,65,6|0,1:2|3:0,0:0:0:0:
262,323,82004,1,0,3:0:0:0:
336,284,82168,1,0,1:0:0:0:
347,201,82333,5,6,3:2:0:0:
448,66,82663,1,0,3:0:0:0:
448,66,82828,2,0,P|408:55|367:37,1,65,2|4,3:2|1:2,0:0:0:0:
356,125,83157,2,0,P|387:133|417:144,1,65,2|0,3:2|3:0,0:0:0:0:
477,204,83487,2,0,P|418:238|408:280,1,97.5,6|0,1:2|3:0,0:0:0:0:
412,266,83817,6,0,P|349:282|288:305,1,130,6|0,1:2|3:0,0:0:0:0:
204,295,84311,2,0,P|222:348|222:381,2,65,6|0|0,1:2|3:0|3:0,0:0:0:0:
126,259,84806,2,0,P|79:267|49:275,1,65,6|0,1:2|3:0,0:0:0:0:
26,179,85135,6,0,B|15:108|71:117|56:40,1,130,6|0,1:2|3:0,0:0:0:0:
134,18,85630,2,0,P|172:33|206:44,1,65,6|0,1:2|3:0,0:0:0:0:
229,123,85960,1,0,3:0:0:0:
229,123,86124,2,0,P|259:112|289:100,1,65,6|0,1:2|3:0,0:0:0:0:
353,25,86454,6,0,P|431:47|444:99,1,130,6|0,1:2|3:0,0:0:0:0:
488,160,86949,2,0,P|473:207|465:237,1,65,6|0,1:2|0:0,0:0:0:0:
415,288,87278,1,0,3:0:0:0:
330,294,87443,1,2,1:2:0:0:
263,241,87608,1,6,3:2:0:0:
98,340,87938,6,0,P|69:309|62:269,1,65,2|2,1:2|3:2,0:0:0:0:
96,210,88267,2,0,P|81:146|65:83,1,130,6|2,1:2|1:2,0:0:0:0:
125,23,88762,1,8,0:3:0:0:
140,26,88844,1,8,0:3:0:0:
156,30,88927,2,0,P|171:26|187:22,1,32.5,2|2,1:2|1:2,0:0:0:0:
335,141,89421,5,6,3:2:0:0:
256,192,89504,12,0,92059,0:0:0:0:
