osu file format v14

[General]
AudioFilename: audio.mp3
AudioLeadIn: 0
PreviewTime: 56454
Countdown: 0
SampleSet: Soft
StackLeniency: 0.7
Mode: 0
LetterboxInBreaks: 0
WidescreenStoryboard: 1

[Editor]
DistanceSpacing: 1.3
BeatDivisor: 4
GridSize: 32
TimelineZoom: 3.259999

[Metadata]
Title:Sayonara Usotsuki (TV Size)
TitleUnicode:サヨナラ嘘ツキ (TV Size)
Artist:mimimemeMIMI
ArtistUnicode:みみめめMIMI
Creator:Wanpachi
Version:Deca's Expert
Source:ブレイドアンドソウル
Tags:blade & and soul bns deca decaedeus cycopton synderes zhuxiaoyan frostwich japanese pop jpop j-pop anime ブレイドアンドソウル opening version op ver unison square takao タカオユキ
BeatmapID:3211124
BeatmapSetID:1558261

[Difficulty]
HPDrainRate:5.5
CircleSize:4
OverallDifficulty:8
ApproachRate:9.3
SliderMultiplier:1.8
SliderTickRate:1

[Events]
//Background and Video events
0,0,"background.jpg",0,0
//Break Periods
//Storyboard Layer 0 (Background)
//Storyboard Layer 1 (Fail)
//Storyboard Layer 2 (Pass)
//Storyboard Layer 3 (Foreground)
//Storyboard Layer 4 (Overlay)
//Storyboard Sound Samples

[TimingPoints]
-1897,329.67032967033,4,2,0,40,1,0
3295,-133.333333333333,4,2,0,40,0,0
6015,-105.263157894737,4,2,0,40,0,0
7828,-105.263157894737,4,2,0,70,0,0
8487,-90.9090909090909,4,2,0,70,0,0
13927,-125,4,2,0,40,0,0
24476,-111.111111111111,4,2,0,50,0,0
34531,-90.9090909090908,4,2,0,60,0,0
35026,-90.9090909090908,4,2,0,50,0,0
40630,-125,4,2,0,50,0,0
41124,-90.9090909090909,4,2,0,50,0,0
41619,-100,4,2,0,50,0,0
43267,-100,4,2,0,60,0,0
45575,-100,4,2,0,50,0,0
54641,-90.9090909090909,4,2,0,70,0,0
56784,-90.9090909090909,4,2,0,50,0,0
57443,-90.9090909090909,4,2,0,80,0,0
78542,-90.9090909090909,4,2,0,70,0,0
89092,-116.822429906542,4,2,0,70,0,0
90081,-116.822429906542,4,2,0,60,0,0
90740,-116.822429906542,4,2,0,50,0,0
91399,-116.822429906542,4,2,0,40,0,0
92059,-166.666666666667,4,2,0,5,0,0

[Colours]
Combo1 : 17,254,176
Combo2 : 173,255,95
Combo3 : 255,88,100
Combo4 : 255,94,55

[HitObjects]
216,224,3048,5,2,0:0:0:0:
216,224,3212,1,2,0:0:0:0:
216,224,3377,2,0,P|207:175|191:143,2,67.5000025749208,2|0|0,0:0|0:0|0:0,0:0:0:0:
317,74,3872,2,0,P|301:118|296:167,2,67.5000025749208,2|0|0,0:0|0:0|0:0,0:0:0:0:
351,207,4366,2,0,P|385:214|436:224,1,67.5000025749208,2|0,0:0|0:0,0:0:0:0:
330,331,4696,5,2,0:0:0:0:
330,331,4861,2,0,P|278:341|247:351,1,67.5000025749208
181,242,5190,1,2,0:0:0:0:
181,242,5355,2,0,P|213:250|246:256,1,67.5000025749208
304,187,5685,2,0,P|296:143|285:105,1,67.5000025749208,2|0,0:0|0:0,0:0:0:0:
195,52,6015,6,0,P|163:108|44:80,1,170.999995433807,2|0,0:0|0:0,0:0:0:0:
126,308,6509,2,0,P|106:238|99:204,1,85.4999977169037,2|0,0:0|0:0,0:0:0:0:
280,64,6839,2,0,P|260:131|250:164,1,85.4999977169037,2|0,0:0|0:0,0:0:0:0:
297,236,7168,2,0,P|360:220|418:251,1,128.249996575356,2|0,0:0|0:0,0:0:0:0:
447,327,7498,1,2,0:0:0:0:
359,135,7663,1,2,0:0:0:0:
177,302,7828,5,2,3:2:0:0:
216,220,8157,5,2,3:2:0:0:
182,148,8487,6,0,B|224:107|281:123|281:123|297:177|359:178,1,198.000006042481,6|0,3:2|3:0,0:0:0:0:
447,296,8982,2,0,P|396:275|333:266,1,99.0000030212403,0|0,1:0|0:0,0:0:0:0:
209,256,9311,1,2,3:2:0:0:
438,161,9476,1,2,3:2:0:0:
235,7,9641,5,2,1:2:0:0:
334,186,9806,1,2,0:2:0:0:
125,281,9971,6,0,P|88:191|164:135,1,198.000006042481,6|2,3:2|1:2,0:0:0:0:
339,0,10465,2,0,P|348:51|346:101,1,99.0000030212403,2|0,0:0|3:0,0:0:0:0:
291,291,10795,1,2,3:2:0:0:
249,130,10960,1,2,1:2:0:0:
420,171,11124,1,2,0:2:0:0:
381,348,11289,6,0,B|263:315|300:392|171:342,1,198.000006042481,6|0,3:2|1:0,0:0:0:0:
77,156,11784,2,0,B|115:158|144:135|144:135|183:176|162:226,1,148.50000453186,6|0,3:2|0:0,0:0:0:0:
98,342,12113,2,0,P|93:262|80:223,1,99.0000030212403,2|0,3:2|1:0,0:0:0:0:
280,22,12443,6,0,P|254:91|244:178,1,148.50000453186,6|0,3:2|0:0,0:0:0:0:
243,252,12773,2,0,P|285:242|318:239,2,49.5000015106202,2|2|2,3:2|0:2|1:2,0:0:0:0:
168,204,13103,1,2,3:2:0:0:
334,161,13267,5,0,1:0:0:0:
373,164,13349,1,8,0:3:0:0:
402,192,13431,1,4,0:3:0:0:
407,232,13514,1,4,0:3:0:0:
390,270,13597,1,2,1:2:0:0:
403,317,13679,1,2,1:2:0:0:
441,341,13761,1,2,1:2:0:0:
484,330,13844,1,2,1:2:0:0:
511,291,13927,6,0,P|499:236|485:136,1,144,2|8,0:0|0:0,0:0:0:0:
488,61,14421,1,2,0:0:0:0:
488,61,14504,1,2,0:0:0:0:
488,61,14586,1,2,0:0:0:0:
401,143,14751,2,0,P|374:151|322:149,2,72,0|0|10,0:0|0:0|0:0,0:0:0:0:
259,192,15245,6,0,P|301:176|339:252,1,144,2|10,0:0|0:0,0:0:0:0:
245,325,15740,1,0,0:0:0:0:
245,325,15905,2,0,P|255:292|257:287,2,36,2|0|0,0:0|0:0|0:0,0:0:0:0:
182,241,16234,2,0,P|147:251|100:265,1,72,2|8,0:0|0:0,0:0:0:0:
62,123,16564,6,0,P|50:81|32:-22,1,144,2|10,0:0|0:0,0:0:0:0:
253,42,17059,1,0,0:0:0:0:
197,109,17223,2,0,P|183:146|175:187,1,72,2|0,0:0|0:0,0:0:0:0:
231,249,17553,6,0,P|156:219|91:250,1,144,2|2,0:0|0:0,0:0:0:0:
68,163,17965,1,2,0:0:0:0:
68,163,18048,2,0,P|26:186|-19:198,1,72,2|8,0:0|0:0,0:0:0:0:
79,39,18377,1,2,0:0:0:0:
86,55,18460,1,2,0:0:0:0:
92,74,18542,1,2,0:0:0:0:
197,109,18707,6,0,B|240:80|240:80|203:20|199:-15,1,144,0|2,0:0|0:0,0:0:0:0:
300,138,19201,2,0,B|382:125|359:170|450:154,1,144,2|8,0:0|0:0,0:0:0:0:
273,250,19696,1,2,0:0:0:0:
273,250,19778,1,2,0:0:0:0:
273,250,19861,2,0,P|258:292|254:326,1,72,2|0,0:0|0:0,0:0:0:0:
188,206,20190,2,0,P|205:163|210:128,1,72,0|10,0:0|0:0,0:0:0:0:
9,26,20520,6,0,P|16:111|79:112,1,144,2|8,0:0|0:0,0:0:0:0:
221,62,21015,1,2,0:0:0:0:
104,193,21179,1,2,0:0:0:0:
292,117,21344,1,10,0:0:0:0:
117,0,21509,2,0,P|135:58|145:100,1,72,2|10,0:0|0:0,0:0:0:0:
352,243,21839,6,0,B|313:237|281:207|281:207|235:214|219:246,1,144,2|8,0:0|0:0,0:0:0:0:
190,319,22251,1,2,0:0:0:0:
190,319,22333,1,2,0:0:0:0:
65,282,22498,2,0,P|108:256|144:253,2,72,2|2|0,0:0|0:0|0:0,0:0:0:0:
133,174,22993,2,0,P|121:127|150:63,1,108,10|0,0:0|0:0,0:0:0:0:
140,72,23322,2,0,P|100:94|52:95,1,72,2|8,0:0|0:0,0:0:0:0:
274,22,23652,6,0,P|263:53|252:79,2,36
236,228,23982,1,2,0:0:0:0:
229,209,24064,1,2,0:0:0:0:
217,189,24146,1,2,0:0:0:0:
439,89,24311,5,2,1:2:0:0:
439,89,24394,1,0,1:0:0:0:
439,89,24476,2,0,P|367:115|344:119,1,80.9999975280763,6|0,3:2|0:0,0:0:0:0:
308,269,24806,2,0,P|351:280|388:300,1,80.9999975280763,0|2,1:2|0:0,0:0:0:0:
429,372,25135,1,2,0:0:0:0:
466,266,25300,2,0,P|452:226|441:187,1,80.9999975280763,0|0,3:2|0:0,0:0:0:0:
215,345,25630,5,2,1:2:0:0:
142,302,25795,2,0,P|154:262|233:255,1,121.499996292114,2|0,0:0|0:0,0:0:0:0:
315,277,26124,2,0,P|304:220|299:185,1,80.9999975280763,2|0,1:2|0:0,0:0:0:0:
245,47,26454,1,2,3:2:0:0:
370,140,26619,1,0,3:2:0:0:
221,159,26784,2,0,P|174:147|130:135,1,80.9999975280763,2|0,1:2|0:0,0:0:0:0:
14,332,27113,6,0,P|67:318|160:314,1,121.499996292114,2|0,3:2|0:0,0:0:0:0:
133,311,27443,2,0,P|126:271|119:231,1,80.9999975280763,2|0,1:2|0:0,0:0:0:0:
37,226,27773,5,2,0:0:0:0:
37,226,27938,1,0,3:0:0:0:
214,156,28103,2,0,P|207:196|200:235,1,80.9999975280763,2|0,0:0|1:0,0:0:0:0:
317,289,28432,5,2,0:0:0:0:
317,289,28597,2,0,P|377:301|406:266,1,80.9999975280763,0|0,3:0|1:0,0:0:0:0:
483,297,28927,2,0,P|461:239|454:204,1,80.9999975280763,0|0,0:0|3:0,0:0:0:0:
379,56,29256,1,0,3:0:0:0:
461,73,29421,2,0,B|473:135|473:135|389:146,1,121.499996292114,0|0,1:0|1:0,0:0:0:0:
344,193,29751,6,0,P|299:140|360:79,1,161.999995056153,2|0,3:2|1:0,0:0:0:0:
304,274,30245,1,2,0:0:0:0:
241,218,30410,2,0,P|186:234|152:257,2,80.9999975280763,2|0|0,0:0|3:0|0:0,0:0:0:0:
65,93,30905,5,2,1:2:0:0:
165,61,31070,2,0,P|150:118|142:158,1,80.9999975280763,2|0,0:0|3:0,0:0:0:0:
103,207,31399,2,0,P|54:194|8:186,1,80.9999975280763,0|2,1:0|0:0,0:0:0:0:
107,364,31729,5,2,3:2:0:0:
293,289,31894,1,2,3:2:0:0:
178,262,32059,5,2,1:2:0:0:
264,384,32223,1,2,0:0:0:0:
423,298,32388,6,0,P|406:252|395:210,1,80.9999975280763,2|0,3:2|0:0,0:0:0:0:
438,146,32718,2,0,P|400:193|307:157,1,161.999995056153,6|2,1:2|0:0,0:0:0:0:
234,191,33212,2,0,P|228:139|213:102,2,80.9999975280763,0|2|0,3:0|0:2|0:0,0:0:0:0:
186,317,33707,5,2,0:0:0:0:
76,367,33872,1,0,3:0:0:0:
240,377,34037,5,6,1:2:0:0:
17,312,34201,1,0,0:0:0:0:
219,222,34366,5,2,3:2:0:0:
270,224,34449,1,0,3:0:0:0:
308,245,34531,1,8,0:3:0:0:
335,282,34613,1,4,0:3:0:0:
371,311,34696,1,2,3:2:0:0:
425,316,34778,1,2,3:2:0:0:
475,307,34861,1,2,3:2:0:0:
500,274,34943,1,2,3:2:0:0:
494,250,35026,2,0,P|479:205|465:141,1,99.0000030212403,6|0,1:2|0:0,0:0:0:0:
474,77,35355,5,0,3:0:0:0:
474,77,35685,1,0,3:0:0:0:
354,155,35850,6,0,P|320:174|255:149,1,99.0000030212403,2|0,1:2|3:0,0:0:0:0:
162,259,36179,2,0,P|185:245|263:266,1,99.0000030212403,2|0,1:2|3:0,0:0:0:0:
314,337,36674,5,0,3:0:0:0:
314,337,37004,1,0,3:0:0:0:
314,337,37333,1,0,3:0:0:0:
387,289,37498,5,0,3:0:0:0:
387,289,37581,1,0,3:0:0:0:
387,289,37663,2,0,P|402:245|383:190,1,99.0000030212403,2|0,1:2|0:0,0:0:0:0:
342,93,37993,1,0,3:0:0:0:
342,93,38322,1,0,3:0:0:0:
258,187,38487,6,0,P|208:198|151:222,1,99.0000030212403,2|0,1:2|3:0,0:0:0:0:
58,100,38817,2,0,P|104:118|153:128,1,99.0000030212403,2|0,1:2|3:0,0:0:0:0:
122,325,39311,5,0,3:0:0:0:
83,243,39476,1,8,0:3:0:0:
163,215,39641,1,0,3:2:0:0:
201,294,39806,1,4,0:3:0:0:
23,324,39971,5,0,3:0:0:0:
23,324,40135,1,0,1:0:0:0:
5,133,40300,6,0,P|1:93|45:49,1,99.0000030212403,2|0,1:2|0:0,0:0:0:0:
129,17,40630,2,0,P|139:68|157:113,1,72,0|0,3:0|0:0,0:0:0:0:
92,162,40960,1,0,3:0:0:0:
307,89,41124,2,0,P|266:62|195:42,1,99.0000030212403,2|0,1:2|3:0,0:0:0:0:
237,238,41619,6,0,B|323:227|275:277|403:253,1,135,2|0,1:2|0:0,0:0:0:0:
453,269,41949,2,0,P|442:213|442:155,1,90,0|0,3:0|0:0,0:0:0:0:
170,180,42278,2,0,P|195:271|202:336,1,135,6|0,1:2|0:0,0:0:0:0:
196,344,42608,1,0,3:0:0:0:
318,142,42773,5,0,1:0:0:0:
318,142,42855,1,0,1:0:0:0:
318,142,42938,2,0,P|328:105|336:80,2,45,0|0|0,3:0|3:0|3:0,0:0:0:0:
415,50,43267,2,0,B|381:73|334:72|334:72|309:23|244:23,1,180,4|8,1:2|0:3,0:0:0:0:
94,97,43762,1,8,0:3:0:0:
88,140,43844,1,8,0:3:0:0:
111,178,43926,1,4,0:3:0:0:
153,193,44009,1,4,0:3:0:0:
195,178,44092,2,0,P|188:143|178:124,1,45,4|4,0:3|0:3,0:0:0:0:
411,146,44256,6,0,P|385:218|390:260,1,90,6|0,3:2|0:0,0:0:0:0:
252,355,44586,2,0,P|234:293|202:257,1,90,2|0,1:2|3:0,0:0:0:0:
298,240,44833,1,0,3:0:0:0:
298,240,44916,2,0,P|392:267|351:343,1,180,6|2,1:2|1:2,0:0:0:0:
129,344,45410,5,2,1:2:0:0:
129,344,45493,1,0,1:0:0:0:
129,344,45575,2,0,P|77:331|5:325,1,90,4|2,3:2|3:2,0:0:0:0:
122,178,45905,2,0,P|134:220|136:250,3,45,2|0|2|0,3:2|3:2|3:2|3:2,0:0:0:0:
29,248,46234,2,0,P|41:206|43:176,3,45,2|0|0|0,3:2|3:2|3:2|3:2,0:0:0:0:
41,123,46564,1,2,3:2:0:0:
174,43,46729,5,2,3:2:0:0:
174,43,46811,1,0,3:2:0:0:
174,43,46894,2,0,P|216:57|235:60,3,45,0|0|2|0,3:2|3:2|3:2|3:2,0:0:0:0:
211,145,47223,2,0,P|247:139|274:128,3,45,0|0|2|0,3:2|3:2|3:2|3:2,0:0:0:0:
295,216,47553,2,0,P|335:191|350:174,3,45,0|0|0|0,3:2|3:2|3:2|3:2,0:0:0:0:
408,134,47883,5,0,1:2:0:0:
408,134,47965,1,0,1:2:0:0:
408,134,48048,1,0,1:2:0:0:
408,134,48130,1,0,1:2:0:0:
408,134,48212,2,0,P|415:203|428:243,1,90,0|2,3:2|3:2,0:0:0:0:
366,329,48460,1,0,3:2:0:0:
366,329,48542,2,0,P|357:296|348:277,3,45,0|0|2|0,3:2|3:2|3:2|3:2,0:0:0:0:
240,290,48872,6,0,B|177:277|177:277|153:317|97:309,1,135,2|0,3:2|3:2,0:0:0:0:
14,260,49201,1,2,3:2:0:0:
14,260,49284,1,0,3:2:0:0:
14,260,49366,2,0,P|8:220|5:202,3,45,2|0|0|0,3:2|3:2|3:2|3:2,0:0:0:0:
89,118,49696,2,0,P|83:158|80:176,3,45,2|0|0|0,3:2|3:2|3:2|3:2,0:0:0:0:
172,246,50026,2,0,P|166:206|163:188,3,45,2|0|0|0,3:2|3:2|3:2|3:2,0:0:0:0:
219,115,50355,5,8,0:3:0:0:
259,108,50438,1,8,0:3:0:0:
305,120,50520,1,4,0:3:0:0:
354,143,50603,1,4,0:3:0:0:
403,148,50685,1,4,0:3:0:0:
445,130,50767,1,4,0:3:0:0:
464,97,50850,6,0,P|443:50|432:-3,1,90,6|0,3:2|0:0,0:0:0:0:
389,239,51179,1,0,1:0:0:0:
453,308,51344,2,0,P|416:280|338:315,1,135,2|0,0:0|0:0,0:0:0:0:
170,359,51674,5,2,3:2:0:0:
294,237,51839,1,2,1:2:0:0:
123,175,52004,1,2,0:0:0:0:
59,250,52168,6,0,P|43:301|53:358,1,90,6|0,3:2|0:0,0:0:0:0:
195,273,52498,1,0,1:0:0:0:
161,80,52663,6,0,P|189:120|253:118,1,90,2|0,0:0|3:0,0:0:0:0:
302,189,52993,1,2,3:2:0:0:
468,108,53157,1,2,1:2:0:0:
291,14,53322,1,2,0:0:0:0:
434,249,53487,5,6,3:2:0:0:
321,101,53652,1,0,3:0:0:0:
329,318,53817,5,0,1:0:0:0:
321,101,53982,1,0,3:0:0:0:
169,307,54146,5,0,1:0:0:0:
321,101,54311,1,2,3:2:0:0:
54,55,54476,1,2,1:2:0:0:
256,215,54641,6,0,B|345:193|316:256|423:220,1,148.50000453186,6|0,3:2|0:0,0:0:0:0:
438,209,54971,1,2,3:2:0:0:
321,101,55135,2,0,P|316:79|296:37,2,49.5000015106202,0|0|0,1:0|1:0|3:0,0:0:0:0:
235,328,55465,5,8,0:3:0:0:
186,321,55548,1,8,0:3:0:0:
157,285,55630,1,4,0:3:0:0:
164,236,55712,1,4,0:3:0:0:
205,201,55795,1,8,0:3:0:0:
230,164,55877,1,8,0:3:0:0:
223,121,55959,1,4,0:3:0:0:
189,94,56042,1,4,0:3:0:0:
146,107,56124,2,0,P|102:118|63:126,1,49.5000015106202,2|0,1:2|0:0,0:0:0:0:
367,249,56289,2,0,P|432:265|477:283,1,99.0000030212403,2|0,1:2|0:0,0:0:0:0:
238,335,56784,6,0,P|231:290|213:231,1,99.0000030212403,0|0,3:0|1:0,0:0:0:0:
142,267,57031,1,0,1:0:0:0:
142,267,57113,2,0,P|88:287|45:307,1,99.0000030212403,0|0,1:0|1:0,0:0:0:0:
247,94,57443,6,0,B|338:108|279:156|414:160,1,148.50000453186,6|0,3:2|0:0,0:0:0:0:
404,182,57773,1,0,1:0:0:0:
474,34,57938,2,0,P|415:52|358:59,1,99.0000030212403,2|0,0:3|3:0,0:0:0:0:
282,221,58267,1,2,0:3:0:0:
488,280,58432,2,0,P|494:220|510:175,1,99.0000030212403,0|2,1:0|0:3,0:0:0:0:
267,331,58762,6,0,B|222:296|171:312|171:312|153:365|65:371,1,198.000006042481,2|0,3:2|1:0,0:0:0:0:
34,233,59174,1,0,3:0:0:0:
34,233,59256,2,0,P|49:194|50:147,1,49.5000015106202,2|0,0:3|0:0,0:0:0:0:
185,125,59421,2,0,P|161:193|155:255,1,99.0000030212403,0|2,3:0|0:3,0:0:0:0:
189,363,59751,1,0,1:0:0:0:
286,112,59916,6,0,P|207:88|104:54,1,148.50000453186,2|0,0:3|0:0,0:0:0:0:
105,41,60245,1,2,0:3:0:0:
246,237,60410,5,2,1:2:0:0:
363,28,60575,1,2,0:3:0:0:
230,4,60740,5,2,3:2:0:0:
398,221,60905,1,2,0:3:0:0:
152,226,61070,5,2,1:2:0:0:
450,98,61234,1,2,0:3:0:0:
307,342,61399,5,2,3:2:0:0:
307,342,61564,2,0,P|288:290|285:242,1,99.0000030212403,2|0,0:3|1:0,0:0:0:0:
288,156,61894,1,2,0:3:0:0:
105,23,62059,6,0,B|61:45|19:46|19:46|79:102|60:161,1,198.000006042481,2|0,3:2|1:0,0:0:0:0:
69,289,62553,1,2,0:3:0:0:
196,200,62718,2,0,P|178:148|163:91,1,99.0000030212403,6|2,3:2|0:3,0:0:0:0:
223,304,63048,1,2,1:2:0:0:
17,215,63212,1,2,0:3:0:0:
279,165,63377,2,0,P|332:180|379:188,1,99.0000030212403,2|2,3:2|0:3,0:0:0:0:
152,366,63707,5,2,1:2:0:0:
152,366,63872,1,2,0:3:0:0:
292,270,64037,5,6,3:2:0:0:
133,162,64201,1,2,0:3:0:0:
257,94,64366,1,2,1:2:0:0:
127,289,64531,1,2,0:3:0:0:
27,137,64696,6,0,P|21:67|69:-13,1,148.50000453186,2|0,3:2|0:0,0:0:0:0:
55,0,65026,2,0,P|108:22|160:26,1,99.0000030212403,2|2,1:2|0:3,0:0:0:0:
433,210,65355,2,0,B|403:182|397:135|397:135|438:106|424:52,1,148.50000453186,6|0,3:2|0:0,0:0:0:0:
362,31,65685,1,2,1:2:0:0:
255,270,65850,6,0,P|306:254|358:248,1,99.0000030212403,6|0,3:2|0:0,0:0:0:0:
252,112,66179,1,2,3:2:0:0:
439,239,66344,1,0,1:0:0:0:
208,343,66509,2,0,P|227:281|135:253,1,148.50000453186,6|0,3:2|0:0,0:0:0:0:
87,270,66839,2,0,P|106:309|112:339,1,49.5000015106202,2|0,3:2|0:0,0:0:0:0:
165,154,67004,1,2,1:2:0:0:
38,89,67168,1,2,3:2:0:0:
249,31,67333,5,0,1:0:0:0:
287,41,67416,1,0,1:0:0:0:
318,68,67498,1,2,3:2:0:0:
358,85,67581,1,0,3:0:0:0:
401,102,67663,2,0,P|406:60|410:30,3,49.5000015106202,0|8|4|4,1:0|0:3|0:3|0:3,0:0:0:0:
483,243,67993,5,2,0:0:0:0:
483,243,68322,2,0,B|447:205|393:207|393:207|423:267|392:315,1,198.000006042481,4|2,1:2|3:2,0:0:0:0:
142,281,68817,1,2,0:3:0:0:
142,281,68899,1,0,3:0:0:0:
142,281,68982,2,0,P|194:259|218:252,1,49.5000015106202,0|0,1:0|0:0,0:0:0:0:
448,307,69146,2,0,B|337:280|368:363|250:319,1,198.000006042481,2|2,0:3|0:3,0:0:0:0:
160,142,69641,1,2,1:2:0:0:
279,229,69806,1,2,0:3:0:0:
54,384,69971,5,2,3:2:0:0:
187,261,70135,1,2,0:3:0:0:
24,167,70300,5,2,1:2:0:0:
177,369,70465,1,2,0:3:0:0:
258,138,70630,6,0,P|274:89|311:14,1,99.0000030212403,2|2,3:2|0:3,0:0:0:0:
369,149,70960,2,0,P|422:176|459:188,1,99.0000030212403,2|2,1:2|0:3,0:0:0:0:
288,251,71289,5,2,3:2:0:0:
422,81,71454,1,2,0:3:0:0:
176,32,71619,1,0,1:0:0:0:
176,32,71701,1,0,1:0:0:0:
176,32,71784,2,0,P|199:96|202:159,1,99.0000030212403,2|0,0:3|3:0,0:0:0:0:
124,214,72113,5,2,0:3:0:0:
206,283,72278,1,2,1:2:0:0:
126,357,72443,2,0,P|96:346|60:337,1,49.5000015106202,2|0,0:3|1:0,0:0:0:0:
285,198,72608,1,2,3:2:0:0:
303,206,72690,1,0,3:0:0:0:
323,218,72773,2,0,P|371:208|394:203,1,49.5000015106202,2|0,0:3|3:0,0:0:0:0:
56,39,72938,5,0,1:0:0:0:
73,62,73020,1,8,0:3:0:0:
83,78,73103,2,0,P|95:118|99:150,1,49.5000015106202,4|0,0:3|0:0,0:0:0:0:
21,274,73267,5,6,1:2:0:0:
229,131,73432,1,2,3:2:0:0:
192,384,73597,5,2,1:3:0:0:
167,191,73762,1,0,3:0:0:0:
339,292,73927,5,2,1:3:0:0:
121,267,74092,1,2,3:2:0:0:
354,149,74256,5,2,1:3:0:0:
80,336,74421,1,0,3:0:0:0:
129,31,74586,5,6,1:2:0:0:
406,215,74751,1,2,3:2:0:0:
63,175,74916,5,2,1:3:0:0:
294,95,75081,1,0,3:0:0:0:
189,344,75245,5,2,1:3:0:0:
216,152,75410,1,2,3:2:0:0:
301,281,75575,5,2,1:3:0:0:
202,56,75740,1,2,3:2:0:0:
8,272,75905,6,0,P|67:254|118:249,1,99.0000030212403,6|2,3:2|1:2,0:0:0:0:
191,247,76152,1,0,1:0:0:0:
191,247,76234,2,0,P|181:210|177:180,1,49.5000015106202,2|0,1:2|0:0,0:0:0:0:
354,41,76399,5,6,3:2:0:0:
399,58,76481,1,0,1:0:0:0:
425,99,76563,1,8,0:3:0:0:
421,147,76646,1,8,0:3:0:0:
389,183,76728,1,8,0:3:0:0:
353,215,76811,1,8,0:3:0:0:
327,256,76894,1,4,0:3:0:0:
344,311,76976,1,4,0:3:0:0:
391,342,77059,1,4,0:3:0:0:
440,324,77141,1,4,0:3:0:0:
456,270,77223,6,0,P|343:282|231:328,1,198.000006042481,6|0,1:2|0:0,0:0:0:0:
194,373,78048,2,0,P|184:330|175:299,1,49.5000015106202,0|0,3:0|0:0,0:0:0:0:
85,107,78212,5,2,1:2:0:0:
67,151,78295,1,2,1:2:0:0:
53,193,78377,1,8,0:3:0:0:
43,227,78460,1,4,0:3:0:0:
38,266,78542,2,0,P|112:245|151:241,1,99.0000030212403,6|0,1:2|3:0,0:0:0:0:
237,240,78872,1,0,3:0:0:0:
319,84,79037,2,0,P|288:141|192:103,1,148.50000453186,6|0,1:2|0:0,0:0:0:0:
195,116,79366,1,0,3:0:0:0:
329,293,79531,2,0,B|349:197|349:197|413:246,1,148.50000453186,6|0,1:2|0:0,0:0:0:0:
414,332,79861,6,0,B|361:345|314:311|314:311|276:348|215:332,1,198.000006042481,6|0,1:2|3:0,0:0:0:0:
86,347,80355,1,6,1:2:0:0:
222,246,80520,1,0,3:0:0:0:
43,149,80685,1,0,3:0:0:0:
120,255,80850,1,6,1:2:0:0:
120,255,81015,1,0,3:0:0:0:
285,166,81179,6,0,B|267:50|267:50|200:112,1,198.000006042481,6|0,1:2|3:0,0:0:0:0:
183,116,81592,1,0,3:0:0:0:
183,116,81674,1,6,1:2:0:0:
365,95,81839,2,0,P|423:109|470:126,1,99.0000030212403,0|0,3:0|3:0,0:0:0:0:
265,250,82168,1,0,1:2:0:0:
103,40,82333,2,0,P|148:150|168:260,1,198.000006042481,6|0,3:2|1:2,0:0:0:0:
127,384,82828,5,2,3:2:0:0:
68,218,82993,1,4,1:2:0:0:
292,353,83157,2,0,P|249:339|172:321,1,99.0000030212403,2|0,3:2|3:0,0:0:0:0:
241,80,83487,2,0,P|266:142|365:115,1,148.50000453186,6|0,1:2|3:0,0:0:0:0:
427,135,83817,5,6,1:2:0:0:
184,219,83982,1,0,3:0:0:0:
427,135,84146,1,0,3:0:0:0:
167,5,84311,6,0,P|150:75|154:122,1,99.0000030212403,6|0,1:2|3:0,0:0:0:0:
261,266,84641,1,0,3:0:0:0:
9,195,84806,2,0,B|40:168|88:161|88:161|104:200|164:206,1,148.50000453186,6|0,1:2|0:0,0:0:0:0:
229,183,85135,6,0,P|237:113|249:75,1,99.0000030212403,6|0,1:2|3:0,0:0:0:0:
123,289,85465,1,0,3:0:0:0:
329,186,85630,5,6,1:2:0:0:
152,92,85795,1,0,3:0:0:0:
325,9,85960,1,0,3:0:0:0:
229,183,86124,1,6,1:2:0:0:
229,183,86289,1,0,3:0:0:0:
331,256,86454,6,0,P|394:244|432:238,1,99.0000030212403,6|0,1:2|3:0,0:0:0:0:
457,147,86784,1,0,3:0:0:0:
171,94,86949,2,0,P|202:196|221:309,1,198.000006042481,6|0,1:2|3:0,0:0:0:0:
202,335,87361,1,0,3:0:0:0:
202,335,87443,1,2,1:2:0:0:
75,212,87608,6,0,B|51:195|15:185|15:185|51:126|60:89,1,148.50000453186,6|0,3:2|0:0,0:0:0:0:
36,41,87938,1,2,1:2:0:0:
240,156,88103,1,2,3:2:0:0:
14,288,88267,6,0,B|43:256|98:254|98:254|119:297|169:305,1,148.50000453186,6|0,1:2|3:0,0:0:0:0:
202,335,88597,1,2,1:2:0:0:
436,230,88762,2,0,P|402:216|362:208,1,49.5000015106202,8|4,0:3|0:3,0:0:0:0:
131,78,88927,2,0,P|174:64|203:52,1,49.5000015106202,2|2,1:2|1:2,0:0:0:0:
202,335,89421,6,1,B|263:359|263:359|393:272|393:272|379:113|379:113|235:47|235:47|104:138|104:138|118:297|118:297|188:246|188:246|182:176|182:176|314:234|314:234|308:155,1,1232.63996238281,6|0,3:2|0:0,0:0:0:0:
