osu file format v14

[General]
AudioFilename: audio.mp3
AudioLeadIn: 0
PreviewTime: 56456
Countdown: 0
SampleSet: Soft
StackLeniency: 0.7
Mode: 0
LetterboxInBreaks: 0
WidescreenStoryboard: 1

[Editor]
DistanceSpacing: 1
BeatDivisor: 2
GridSize: 8
TimelineZoom: 1

[Metadata]
Title:Sayonara Usotsuki (TV Size)
TitleUnicode:サヨナラ嘘ツキ (TV Size)
Artist:mimimemeMIMI
ArtistUnicode:みみめめMIMI
Creator:Present
Version:Normal
Source:Blade & Soul
Tags:ブレイドアンドソウル opening tv size version unison square takao タカオユキ Pata-mon Hanazawa Kana
BeatmapID:1695852
BeatmapSetID:808100

[Difficulty]
HPDrainRate:3
CircleSize:3
OverallDifficulty:3
ApproachRate:5
SliderMultiplier:0.999999999999999
SliderTickRate:1

[Events]
//Background and Video events
0,0,"4.jpg",0,0
//Break Periods
//Storyboard Layer 0 (Background)
//Storyboard Layer 1 (Fail)
//Storyboard Layer 2 (Pass)
//Storyboard Layer 3 (Foreground)
//Storyboard Sound Samples

[TimingPoints]
2059,329.67032967033,4,2,2,40,1,0
7828,-100.0,4,2,1,60,0,1
7910,-100.0,4,2,1,5,0,0
8157,-100.0,4,2,1,60,0,1
8240,-100.0,4,2,1,5,0,0
8487,-100.0,4,2,1,60,0,0
13267,-100.0,4,2,1,50,0,0
13927,-100.0,4,2,2,40,0,0
24476,-100.0,4,2,1,50,0,0
32718,-100.0,4,2,1,60,0,0
33048,-100.0,4,2,1,50,0,0
34037,-100.0,4,2,1,60,0,0
35026,-100.0,4,2,2,50,0,0
42278,-100.0,4,2,2,40,0,0
42938,-100.0,4,2,1,40,0,0
45575,-100.0,4,2,1,40,0,1
45657,-100.0,4,2,1,40,0,0
57443,-100.0,4,2,1,60,0,1
67993,-100.0,4,2,1,60,0,0
68240,-100.0,4,2,1,40,0,0
68322,-100.0,4,2,1,60,0,1
68569,-100.0,4,2,1,40,0,1
68652,-100.0,4,2,1,60,0,1
73267,-100.0,4,2,1,75,0,1
77223,-100.0,4,2,1,60,0,0
78542,-100.0,4,2,2,50,0,1
78624,-100.0,4,2,2,50,0,0
83817,-100.0,4,2,2,50,0,1
83899,-100.0,4,2,2,50,0,0
91976,-100.0,4,2,2,5,0,0

[Colours]
Combo1 : 147,108,193
Combo2 : 255,128,128
Combo3 : 128,128,255
Combo4 : 255,81,81

[HitObjects]
51,101,3048,6,0,L|44:172,1,50,2|2,0:0|0:0,0:0:0:0:
57,199,3377,2,0,P|108:224|165:214,1,99.9999999999999,0|0,1:0|0:0,0:0:0:0:
198,208,3872,2,0,P|249:183|306:193,1,99.9999999999999,0|0,0:0|0:0,0:0:0:0:
339,197,4366,1,0,0:0:0:0:
320,295,4696,6,0,P|269:320|212:310,1,99.9999999999999,0|0,1:0|0:0,0:0:0:0:
179,304,5190,2,0,P|126:278|71:289,1,99.9999999999999,0|0,0:0|0:0,0:0:0:0:
36,276,5685,1,0,1:0:0:0:
43,174,6015,5,2,1:0:0:0:
120,45,6509,1,0,0:0:0:0:
216,70,6839,2,0,P|264:79|313:70,2,99.9999999999999,0|0|0,0:0|0:0|0:0,0:0:0:0:
186,165,7828,5,8,0:0:0:0:
265,225,8157,1,8,0:0:0:0:
345,165,8487,6,0,P|364:212|355:271,1,99.9999999999999,6|0,0:0|0:0,0:0:0:0:
362,310,8982,2,0,P|411:315|457:297,2,99.9999999999999,8|2|8,0:0|0:0|0:0,3:0:0:0:
265,284,9971,1,4,0:0:0:0:
135,209,10465,1,0,0:0:0:0:
265,134,10960,1,8,0:0:0:0:
364,134,11289,6,0,P|383:181|374:240,1,99.9999999999999,6|2,0:0|3:0,0:0:0:0:
360,276,11784,2,0,P|312:291|264:283,1,99.9999999999999,10|0,0:0|0:0,3:0:0:0:
182,342,12443,2,0,P|163:295|169:246,1,99.9999999999999,8|0,0:0|0:0,3:0:0:0:
181,197,12938,1,8,0:0:0:0:
256,131,13267,1,4,3:2:0:0:
331,197,13597,1,8,3:2:0:0:
327,297,13927,6,0,L|229:337,1,99.9999999999999,10|0,0:0|0:0,0:0:0:0:
149,281,14586,2,0,L|162:181,1,99.9999999999999,10|0,0:0|0:0,0:0:0:0:
228,105,15245,2,0,P|184:83|135:85,2,99.9999999999999,10|0|10,0:0|0:0|0:0,3:0:0:0:
318,147,16234,1,2,0:0:0:0:
390,77,16564,6,0,P|417:127|404:197,1,99.9999999999999,10|0,0:0|0:0,0:0:0:0:
489,236,17223,2,0,P|438:262|368:249,1,99.9999999999999,10|2,0:0|0:0,0:0:0:0:
297,273,17883,2,0,L|269:383,2,99.9999999999999,10|0|10,0:0|0:0|0:0,0:0:0:0:
295,172,18872,1,2,0:0:0:0:
274,74,19201,6,0,P|323:74|365:99,1,99.9999999999999,10|0,0:0|0:0,0:0:0:0:
432,174,19860,2,0,P|380:199|310:183,1,99.9999999999999,10|0,0:0|0:0,0:0:0:0:
243,164,20520,2,0,P|186:167|133:215,1,99.9999999999999,10|0,0:0|0:0,0:0:0:0:
185,283,21179,1,10,0:0:0:0:
133,368,21509,1,2,0:0:0:0:
62,296,21839,2,0,L|62:193,2,99.9999999999999,10|0|10,0:0|0:0|0:0,0:0:0:0:
133,368,22828,1,0,0:0:0:0:
227,336,23157,6,0,P|266:302|283:248,1,99.9999999999999,10|2,0:0|0:0,0:0:0:0:
348,182,23817,2,0,L|343:131,2,50,8|8|8,3:2|3:2|3:2,0:0:0:0:
444,207,24476,5,4,0:0:0:0:
443,307,24806,2,0,P|398:333|348:332,1,99.9999999999999,8|2,0:0|0:0,0:0:0:0:
282,257,25465,1,8,0:0:0:0:
183,240,25795,2,0,L|72:253,2,99.9999999999999,2|8|2,0:0|0:0|0:0,3:0:0:0:
249,165,26783,1,8,0:0:0:0:
342,130,27113,2,0,L|329:19,2,99.9999999999999,0|8|2,0:0|0:0|0:0,3:0:0:0:
428,180,28102,1,10,0:0:0:0:
409,278,28432,2,0,P|362:296|313:291,1,99.9999999999999,0|8,0:0|0:0,0:0:0:0:
219,272,29091,2,0,L|209:221,2,50,2|2|8,0:0|0:0|0:0,0:0:0:0:
149,344,29750,6,0,P|100:344|58:319,1,99.9999999999999,2|8,0:0|0:0,0:0:0:0:
127,246,30410,2,0,P|177:247|219:272,1,99.9999999999999,2|8,0:0|0:0,0:0:0:0:
246,367,31069,2,0,P|290:342|315:300,1,99.9999999999999,2|8,0:0|0:0,0:0:0:0:
377,221,31729,2,0,P|356:207|333:200,1,50,2|2,0:0|0:0,0:0:0:0:
283,203,32058,2,0,P|257:215|234:236,1,50,8|2,0:0|0:0,0:0:0:0:
219,272,32388,6,0,L|116:272,2,99.9999999999999,2|12|2,0:0|0:0|0:0,0:0:0:0:
316,300,33377,1,8,0:0:0:0:
412,272,33707,1,2,0:0:0:0:
412,171,34037,1,12,0:0:0:0:
316,142,34366,2,0,L|221:170,1,99.9999999999999,2|0,0:0|3:0,3:0:0:0:
173,258,35026,5,10,2:0:0:0:
173,258,35190,2,0,L|121:264,2,50,0|0|0,0:0|0:0|0:0,0:0:0:0:
220,277,35685,2,0,P|267:298|326:292,1,99.9999999999999,0|0,0:0|0:0,0:0:0:0:
361,276,36179,1,8,1:2:0:0:
410,188,36509,1,0,0:0:0:0:
449,94,36839,2,0,P|400:87|354:105,1,99.9999999999999,0|0,0:0|0:0,3:0:0:0:
312,133,37333,1,2,0:0:0:0:
213,139,37663,5,2,0:0:0:0:
213,139,37828,2,0,L|218:76,2,50,0|0|0,0:0|1:0|0:0,0:0:0:0:
207,188,38322,2,0,P|198:238|217:294,1,99.9999999999999,0|8,3:0|0:0,0:0:0:0:
246,319,38816,1,8,0:0:0:0:
300,234,39146,1,0,0:0:0:0:
393,271,39476,2,0,P|400:222|382:176,1,99.9999999999999,0|0,0:0|0:0,3:0:0:0:
349,138,39970,2,0,L|355:87,1,50,2|0,0:0|3:0,0:0:0:0:
326,47,40300,5,2,3:0:0:0:
243,101,40630,2,0,L|238:150,1,50,0|0,0:0|3:0,0:0:0:0:
196,178,40960,2,0,L|191:227,1,50,2|0,0:0|3:0,0:0:0:0:
149,255,41289,2,0,L|144:304,1,50,2|0,3:2|1:0,0:0:0:0:
173,345,41619,6,0,P|222:352|268:334,1,99.9999999999999,2|2,1:0|3:0,3:0:0:0:
368,321,42278,2,0,P|350:275|311:244,1,99.9999999999999,2|0,3:0|1:0,3:0:0:0:
213,253,42938,1,8,0:0:0:0:
250,162,43267,2,0,P|201:155|155:173,2,99.9999999999999,4|2|0,0:0|0:0|3:0,3:0:0:0:
350,151,44256,5,4,1:2:0:0:
312,244,44586,1,0,1:0:0:0:
412,234,44916,1,8,1:2:0:0:
369,324,45246,1,2,3:0:0:0:
269,333,45575,6,0,P|222:352|173:345,1,99.9999999999999,12|10,0:0|0:0,3:0:0:0:
73,342,46234,2,0,P|55:295|62:246,1,99.9999999999999,10|8,0:0|0:0,3:0:0:0:
100,153,46894,1,10,0:0:0:0:
158,72,47223,2,0,P|114:51|64:58,2,99.9999999999999,10|10|8,0:0|0:0|0:0,3:0:0:0:
230,142,48212,6,0,L|211:201,2,50,10|0|8,0:0|0:0|0:0,0:0:0:0:
328,118,48872,2,0,P|391:110|471:147,2,150,10|2|10,0:0|0:0|0:0,3:0:0:0:
328,118,50026,1,0,0:0:0:0:
343,216,50355,2,0,L|334:279,1,50,2|2,3:0|3:0,0:0:0:0:
327,314,50685,2,0,L|264:323,1,50,8|4,3:0|0:0,0:0:0:0:
178,323,51179,6,0,L|115:314,2,50,8|0|2,0:0|0:0|0:0,0:0:0:0:
168,223,51839,2,0,L|177:160,1,50,8|2,0:0|0:0,0:0:0:0:
168,123,52168,1,4,0:0:0:0:
210,31,52498,6,0,L|147:22,2,50,8|0|2,0:0|0:0|0:0,0:0:0:0:
309,47,53157,2,0,L|372:56,1,50,8|2,0:0|0:0,0:0:0:0:
409,47,53487,2,0,P|500:82|434:167,1,200,12|8,0:0|0:0,0:0:0:0:
426,179,54311,2,0,L|366:177,1,50,2|12,0:0|0:0,0:0:0:0:
329,160,54641,1,12,0:0:0:0:
235,127,54971,5,8,3:0:0:0:
235,127,55135,2,0,L|230:176,1,50,8|8,3:0|0:0,0:0:0:0:
188,204,55465,2,0,L|183:253,1,50,2|8,3:0|3:0,0:0:0:0:
223,285,55795,2,0,L|264:314,1,50,2|8,3:0|3:0,0:0:0:0:
304,345,56124,1,12,0:0:0:0:
304,345,56289,1,12,0:0:0:0:
388,116,57443,6,0,P|328:78|313:143,1,150,4|0,0:0|0:0,0:0:0:0:
312,183,58102,2,0,L|322:245,1,50,2|2,0:0|0:0,0:0:0:0:
282,265,58432,1,8,0:0:0:0:
249,343,58762,6,0,P|189:380|174:315,1,150,2|0,0:0|0:0,0:0:0:0:
173,276,59421,2,0,L|183:214,1,50,2|2,0:0|0:0,0:0:0:0:
143,194,59751,1,8,0:0:0:0:
162,147,59916,6,0,P|208:128|257:136,1,99.9999999999999,2|0,0:0|0:0,3:0:0:0:
301,161,60410,1,8,0:0:0:0:
384,106,60740,1,2,0:0:0:0:
463,169,61069,1,8,0:0:0:0:
422,267,61399,5,2,0:0:0:0:
422,267,61564,2,0,P|416:316|437:361,2,99.9999999999999,2|2|2,0:0|0:0|0:0,3:0:0:0:
389,229,62388,2,0,L|324:222,1,50,8|2,0:0|0:0,0:0:0:0:
290,220,62718,5,4,0:0:0:0:
243,308,63048,2,0,L|178:301,1,50,8|2,0:0|0:0,0:0:0:0:
144,299,63378,1,2,0:0:0:0:
48,271,63707,6,0,L|58:222,1,50,8|2,0:0|0:0,0:0:0:0:
102,198,64036,2,0,L|112:149,1,50,12|2,0:0|0:0,0:0:0:0:
155,126,64366,2,0,L|165:77,1,50,8|2,0:0|0:0,0:0:0:0:
208,54,64696,1,12,0:0:0:0:
296,102,65026,1,8,0:0:0:0:
356,181,65355,6,0,P|312:201|263:195,1,99.9999999999999,12|2,0:0|0:0,3:0:0:0:
251,244,65850,2,0,P|292:272|311:317,1,99.9999999999999,8|2,0:0|0:0,3:0:0:0:
213,335,66509,6,0,L|97:353,2,99.9999999999999,8|2|8,0:0|0:0|0:0,3:0:0:0:
251,244,67498,2,0,L|243:194,2,50,2|10|2,0:0|0:0|0:0,0:0:0:0:
292,274,67992,1,8,0:0:0:0:
385,236,68322,5,6,0:0:0:0:
360,139,68652,2,0,L|418:128,2,50,8|2|8,0:0|0:0|0:0,0:0:0:0:
311,152,69146,2,0,P|264:165|231:202,1,99.9999999999999,2|0,0:0|0:0,3:0:0:0:
199,241,69641,6,0,L|150:247,1,50,10|0,0:0|0:0,0:0:0:0:
108,219,69971,1,2,0:0:0:0:
12,245,70300,1,8,0:0:0:0:
42,341,70630,2,0,P|87:361|136:354,1,99.9999999999999,4|8,0:0|0:0,3:0:0:0:
212,289,71289,2,0,L|197:227,1,50,2|0,0:0|0:0,0:0:0:0:
277,175,71784,6,0,P|325:168|371:188,1,99.9999999999999,4|0,0:0|0:0,3:0:0:0:
418,205,72278,1,8,0:0:0:0:
465,188,72443,2,0,L|461:115,2,50,2|2|8,0:0|0:0|0:0,0:0:0:0:
455,337,73267,6,0,L|406:332,1,50,12|2,0:0|0:0,0:0:0:0:
378,290,73597,2,0,L|329:285,1,50,8|2,0:0|0:0,0:0:0:0:
301,243,73926,2,0,L|252:238,1,50,8|2,0:0|0:0,0:0:0:0:
201,240,74256,1,8,0:0:0:0:
147,156,74586,6,0,L|197:153,1,50,12|2,0:0|0:0,0:0:0:0:
227,112,74916,2,0,L|277:109,1,50,8|2,0:0|0:0,0:0:0:0:
307,68,75245,2,0,L|357:65,1,50,8|2,0:0|0:0,0:0:0:0:
407,70,75575,1,8,0:0:0:0:
443,164,75905,6,0,P|451:215|435:262,1,99.9999999999999,12|8,0:0|0:0,0:0:0:0:
408,301,76399,2,0,P|335:318|275:281,1,150,2|8,0:0|0:0,0:0:0:0:
177,301,77223,1,12,0:0:0:0:
107,109,78542,6,0,P|119:160|118:220,1,99.9999999999999,12|0,1:2|0:0,0:0:0:0:
113,257,79037,2,0,P|162:269|212:270,1,99.9999999999999,12|0,0:0|0:0,0:0:0:0:
260,258,79531,1,12,0:0:0:0:
304,170,79861,6,0,P|353:162|398:183,1,99.9999999999999,12|0,0:0|0:0,3:0:0:0:
418,229,80355,2,0,P|392:270|348:292,1,99.9999999999999,12|0,0:0|0:0,3:0:0:0:
321,335,80850,1,12,0:0:0:0:
222,329,81179,6,0,L|119:314,1,99.9999999999999,12|0,0:0|0:0,0:0:0:0:
86,280,81674,2,0,L|101:177,1,99.9999999999999,4|2,0:0|0:0,0:0:0:0:
144,156,82168,1,4,0:0:0:0:
144,156,82333,2,0,L|159:53,2,99.9999999999999,12|0|0,0:0|0:0|0:0,0:0:0:0:
175,195,83157,2,0,L|239:208,1,50,10|0,0:0|0:0,0:0:0:0:
274,213,83487,1,0,1:0:0:0:
373,195,83817,6,0,P|393:149|385:100,1,99.9999999999999,12|0,1:2|0:0,3:0:0:0:
351,64,84311,2,0,P|306:44|257:52,1,99.9999999999999,12|0,0:0|0:0,3:0:0:0:
208,65,84806,1,12,0:0:0:0:
109,75,85135,6,0,P|73:138|91:210,2,150,12|12|12,0:0|0:0|0:0,0:0:0:0:
171,153,86454,2,0,P|188:225|151:288,2,150,12|4|4,0:0|0:0|0:0,0:0:0:0:
181,105,87608,2,0,L|303:94,1,99.9999999999999,12|0,0:0|0:0,0:0:0:0:
330,105,88102,1,10,0:0:0:0:
379,115,88267,6,0,P|457:158|401:228,1,200,10|10,0:0|0:0,0:0:0:0:
256,192,89421,1,14,0:0:0:0:
256,192,89586,12,0,91976,0:0:0:0:
