osu file format v14

[General]
AudioFilename: audio.mp3
AudioLeadIn: 0
PreviewTime: 56456
Countdown: 0
SampleSet: Soft
StackLeniency: 0.7
Mode: 0
LetterboxInBreaks: 0
WidescreenStoryboard: 1

[Editor]
Bookmarks: 13927,24476,35026,45575
DistanceSpacing: 0.9
BeatDivisor: 4
GridSize: 8
TimelineZoom: 1.8

[Metadata]
Title:Sayonara Usotsuki (TV Size)
TitleUnicode:サヨナラ嘘ツキ (TV Size)
Artist:mimimemeMIMI
ArtistUnicode:みみめめMIMI
Creator:Present
Version:Kana's Extra
Source:Blade & Soul
Tags:ブレイドアンドソウル opening tv size version unison square takao タカオユキ Pata-mon Hanazawa Kana
BeatmapID:1702619
BeatmapSetID:808100

[Difficulty]
HPDrainRate:5.1
CircleSize:4
OverallDifficulty:8
ApproachRate:9.2
SliderMultiplier:1.6
SliderTickRate:1

[Events]
//Background and Video events
0,0,"5.jpg",0,0
//Break Periods
//Storyboard Layer 0 (Background)
//Storyboard Layer 1 (Fail)
//Storyboard Layer 2 (Pass)
//Storyboard Layer 3 (Foreground)
//Storyboard Sound Samples

[TimingPoints]
2059,329.67032967033,4,2,2,40,1,0
3048,-142.857142857143,4,2,2,40,0,0
7828,-142.857142857143,4,2,1,60,0,0
7910,-142.857142857143,4,2,1,5,0,0
8157,-111.111111111111,4,2,1,60,0,0
8240,-111.111111111111,4,2,1,5,0,0
8487,-100,4,2,1,60,0,0
13267,-100,4,2,1,50,0,0
13927,-142.857142857143,4,2,2,40,0,0
24476,-142.857142857143,4,2,1,50,0,0
32718,-83.3333333333334,4,2,1,60,0,0
33048,-83.3333333333334,4,2,1,50,0,0
33377,-100,4,2,1,50,0,0
34037,-90.9090909090909,4,2,1,60,0,0
34531,-111.111111111111,4,2,1,60,0,0
35026,-111.111111111111,4,2,2,50,0,0
35685,-142.857142857143,4,2,2,50,0,0
41949,-111.111111111111,4,2,2,50,0,0
42278,-83.3333333333333,4,2,2,40,0,0
42773,-111.111111111111,4,2,2,40,0,0
42938,-83.3333333333333,4,2,1,40,0,0
43267,-71.4285714285714,4,2,1,40,0,0
43597,-100,4,2,1,40,0,0
44586,-83.3333333333333,4,2,1,40,0,0
44916,-71.4285714285714,4,2,1,40,0,0
45575,-100,4,2,1,40,0,0
54641,-111.111111111111,4,2,1,40,0,0
56454,-142.857142857143,4,2,1,40,0,0
56949,-111.111111111111,4,2,1,40,0,0
57443,-83.3333333333333,4,2,1,60,0,1
65026,-90.9090909090909,4,2,1,60,0,1
65355,-76.9230769230769,4,2,1,60,0,1
65685,-83.3333333333333,4,2,1,60,0,1
67993,-333.333333333334,4,2,1,60,0,1
68240,-333.333333333334,4,2,1,40,0,1
68322,-71.4285714285714,4,2,1,60,0,1
68569,-71.4285714285714,4,2,1,40,0,1
68652,-83.3333333333333,4,2,1,60,0,1
73267,-83.3333333333333,4,2,1,75,0,1
77223,-83.3333333333333,4,2,1,60,0,1
77553,-111.111111111111,4,2,1,60,0,1
78542,-100,4,2,2,50,0,0
90410,-100,4,2,2,50,0,0
91729,-100,4,2,2,50,0,0
91976,-100,4,2,2,5,0,0
93048,-100,4,2,2,5,0,0

[Colours]
Combo1 : 147,108,193
Combo2 : 255,128,128
Combo3 : 128,128,255
Combo4 : 255,81,81

[HitObjects]
203,136,3048,6,0,P|210:165|220:196,1,55.9999982910157,2|2,0:0|0:0,0:0:0:0:
304,261,3377,6,0,P|344:255|371:247,2,55.9999982910157,0|0|0,1:0|0:0|0:0,0:0:0:0:
202,289,3872,2,0,P|184:326|178:349,2,55.9999982910157,0|0|0,0:0|1:0|0:0,0:0:0:0:
217,189,4366,2,0,P|212:163|203:136,1,55.9999982910157,0|0,0:0|0:0,0:0:0:0:
51,97,4696,6,0,P|88:94|118:88,1,55.9999982910157,0|0,1:0|0:0,0:0:0:0:
176,50,5026,1,0,0:0:0:0:
349,164,5190,2,0,P|317:161|281:152,1,55.9999982910157,0|0,0:0|1:0,0:0:0:0:
203,136,5520,1,0,0:0:0:0:
100,219,5685,2,0,P|109:262|114:289,1,55.9999982910157,0|0,1:0|0:0,0:0:0:0:
310,339,6015,5,2,1:0:0:0:
254,266,6179,1,0,0:0:0:0:
217,345,6344,1,0,0:0:0:0:
416,318,6509,5,0,0:0:0:0:
392,299,6674,1,0,0:0:0:0:
468,241,6839,5,0,0:0:0:0:
376,209,7004,1,0,0:0:0:0:
474,141,7168,5,0,0:0:0:0:
332,120,7333,1,0,0:0:0:0:
254,266,7498,1,0,0:0:0:0:
376,209,7663,1,0,0:0:0:0:
152,189,7828,6,0,L|53:182,1,83.9999974365235,8|0,0:0|0:0,0:0:0:0:
48,170,8157,6,0,L|163:166,1,107.999996704102,8|0,0:0|0:0,0:0:0:0:
203,141,8487,6,0,P|189:201|167:298,1,160,6|0,0:0|0:0,0:0:0:0:
310,339,8982,5,8,0:0:0:0:
287,192,9146,1,0,0:0:0:0:
167,296,9311,1,2,0:0:0:0:
203,141,9476,1,2,0:0:0:0:
291,326,9641,2,0,P|343:322|374:319,1,80,8|2,0:0|0:0,0:0:0:0:
491,207,9971,5,4,0:0:0:0:
454,364,10135,1,0,0:0:0:0:
379,154,10300,2,0,P|392:209|402:258,1,80,8|0,0:0|0:0,0:0:0:0:
437,369,10630,5,2,0:0:0:0:
220,359,10795,1,2,0:0:0:0:
396,231,10960,2,0,L|291:238,1,80,8|0,0:0|0:0,0:0:0:0:
134,142,11289,6,0,L|166:297,1,120,6|0,0:0|0:0,0:0:0:0:
157,289,11619,2,0,L|203:277,1,40,2|0,3:0|0:0,0:0:0:0:
310,112,11784,6,0,B|281:52|281:52|237:84,1,120,10|0,0:0|0:0,0:0:0:0:
211,78,12113,2,0,L|211:131,1,40,0|0,0:0|0:0,0:0:0:0:
322,196,12278,2,0,L|315:239,1,40,0|0,3:0|0:0,0:0:0:0:
190,369,12443,6,0,P|257:360|322:354,1,120,8|0,0:0|0:0,0:0:0:0:
340,357,12773,5,0,0:0:0:0:
397,232,12938,1,8,0:0:0:0:
466,318,13102,5,0,0:0:0:0:
322,196,13267,1,4,3:2:0:0:
311,166,13350,1,0,3:0:0:0:
309,140,13432,1,0,3:0:0:0:
314,113,13515,1,0,3:0:0:0:
328,91,13597,5,8,3:2:0:0:
285,104,13679,1,0,3:0:0:0:
240,109,13762,1,0,3:0:0:0:
195,109,13844,1,0,3:0:0:0:
149,104,13927,6,0,P|129:72|121:50,1,55.9999982910157,10|0,0:0|0:0,0:0:0:0:
48,27,14256,1,0,0:0:0:0:
41,176,14421,5,0,0:0:0:0:
142,198,14586,2,0,P|133:239|129:259,1,55.9999982910157,10|0,0:0|0:0,0:0:0:0:
76,357,14916,2,0,P|66:318|60:295,1,55.9999982910157,0|0,0:0|0:0,0:0:0:0:
255,280,15245,6,0,P|294:277|323:275,1,55.9999982910157,10|0,0:0|0:0,0:0:0:0:
443,362,15575,2,0,L|369:358,1,55.9999982910157,0|0,0:0|0:0,0:0:0:0:
217,286,15905,6,0,P|256:283|285:281,1,55.9999982910157,10|0,0:0|2:0,0:0:0:0:
405,368,16235,2,0,L|331:364,1,55.9999982910157,2|0,0:0|0:0,0:0:0:0:
159,365,16564,6,0,P|150:316|145:297,1,55.9999982910157,10|0,0:0|0:0,0:0:0:0:
282,226,16894,2,0,P|274:270|270:293,1,55.9999982910157,0|0,0:0|0:0,0:0:0:0:
167,206,17223,6,0,P|165:165|162:136,1,55.9999982910157,10|0,0:0|0:0,0:0:0:0:
373,150,17553,2,0,L|359:226,1,55.9999982910157,2|0,0:0|0:0,0:0:0:0:
212,71,17883,5,10,0:0:0:0:
288,57,18048,1,0,0:0:0:0:
242,158,18212,5,0,0:0:0:0:
163,150,18377,2,0,L|129:133,2,27.9999991455078,0|0|10,0:0|0:0|0:0,0:0:0:0:
282,226,18707,5,0,0:0:0:0:
362,205,18872,1,2,0:0:0:0:
422,364,19037,5,0,0:0:0:0:
481,302,19201,2,0,P|475:265|470:239,1,55.9999982910157,10|0,0:0|0:0,0:0:0:0:
470,226,19449,1,0,0:0:0:0:
471,209,19531,1,0,0:0:0:0:
291,352,19696,5,2,0:0:0:0:
222,302,19861,2,0,P|185:305|157:309,2,55.9999982910157,10|0|0,0:0|0:0|0:0,0:0:0:0:
362,205,20355,5,2,0:0:0:0:
406,133,20520,2,0,P|454:140|475:143,1,55.9999982910157,10|0,0:0|0:0,0:0:0:0:
481,146,20767,1,0,0:0:0:0:
502,151,20850,1,0,0:0:0:0:
196,224,21015,5,0,0:0:0:0:
201,94,21179,1,10,0:0:0:0:
273,178,21344,1,0,0:0:0:0:
285,45,21509,1,2,0:0:0:0:
122,140,21674,1,0,0:0:0:0:
350,131,21839,6,0,P|390:132|419:134,1,55.9999982910157,10|0,0:0|0:0,0:0:0:0:
382,292,22168,1,0,0:0:0:0:
435,212,22333,1,0,0:0:0:0:
474,306,22498,2,0,L|483:341,2,27.9999991455078,10|0|0,0:0|0:0|0:0,0:0:0:0:
382,292,22828,1,2,0:0:0:0:
216,342,22993,5,0,0:0:0:0:
302,366,23157,2,0,P|303:317|303:291,1,55.9999982910157,10|0,0:0|0:0,0:0:0:0:
304,287,23405,1,0,0:0:0:0:
304,270,23487,1,2,0:0:0:0:
134,272,23652,5,0,0:0:0:0:
137,255,23734,1,0,0:0:0:0:
139,238,23817,1,8,3:2:0:0:
143,221,23899,1,0,3:0:0:0:
147,204,23982,1,8,3:2:0:0:
151,187,24064,1,0,3:0:0:0:
155,167,24146,1,8,3:2:0:0:
7,162,24311,6,0,L|46:156,1,27.9999991455078,0|0,3:0|3:0,3:0:0:0:
52,66,24476,2,0,P|89:75|158:89,1,83.9999974365235,4|0,0:0|0:0,0:0:0:0:
159,92,24806,1,8,0:0:0:0:
281,223,24971,1,0,0:0:0:0:
453,144,25135,5,2,0:0:0:0:
354,128,25300,1,2,0:0:0:0:
374,247,25465,1,8,0:0:0:0:
496,226,25630,1,2,0:0:0:0:
482,343,25795,6,0,L|410:329,1,55.9999982910157,2|0,0:0|0:0,0:0:0:0:
320,313,26042,1,0,0:0:0:0:
289,322,26124,1,8,0:0:0:0:
258,334,26207,1,0,0:0:0:0:
234,344,26289,1,0,0:0:0:0:
243,135,26454,5,2,0:0:0:0:
212,267,26619,1,2,0:0:0:0:
314,174,26784,2,0,P|355:171|382:169,1,55.9999982910157,8|2,0:0|0:0,0:0:0:0:
467,129,27113,6,0,P|464:83|463:66,1,55.9999982910157,0|0,0:0|0:0,0:0:0:0:
386,93,27361,1,0,0:0:0:0:
380,79,27443,2,0,L|374:7,1,55.9999982910157,8|2,0:0|0:0,0:0:0:0:
243,135,27773,5,2,0:0:0:0:
248,52,27938,1,2,0:0:0:0:
149,154,28102,1,10,0:0:0:0:
130,70,28267,1,0,0:0:0:0:
183,239,28432,5,0,0:0:0:0:
98,267,28597,1,0,0:0:0:0:
216,331,28762,2,0,P|246:328|279:324,1,55.9999982910157,8|0,0:0|0:0,0:0:0:0:
358,334,29009,1,0,0:0:0:0:
378,328,29091,5,2,0:0:0:0:
411,210,29256,1,2,0:0:0:0:
471,300,29421,1,8,0:0:0:0:
252,254,29586,6,0,L|257:221,1,27.9999991455078,2|0,0:0|0:0,0:0:0:0:
329,183,29751,2,0,P|325:149|320:124,1,55.9999982910157,2|0,0:0|0:0,0:0:0:0:
287,60,29998,1,0,0:0:0:0:
293,40,30080,1,8,0:0:0:0:
97,213,30245,5,2,0:0:0:0:
163,260,30410,2,0,L|209:254,2,27.9999991455078,2|0|0,0:0|0:0|0:0,0:0:0:0:
268,247,30740,1,8,0:0:0:0:
471,300,30905,5,0,0:0:0:0:
386,356,31069,2,0,P|351:353|327:351,1,55.9999982910157,2|0,0:0|0:0,0:0:0:0:
256,337,31317,1,0,0:0:0:0:
236,339,31399,1,8,0:0:0:0:
121,358,31564,1,0,0:0:0:0:
97,213,31729,5,2,0:0:0:0:
163,260,31894,1,2,0:0:0:0:
32,260,32059,5,8,0:0:0:0:
98,135,32223,1,2,0:0:0:0:
250,210,32388,6,0,P|243:263|235:304,1,83.9999974365235,2|0,0:0|0:0,0:0:0:0:
236,339,32718,6,0,B|263:291|263:291|304:286|368:328,1,143.999995605469,12|0,0:0|0:0,0:0:0:0:
371,340,33048,5,2,0:0:0:0:
453,272,33212,1,2,0:0:0:0:
338,190,33377,6,0,P|271:195|249:196,1,80,8|0,0:0|0:0,0:0:0:0:
165,170,33707,6,0,L|117:177,1,40,2|0,0:0|0:0,0:0:0:0:
46,201,33872,1,2,0:0:0:0:
247,213,34037,6,0,B|254:161|254:161|249:111|228:66,1,132.00000402832,12|0,0:0|0:0,0:0:0:0:
209,57,34366,5,2,0:0:0:0:
418,101,34531,2,0,L|464:93,1,35.9999989013672,0|0,3:0|3:0,0:0:0:0:
356,161,34696,5,0,3:0:0:0:
349,206,34778,1,0,3:0:0:0:
360,250,34861,1,0,3:0:0:0:
372,291,34943,1,0,3:0:0:0:
362,338,35026,5,10,2:0:0:0:
160,360,35190,5,0,0:0:0:0:
226,324,35355,1,0,0:0:0:0:
164,283,35520,1,0,0:0:0:0:
232,244,35685,2,0,L|289:245,1,55.9999982910157,0|8,0:0|1:2,0:0:0:0:
130,198,36015,5,0,0:0:0:0:
83,260,36179,2,0,P|40:253|16:250,1,55.9999982910157,8|2,1:2|0:0,0:0:0:0:
154,360,36509,2,0,P|113:362|88:363,1,55.9999982910157,0|2,0:0|0:0,0:0:0:0:
23,365,36839,1,0,0:0:0:0:
265,354,37004,5,2,0:0:0:0:
296,359,37086,1,0,0:0:0:0:
330,351,37168,1,0,0:0:0:0:
355,332,37251,1,0,0:0:0:0:
368,308,37333,5,2,0:0:0:0:
400,297,37416,1,0,0:0:0:0:
437,304,37498,1,0,0:0:0:0:
468,334,37580,1,0,0:0:0:0:
463,378,37663,5,2,0:0:0:0:
473,227,37828,5,0,0:0:0:0:
501,156,37993,1,0,1:0:0:0:
425,132,38157,1,0,0:0:0:0:
393,62,38322,2,0,P|389:24|386:-1,1,55.9999982910157,0|8,3:0|0:0,0:0:0:0:
228,128,38652,5,8,0:0:0:0:
298,170,38817,2,0,P|335:162|360:157,1,55.9999982910157,8|2,0:0|0:0,0:0:0:0:
242,262,39146,2,0,P|283:272|305:279,1,55.9999982910157,0|2,0:0|0:0,0:0:0:0:
383,322,39476,1,0,0:0:0:0:
450,269,39641,1,2,0:0:0:0:
204,358,39806,5,0,0:0:0:0:
139,312,39971,1,2,0:0:0:0:
70,352,40135,1,0,3:0:0:0:
6,306,40300,2,0,P|11:266|15:238,1,55.9999982910157,2|0,3:0|0:0,0:0:0:0:
23,169,40630,1,0,0:0:0:0:
217,180,40795,5,0,3:0:0:0:
270,118,40960,1,2,0:0:0:0:
183,95,41124,5,0,3:0:0:0:
350,151,41289,1,2,3:2:0:0:
346,64,41454,5,0,1:0:0:0:
300,217,41619,2,0,P|291:267|289:279,1,55.9999982910157,2|0,1:0|0:0,0:0:0:0:
497,384,41949,6,0,P|485:337|472:270,1,107.999996704102,2|0,3:0|0:0,0:0:0:0:
501,235,42278,6,0,B|487:282|487:282|452:315|388:298,1,143.999995605469,2|0,3:0|0:0,0:0:0:0:
365,270,42608,5,0,1:0:0:0:
273,295,42773,2,0,L|280:335,1,35.9999989013672,0|0,0:0|0:0,0:0:0:0:
340,369,42938,6,0,L|184:337,1,143.999995605469,8|0,0:0|0:0,0:0:0:0:
131,364,43267,6,0,P|145:302|42:303,1,167.999994873047,4|0,0:0|0:0,0:0:0:0:
20,338,43597,5,2,0:0:0:0:
138,265,43762,1,0,3:0:0:0:
148,226,43844,1,0,3:0:0:0:
147,185,43927,1,0,3:0:0:0:
133,147,44009,1,0,3:0:0:0:
120,109,44091,1,0,3:0:0:0:
121,68,44174,1,0,3:0:0:0:
140,33,44256,6,0,P|85:72|28:62,1,120,4|0,1:2|0:0,0:0:0:0:
5,107,44586,6,0,P|64:93|181:109,1,143.999995605469,0|2,1:0|0:0,0:0:0:0:
210,143,44916,6,0,B|267:150|267:150|324:104|311:31,1,167.999994873047,8|0,1:2|0:0,0:0:0:0:
229,39,45245,5,2,3:0:0:0:
219,88,45328,1,0,3:0:0:0:
210,143,45410,1,8,3:0:0:0:
435,251,45575,6,0,L|425:311,2,40,12|0|8,0:0|0:0|0:0,0:0:0:0:
346,332,45822,1,0,0:0:0:0:
344,319,45905,5,10,0:0:0:0:
341,307,45987,1,0,0:0:0:0:
341,295,46069,1,8,0:0:0:0:
340,282,46152,1,0,0:0:0:0:
339,270,46234,6,0,L|335:213,2,40,10|0|2,0:0|0:0|0:0,0:0:0:0:
235,299,46482,1,0,0:0:0:0:
235,299,46564,2,0,L|227:349,2,40,8|0|0,0:0|0:0|0:0,0:0:0:0:
164,259,46811,1,0,0:0:0:0:
164,259,46894,6,0,P|155:212|153:171,1,80,10|0,0:0|0:0,0:0:0:0:
29,67,47141,1,0,0:0:0:0:
33,56,47223,2,0,L|46:10,1,40,10|0,0:0|0:0,0:0:0:0:
23,219,47388,2,0,L|12:159,1,40,10|0,0:0|0:0,0:0:0:0:
85,129,47553,5,10,0:0:0:0:
117,106,47635,1,0,0:0:0:0:
157,97,47718,1,10,0:0:0:0:
195,104,47800,1,0,0:0:0:0:
230,123,47883,1,8,0:0:0:0:
269,130,47965,1,0,0:0:0:0:
309,127,48048,1,10,0:0:0:0:
345,111,48130,1,0,0:0:0:0:
369,79,48212,6,0,L|359:33,2,40,10|0|0,0:0|0:0|0:0,0:0:0:0:
414,152,48460,1,0,0:0:0:0:
410,165,48542,5,8,0:0:0:0:
409,180,48624,1,0,0:0:0:0:
408,191,48707,1,0,0:0:0:0:
408,201,48789,1,0,0:0:0:0:
410,210,48872,6,0,L|418:259,2,40,10|0|2,0:0|0:0|0:0,0:0:0:0:
316,277,49119,1,0,0:0:0:0:
319,271,49201,2,0,L|325:222,2,40,8|0|10,0:0|0:0|0:0,0:0:0:0:
276,375,49449,1,0,0:0:0:0:
284,368,49531,6,0,P|341:360|400:364,1,80,10|0,0:0|0:0,0:0:0:0:
130,363,49778,1,0,0:0:0:0:
123,369,49861,6,0,P|112:347|104:327,1,40,10|0,0:0|0:0,0:0:0:0:
19,258,50026,2,0,P|20:230|24:210,1,40,0|0,0:0|3:0,0:0:0:0:
38,112,50190,2,0,L|79:84,1,40,10|0,3:0|3:0,0:0:0:0:
181,225,50355,5,2,3:0:0:0:
228,218,50438,1,0,3:0:0:0:
275,210,50520,1,2,3:0:0:0:
322,204,50602,1,0,3:0:0:0:
369,195,50685,1,8,3:0:0:0:
416,188,50767,1,0,3:0:0:0:
427,215,50850,6,0,B|368:217|368:217|259:171,1,160,4|8,0:0|0:0,0:0:0:0:
89,127,51344,6,0,P|135:122|179:116,1,80,0|2,0:0|0:0,0:0:0:0:
334,31,51674,1,2,0:0:0:0:
379,119,51839,1,8,0:0:0:0:
445,63,52004,1,2,0:0:0:0:
417,228,52168,6,0,B|354:248|354:248|250:217,1,160,4|8,0:0|0:0,0:0:0:0:
95,94,52663,6,0,L|179:101,1,80,0|2,0:0|0:0,0:0:0:0:
334,31,52993,1,2,0:0:0:0:
379,119,53157,1,8,0:0:0:0:
445,63,53322,1,2,0:0:0:0:
409,242,53487,6,0,B|334:277|334:277|245:242,1,160,12|8,0:0|0:0,0:0:0:0:
449,174,53982,5,2,0:0:0:0:
402,369,54146,1,8,0:0:0:0:
161,341,54311,5,2,0:0:0:0:
283,270,54476,1,12,0:0:0:0:
44,277,54641,6,0,B|71:217|71:217|100:275,1,107.999996704102,12|0,0:0|0:0,0:0:0:0:
106,273,54971,5,8,3:0:0:0:
103,251,55053,1,0,3:0:0:0:
103,226,55135,1,8,3:0:0:0:
109,198,55218,1,0,0:0:0:0:
121,174,55300,5,8,0:0:0:0:
276,145,55465,5,2,3:0:0:0:
293,111,55548,1,0,3:0:0:0:
292,74,55630,1,8,3:0:0:0:
265,45,55712,1,0,3:0:0:0:
210,43,55795,5,2,3:0:0:0:
164,71,55877,1,0,3:0:0:0:
114,89,55960,1,8,3:0:0:0:
62,77,56042,1,0,3:0:0:0:
19,47,56124,6,0,P|15:26|14:10,1,35.9999989013672,12|0,0:0|0:0,0:0:0:0:
287,255,56289,2,0,L|326:244,1,35.9999989013672,12|0,0:0|0:0,0:0:0:0:
356,235,56454,6,0,L|340:331,1,83.9999974365235,0|0,1:0|0:0,0:0:0:0:
343,349,56784,5,2,3:0:0:0:
176,333,56949,2,0,L|133:326,1,35.9999989013672,0|0,0:0|0:0,0:0:0:0:
64,352,57113,1,2,0:0:0:0:
70,308,57196,1,0,0:0:0:0:
76,265,57278,1,0,3:0:0:0:
81,221,57361,1,0,3:0:0:0:
88,173,57443,6,0,P|78:118|39:22,1,143.999995605469,4|0,0:0|0:0,0:0:0:0:
15,5,57773,1,8,0:0:0:0:
270,183,57938,2,0,P|277:128|294:87,1,95.9999970703126,0|2,0:0|0:0,0:0:0:0:
325,60,58185,1,0,0:0:0:0:
325,60,58267,1,2,0:0:0:0:
488,313,58432,2,0,L|312:287,1,143.999995605469,8|0,0:0|0:0,0:0:0:0:
271,280,58762,6,0,P|331:267|435:231,1,143.999995605469,2|0,0:0|0:0,0:0:0:0:
449,213,59091,1,8,0:0:0:0:
226,364,59256,1,0,0:0:0:0:
142,213,59421,1,2,0:0:0:0:
60,342,59586,1,2,0:0:0:0:
79,339,59668,1,2,0:0:0:0:
98,337,59751,1,8,0:0:0:0:
277,193,59916,6,0,P|246:136|164:169,1,143.999995605469,2|0,0:0|0:0,0:0:0:0:
142,213,60245,1,0,0:0:0:0:
103,81,60410,5,8,0:0:0:0:
148,222,60575,1,0,0:0:0:0:
205,99,60740,5,2,0:0:0:0:
152,233,60905,1,0,0:0:0:0:
48,177,61069,5,8,0:0:0:0:
251,198,61234,2,0,L|380:179,1,95.9999970703126,0|2,0:0|0:0,0:0:0:0:
484,305,61564,2,0,L|427:194,1,95.9999970703126,2|8,0:0|0:0,0:0:0:0:
461,38,61894,2,0,L|422:143,1,95.9999970703126,2|2,0:0|0:0,0:0:0:0:
333,108,62141,1,2,0:0:0:0:
305,97,62223,5,2,0:0:0:0:
295,267,62388,1,8,0:0:0:0:
440,219,62553,1,2,0:0:0:0:
476,348,62718,6,0,B|440:315|440:315|326:341,1,143.999995605469,4|0,0:0|0:0,0:0:0:0:
306,348,63048,2,0,P|245:345|199:337,1,95.9999970703126,8|2,0:0|0:0,0:0:0:0:
51,312,63295,1,2,0:0:0:0:
62,290,63377,2,0,P|117:280|181:281,1,95.9999970703126,2|2,0:0|0:0,0:0:0:0:
295,267,63707,5,8,0:0:0:0:
253,175,63872,1,2,0:0:0:0:
393,34,64037,6,0,P|388:87|384:135,1,95.9999970703126,12|2,0:0|0:0,0:0:0:0:
391,207,64284,1,0,0:0:0:0:
399,223,64366,5,8,0:0:0:0:
266,77,64531,1,2,0:0:0:0:
172,291,64696,2,0,P|215:252|303:268,1,143.999995605469,12|0,0:0|0:0,0:0:0:0:
310,279,65026,6,0,P|260:255|181:284,1,132.00000402832,8|0,0:0|0:0,0:0:0:0:
145,330,65355,6,0,P|148:268|127:151,1,155.999992858887,12|0,0:0|0:0,0:0:0:0:
99,111,65685,5,2,0:0:0:0:
21,342,65850,2,0,P|80:305|155:344,1,143.999995605469,8|0,0:0|0:0,0:0:0:0:
163,380,66179,5,2,0:0:0:0:
240,167,66344,1,0,0:0:0:0:
438,376,66509,2,0,B|412:335|412:335|426:212,1,143.999995605469,8|0,0:0|0:0,0:0:0:0:
437,199,66839,5,2,0:0:0:0:
246,336,67004,1,0,0:0:0:0:
280,151,67168,2,0,L|338:147,1,47.9999985351563,8|0,0:0|0:0,0:0:0:0:
369,144,67333,1,2,0:0:0:0:
106,187,67498,5,2,0:0:0:0:
189,211,67663,1,10,0:0:0:0:
274,228,67828,1,2,0:0:0:0:
278,239,67993,6,0,L|323:235,1,35.9999989013672,8|0,0:0|0:0,0:0:0:0:
356,237,68322,6,0,L|178:210,1,167.999994873047,6|0,0:0|0:0,0:0:0:0:
106,187,68652,1,8,0:0:0:0:
219,126,68817,1,2,0:0:0:0:
225,296,68982,5,8,0:0:0:0:
107,205,69146,2,0,L|46:208,1,47.9999985351563,2|0,0:0|0:0,0:0:0:0:
19,231,69311,2,0,P|30:171|30:107,1,95.9999970703126,2|0,0:0|0:0,0:0:0:0:
36,43,69641,5,10,0:0:0:0:
219,126,69806,1,0,0:0:0:0:
19,231,69971,5,2,0:0:0:0:
117,126,70135,1,2,0:0:0:0:
148,287,70300,2,0,P|144:356|142:391,1,95.9999970703126,8|2,0:0|0:0,0:0:0:0:
476,285,70630,6,0,P|448:221|356:225,1,143.999995605469,4|0,0:0|0:0,0:0:0:0:
341,273,70960,2,0,P|334:195|339:104,1,143.999995605469,8|0,0:0|0:0,0:0:0:0:
345,87,71289,5,2,0:0:0:0:
267,326,71454,2,0,P|226:282|134:296,1,143.999995605469,0|0,0:0|0:0,0:0:0:0:
82,246,71784,2,0,L|104:375,1,95.9999970703126,4|0,0:0|0:0,0:0:0:0:
263,347,72113,5,0,0:0:0:0:
150,199,72278,1,8,0:0:0:0:
287,203,72443,5,2,0:0:0:0:
311,195,72526,1,2,0:0:0:0:
339,205,72608,1,2,0:0:0:0:
366,194,72690,1,0,0:0:0:0:
392,205,72773,1,8,0:0:0:0:
202,62,72938,6,0,L|139:57,1,47.9999985351563,8|8,0:0|0:0,0:0:0:0:
120,55,73102,1,8,0:0:0:0:
207,92,73267,6,0,P|274:73|323:71,1,95.9999970703126,12|2,0:0|0:0,0:0:0:0:
434,115,73515,1,0,0:0:0:0:
453,123,73597,2,0,P|487:76|404:67,1,143.999995605469,8|0,0:0|0:0,0:0:0:0:
287,203,73927,5,8,0:0:0:0:
354,251,74091,1,2,0:0:0:0:
251,296,74256,5,8,0:0:0:0:
354,251,74421,1,2,0:0:0:0:
247,314,74586,6,0,P|192:291|120:282,1,95.9999970703126,12|2,0:0|0:0,0:0:0:0:
16,169,74834,1,0,0:0:0:0:
27,198,74916,2,0,P|77:217|101:135,1,143.999995605469,8|0,0:0|0:0,0:0:0:0:
236,34,75245,5,8,0:0:0:0:
217,109,75410,1,2,0:0:0:0:
321,92,75575,5,8,0:0:0:0:
236,34,75740,1,2,0:0:0:0:
287,182,75905,5,12,0:0:0:0:
414,113,76069,1,2,0:0:0:0:
414,113,76152,1,2,0:0:0:0:
414,113,76234,2,0,L|403:54,1,47.9999985351563,8|0,0:0|0:0,0:0:0:0:
392,264,76399,5,2,0:0:0:0:
494,143,76564,1,8,0:0:0:0:
455,119,76646,1,2,0:0:0:0:
414,113,76729,1,8,0:0:0:0:
373,120,76811,1,0,0:0:0:0:
334,141,76894,1,8,0:0:0:0:
293,154,76976,1,0,0:0:0:0:
251,143,77059,1,8,0:0:0:0:
217,112,77141,1,0,0:0:0:0:
207,62,77223,6,0,L|196:241,1,143.999995605469,12|0,0:0|0:0,0:0:0:0:
167,117,77553,6,0,L|184:252,1,107.999996704102,0|0,0:0|0:0,0:0:0:0:
204,296,77883,6,0,L|259:283,1,35.9999989013672,0|0,0:0|0:0,0:0:0:0:
353,328,78048,1,8,1:2:0:0:
393,235,78212,2,0,L|398:189,2,35.9999989013672,8|8|8,1:2|1:2|1:2,0:0:0:0:
271,357,78542,5,12,1:2:0:0:
353,328,78707,1,0,0:0:0:0:
443,334,78872,1,0,0:0:0:0:
204,296,79037,6,0,P|144:276|40:254,1,160,12|0,0:0|0:0,0:0:0:0:
194,276,79531,2,0,P|245:255|307:243,1,80,12|0,0:0|0:0,0:0:0:0:
400,185,79861,5,12,0:0:0:0:
421,102,80026,1,0,0:0:0:0:
401,20,80190,1,0,0:0:0:0:
377,272,80355,6,0,P|399:326|486:386,1,160,12|0,0:0|0:0,0:0:0:0:
356,250,80850,2,0,P|337:295|329:337,1,80,12|0,0:0|0:0,0:0:0:0:
242,203,81179,5,12,0:0:0:0:
320,171,81344,1,0,0:0:0:0:
400,185,81509,1,0,0:0:0:0:
169,247,81674,6,0,P|125:246|9:184,1,160,4|2,0:0|0:0,0:0:0:0:
171,267,82168,1,4,0:0:0:0:
320,171,82333,6,0,L|313:341,1,160,12|0,0:0|0:0,0:0:0:0:
352,360,82828,6,0,P|297:340|242:342,1,80,10|0,0:0|0:0,0:0:0:0:
171,267,83157,2,0,P|146:299|128:345,1,80,10|0,0:0|0:0,0:0:0:0:
0,299,83487,2,0,P|16:339|51:379,1,80,0|0,1:0|1:0,0:0:0:0:
184,180,83817,6,0,P|185:123|133:16,1,160,12|0,1:2|0:0,0:0:0:0:
165,200,84311,2,0,P|217:178|274:78,1,160,12|0,0:0|0:0,0:0:0:0:
135,209,84806,2,0,P|196:220|243:218,1,80,12|0,0:0|0:0,0:0:0:0:
436,327,85135,6,0,P|373:296|274:295,1,160,12|0,0:0|0:0,0:0:0:0:
445,348,85630,2,0,P|433:292|344:195,1,160,12|0,0:0|0:0,0:0:0:0:
443,370,86124,2,0,P|464:328|475:275,1,80,12|0,0:0|0:0,0:0:0:0:
180,187,86454,6,0,P|134:122|55:54,1,160,12|0,0:0|0:0,0:0:0:0:
186,206,86949,2,0,P|196:150|175:20,1,160,4|2,0:0|0:0,0:0:0:0:
182,230,87443,1,4,0:0:0:0:
291,293,87608,2,0,P|331:285|387:279,1,80,12|0,0:0|0:0,0:0:0:0:
512,224,87938,6,0,L|432:207,1,80,0|10,0:0|0:0,0:0:0:0:
293,90,88267,2,0,P|311:58|430:92,1,160,10|8,0:0|1:2,0:0:0:0:
428,89,88679,1,0,1:0:0:0:
429,108,88762,1,8,1:2:0:0:
289,175,88927,2,0,L|304:240,1,40,10|2,0:0|0:0,0:0:0:0:
275,168,89421,5,14,0:0:0:0:
256,192,89504,12,0,91976,0:0:0:0:
