osu file format v14

[General]
AudioFilename: 01..mp3
AudioLeadIn: 0
PreviewTime: 53742
Countdown: 0
SampleSet: Soft
StackLeniency: 0.7
Mode: 0
LetterboxInBreaks: 0
WidescreenStoryboard: 0

[Editor]
Bookmarks: 666,11215,32314,54731,98248,122313,159236,198137
DistanceSpacing: 0.7
BeatDivisor: 4
GridSize: 4
TimelineZoom: 2.699999

[Metadata]
Title:Sayonara Usotsuki
TitleUnicode:サヨナラ嘘ツキ
Artist:mimimemeMIMI
ArtistUnicode:みみめめMIMI
Creator:Mikii
Version:Goodbye
Source:Blade & Soul
Tags:and ブレイドアンドソウル opening full unison square garden yuki takao タカオユキ professionalbox kibbleru fuccho evilelvis toybot
BeatmapID:860472
BeatmapSetID:395359

[Difficulty]
HPDrainRate:7
CircleSize:4
OverallDifficulty:8.5
ApproachRate:9.3
SliderMultiplier:1.8
SliderTickRate:1

[Events]
//Background and Video events
0,0,"204743-52411.jpg",0,0
//Break Periods
2,90358,95738
2,143634,153430
2,187610,191566
//Storyboard Layer 0 (Background)
//Storyboard Layer 1 (Fail)
//Storyboard Layer 2 (Pass)
//Storyboard Layer 3 (Foreground)
//Storyboard Sound Samples

[TimingPoints]
-631,329.67032967033,4,2,2,40,1,0
687,-133.333333333333,4,2,2,40,0,0
5136,-117.647058823529,4,2,1,50,0,0
5468,-105.263157894737,4,2,1,60,0,0
5797,-100,4,2,1,70,0,0
11237,-133.333333333333,4,2,2,40,0,0
21457,-111.111111111111,4,2,2,45,0,0
21786,-100,4,2,1,50,0,0
32336,-133.333333333333,4,2,1,40,0,0
40248,-111.111111111111,4,2,1,40,0,0
42885,-100,4,2,1,40,0,0
48160,-100,4,2,1,50,0,0
51951,-100,4,2,1,60,0,0
54259,-90.9090909090909,4,2,1,60,0,0
54753,-100,4,2,1,70,0,1
62666,-90.9090909090909,4,2,1,70,0,1
63819,-100,4,2,1,70,0,1
70578,-100,4,2,1,80,0,1
74533,-100,4,2,1,80,0,0
75852,-100,4,2,2,70,0,0
86237,-111.111111111111,4,2,1,40,0,0
87720,-200,4,2,2,40,0,0
90358,329.67032967033,3,2,2,40,1,0
98270,-133.333333333333,3,2,2,40,0,0
104204,-133.333333333333,3,2,2,40,0,0
105193,329.67032967033,4,2,2,40,1,0
105193,-133.333333333333,4,2,2,40,0,0
107171,-125,4,2,1,40,0,0
107500,-111.111111111111,4,2,1,40,0,0
107830,-100,4,2,1,50,0,0
115742,-100,4,2,1,60,0,0
122335,-100,4,2,1,70,0,1
138160,-100,4,2,1,80,0,1
142445,-100,4,2,1,70,0,1
142775,-100,4,2,1,60,0,1
143105,-100,4,2,1,50,0,1
143434,-100,4,2,1,40,0,0
153984,-166.666666666667,4,2,2,40,0,0
159258,-100,4,2,1,40,0,0
159918,-100,4,2,1,50,0,0
160577,-100,4,2,1,60,0,0
161236,-100,4,2,1,70,0,0
164533,-100,4,2,1,60,0,0
168324,-100,4,2,1,70,0,0
169808,-100,4,2,1,60,0,0
181017,329.67032967033,4,2,1,50,1,0
181017,-117.647058823529,4,2,1,50,0,0
184643,-100,4,2,1,40,0,0
192885,-133.333333333333,4,2,1,40,0,0
194203,-133.333333333333,4,2,1,50,0,0
195522,-133.333333333333,4,2,1,60,0,0
197170,-100,4,2,1,60,0,0
198159,-100,4,2,1,70,0,1
213984,-100,4,2,1,80,0,1
223214,-100,4,2,1,60,0,0
224451,-100,4,2,2,70,0,0
234918,-100,4,2,1,70,0,0
250742,-100,4,2,1,40,0,0

[Colours]
Combo1 : 220,35,183
Combo2 : 162,162,162
Combo3 : 0,147,255
Combo4 : 128,128,255

[HitObjects]
410,348,358,5,2,0:0:0:0:
485,286,523,1,2,0:0:0:0:
397,253,688,6,0,L|245:243,1,135.000005149842,10|0,0:0|0:0,0:0:0:0:
184,297,1182,2,0,P|166:239|203:172,1,135.000005149842,10|0,0:0|0:0,0:0:0:0:
271,107,1677,1,2,0:0:0:0:
180,24,1841,1,0,0:0:0:0:
64,192,2006,6,0,L|218:173,1,135.000005149842,10|0,0:0|0:0,0:0:0:0:
224,64,2501,2,0,L|70:81,1,135.000005149842,10|0,0:0|0:0,0:0:0:0:
197,175,2995,1,2,0:0:0:0:
303,136,3160,1,0,0:0:0:0:
270,266,3325,6,0,P|274:297|276:342,2,67.5000025749208,10|0|0,0:0|0:0|0:0,0:0:0:0:
303,136,3819,2,0,P|310:96|311:51,1,67.5000025749208,10|0,0:0|0:0,0:0:0:0:
180,12,4149,2,0,P|173:52|172:97,1,67.5000025749208,2|0,0:0|0:0,0:0:0:0:
66,275,4479,6,0,P|120:315|185:308,1,135.000005149842,10|0,0:0|0:0,0:0:0:0:
149,201,4973,1,2,0:0:0:0:
273,239,5138,6,0,L|350:231,1,76.5000014591217,2|0,0:0|0:0,0:0:0:0:
296,67,5468,2,0,L|193:77,1,85.4999977169037,2|0,0:0|0:0,0:0:0:0:
404,297,5797,6,0,P|435:221|379:148,1,180,4|0,0:0|0:0,0:0:0:0:
296,67,6292,1,8,0:0:0:0:
349,231,6457,1,0,0:0:0:0:
349,231,6539,1,0,0:0:0:0:
349,231,6622,1,2,0:0:0:0:
442,74,6786,1,2,0:0:0:0:
295,154,6951,2,0,L|203:164,1,90,8|0,0:0|0:0,0:0:0:0:
3,271,7281,6,0,P|104:256|148:340,1,180,4|8,0:0|0:0,0:0:0:0:
123,157,7775,1,0,0:0:0:0:
123,157,7858,1,0,0:0:0:0:
123,157,7940,1,2,0:0:0:0:
62,339,8105,1,2,0:0:0:0:
247,341,8270,2,0,L|235:243,1,90,8|0,0:0|0:0,0:0:0:0:
224,128,8600,5,4,0:0:0:0:
116,229,8764,1,2,0:0:0:0:
51,81,8929,1,8,0:0:0:0:
231,160,9094,2,0,P|273:149|319:142,1,90,4|0,0:0|0:0,0:0:0:0:
149,324,9424,2,0,P|118:314|45:305,1,90,2|8,0:0|0:0,0:0:0:0:
304,340,9753,6,0,P|359:264|466:270,1,180,4|0,0:0|0:0,0:0:0:0:
299,73,10248,1,8,0:0:0:0:
299,73,10413,1,0,0:0:0:0:
387,12,10578,1,0,3:0:0:0:
409,45,10660,1,0,3:0:0:0:
412,85,10742,1,0,3:0:0:0:
401,124,10825,1,0,3:0:0:0:
373,153,10907,1,0,3:0:0:0:
299,73,11072,1,0,0:0:0:0:
279,223,11237,6,0,P|234:219|121:199,1,135.000005149842,2|8,0:0|0:0,0:0:0:0:
67,123,11731,1,2,0:0:0:0:
67,123,11896,2,0,P|137:112|227:90,1,135.000005149842,2|8,0:0|0:0,0:0:0:0:
313,29,12391,1,2,0:0:0:0:
313,29,12556,6,0,L|300:125,1,67.5000025749208,2|0,0:0|0:0,0:0:0:0:
394,185,12885,2,0,P|400:152|405:112,1,67.5000025749208,10|0,0:0|0:0,0:0:0:0:
340,263,13215,2,0,P|377:276|415:278,1,67.5000025749208,2|0,0:0|0:0,0:0:0:0:
404,278,13545,1,10,0:0:0:0:
282,184,13709,1,0,0:0:0:0:
282,184,13874,6,0,P|241:233|268:322,1,135.000005149842,2|8,0:0|0:0,0:0:0:0:
85,354,14369,1,0,0:0:0:0:
85,354,14534,2,0,P|92:286|51:235,1,135.000005149842,2|8,0:0|0:0,0:0:0:0:
244,213,15028,6,0,L|171:235,1,67.5000025749208,2|0,0:0|0:0,0:0:0:0:
39,142,15358,2,0,L|131:118,1,67.5000025749208,2|8,0:0|0:0,0:0:0:0:
194,59,15688,2,0,P|211:95|213:143,1,67.5000025749208,2|0,0:0|0:0,0:0:0:0:
299,248,16017,2,0,L|316:168,1,67.5000025749208,2|8,0:0|0:0,0:0:0:0:
412,115,16347,1,0,0:0:0:0:
412,115,16512,6,0,P|358:77|293:90,1,135.000005149842,2|8,0:0|0:0,0:0:0:0:
289,288,17006,1,0,0:0:0:0:
288,287,17171,2,0,P|341:327|407:318,1,135.000005149842,2|8,0:0|0:0,0:0:0:0:
407,318,17666,1,0,0:0:0:0:
298,197,17830,6,0,P|242:209|197:286,1,135.000005149842,2|8,0:0|0:0,0:0:0:0:
106,253,18325,1,0,0:0:0:0:
106,253,18490,2,0,P|103:210|92:158,1,67.5000025749208,2|2,0:0|0:0,0:0:0:0:
16,95,18819,2,0,P|59:87|91:76,1,67.5000025749208,8|2,0:0|0:0,0:0:0:0:
187,37,19149,6,0,P|227:53|286:69,1,101.250003862381
303,85,19479,2,0,L|386:72,1,67.5000025749208,8|2,0:0|0:0,0:0:0:0:
478,81,19808,1,0,0:0:0:0:
478,81,19973,1,2,0:0:0:0:
414,170,20138,2,0,L|340:184,1,67.5000025749208,8|0,0:0|0:0,0:0:0:0:
231,155,20468,6,0,P|225:210|260:262,1,101.250003862381
276,266,20797,2,0,P|273:311|274:352,1,67.5000025749208,8|2,0:0|0:0,0:0:0:0:
130,337,21127,1,0,3:0:0:0:
108,321,21209,1,0,3:0:0:0:
97,295,21292,1,0,3:0:0:0:
94,268,21374,1,0,3:0:0:0:
99,239,21457,6,0,L|110:191,1,40.4999987640381,8|0,3:2|3:0,3:0:0:0:
18,135,21622,2,0,L|-12:71,1,40.4999987640381,0|0,3:0|3:0,3:0:0:0:
134,84,21786,6,0,L|271:67,1,135,4|0,0:0|0:0,0:0:0:0:
293,44,22116,1,8,0:0:0:0:
228,177,22281,1,0,0:0:0:0:
228,177,22446,2,0,P|278:182|326:187,1,90,2|2,0:0|0:0,0:0:0:0:
479,84,22775,2,0,P|435:91|389:100,1,90,8|0,0:0|0:0,0:0:0:0:
294,322,23105,6,0,L|404:301,1,90,2|0,0:0|0:0,0:0:0:0:
205,144,23435,2,0,P|217:191|222:255,1,90,8|0,0:0|0:0,0:0:0:0:
94,262,23764,2,0,P|86:311|75:349,1,90,2|2,0:0|0:0,0:0:0:0:
0,242,24094,1,8,0:0:0:0:
180,330,24259,1,0,0:0:0:0:
180,330,24341,1,0,0:0:0:0:
180,330,24424,5,2,0:0:0:0:
262,238,24589,1,0,0:0:0:0:
123,166,24753,2,0,P|81:156|33:152,1,90,8|0,0:0|0:0,0:0:0:0:
257,148,25083,2,0,P|260:189|262:256,1,90,2|2,0:0|0:0,0:0:0:0:
169,51,25413,1,8,0:0:0:0:
169,51,25578,1,0,0:0:0:0:
362,67,25742,6,0,P|373:118|384:194,1,90,2|0,0:0|0:0,0:0:0:0:
244,307,26072,1,8,0:0:0:0:
132,209,26237,2,0,P|137:171|142:118,1,90,0|2,0:0|0:0,0:0:0:0:
47,262,26567,1,2,0:0:0:0:
244,307,26731,2,0,P|285:290|334:291,1,90,8|0,0:0|0:0,0:0:0:0:
408,335,26979,1,0,0:0:0:0:
408,335,27061,6,0,L|522:346,1,90,2|0,0:0|0:0,0:0:0:0:
326,370,27391,1,8,0:0:0:0:
326,370,27556,1,0,0:0:0:0:
377,183,27720,2,0,L|383:91,1,90,2|2,0:0|0:0,0:0:0:0:
248,268,28050,1,8,0:0:0:0:
239,130,28215,5,0,0:0:0:0:
239,130,28297,1,0,0:0:0:0:
239,130,28380,2,0,P|241:84|228:3,1,90,2|0,0:0|0:0,0:0:0:0:
114,146,28709,2,0,P|108:191|111:268,1,90,8|0,0:0|0:0,0:0:0:0:
181,318,29039,1,2,0:0:0:0:
16,220,29204,1,2,0:0:0:0:
189,200,29369,2,0,P|233:205|278:204,1,90,8|0,0:0|0:0,0:0:0:0:
93,325,29698,6,0,P|52:321|-15:321,1,90,2|0,0:0|0:0,0:0:0:0:
304,283,30028,2,0,P|303:332|280:389,1,90,12|0,0:0|0:0,0:0:0:0:
209,115,30358,2,0,P|211:62|237:11,1,90,2|0,0:0|0:0,0:0:0:0:
391,164,30688,2,0,P|445:162|522:153,1,90,8|0,0:0|0:0,0:0:0:0:
500,128,30935,1,0,0:0:0:0:
500,128,31017,5,2,0:0:0:0:
316,91,31182,1,0,0:0:0:0:
316,268,31347,1,4,0:0:0:0:
316,91,31512,1,0,0:0:0:0:
196,173,31677,1,0,3:0:0:0:
161,183,31759,1,0,3:0:0:0:
125,183,31841,1,0,3:0:0:0:
90,171,31924,1,0,3:0:0:0:
65,144,32006,2,0,P|61:98|54:50,1,90,8|0,0:0|0:0,0:0:0:0:
32,268,32336,6,0,L|110:285,1,67.5000025749208,2|0,0:0|0:0,0:0:0:0:
183,340,32666,2,0,P|220:327|252:307,1,67.5000025749208,2|0,0:0|0:0,0:0:0:0:
368,224,32995,1,2,0:0:0:0:
310,77,33160,1,8,0:0:0:0:
229,204,33325,1,2,0:0:0:0:
438,128,33490,1,8,0:0:0:0:
352,132,33655,6,0,L|256:128,1,67.5000025749208,2|0,0:0|0:0,0:0:0:0:
229,204,33984,2,0,L|139:198,1,67.5000025749208,2|0,0:0|0:0,0:0:0:0:
99,53,34314,2,0,L|77:136,1,67.5000025749208,2|0,0:0|0:0,0:0:0:0:
32,265,34644,1,2,0:0:0:0:
55,251,34726,1,2,0:0:0:0:
81,251,34808,1,2,0:0:0:0:
106,260,34891,1,2,0:0:0:0:
128,275,34973,5,2,0:0:0:0:
71,348,35138,1,0,0:0:0:0:
224,324,35303,2,0,L|298:320,1,67.5000025749208
474,270,35633,1,0,0:0:0:0:
385,346,35797,1,8,0:0:0:0:
344,153,35962,1,0,0:0:0:0:
385,346,36127,1,8,0:0:0:0:
344,153,36292,6,0,P|378:145|412:137,1,67.5000025749208,2|0,0:0|0:0,0:0:0:0:
325,239,36622,2,0,P|294:229|247:221,1,67.5000025749208,2|0,0:0|0:0,0:0:0:0:
170,154,36951,1,0,0:0:0:0:
150,262,37116,1,0,0:0:0:0:
74,125,37281,1,2,0:0:0:0:
150,262,37446,1,0,0:0:0:0:
150,262,37528,1,0,0:0:0:0:
150,262,37611,6,0,P|144:302|143:347,1,67.5000025749208,2|0,0:0|0:0,0:0:0:0:
55,257,37940,2,0,L|47:190,1,67.5000025749208,2|0,0:0|0:0,0:0:0:0:
165,145,38270,2,0,P|177:106|191:75,1,67.5000025749208,2|8,0:0|0:0,0:0:0:0:
354,161,38600,1,2,0:0:0:0:
250,247,38764,1,0,0:0:0:0:
273,97,38929,6,0,P|265:58|256:8,1,67.5000025749208,4|0,0:0|0:0,0:0:0:0:
377,97,39259,2,0,P|366:127|346:181,1,67.5000025749208,2|0,0:0|0:0,0:0:0:0:
354,268,39589,2,0,P|392:254|449:240,1,67.5000025749208,2|0,0:0|0:0,0:0:0:0:
256,345,39918,2,0,P|221:335|168:321,1,67.5000025749208,2|0,0:0|0:0,0:0:0:0:
166,314,40166,1,0,0:0:0:0:
166,314,40248,6,0,L|61:328,1,80.9999975280763,2|0,0:0|0:0,0:0:0:0:
25,203,40578,2,0,P|77:161|152:194,1,121.499996292114,4|0,0:0|0:0,0:0:0:0:
195,218,40907,2,0,L|210:128,1,80.9999975280763,0|2,0:0|0:0,0:0:0:0:
237,153,41155,1,2,0:0:0:0:
268,157,41237,1,2,0:0:0:0:
299,148,41319,1,2,0:0:0:0:
324,127,41402,1,2,0:0:0:0:
245,40,41567,5,6,0:0:0:0:
408,72,41731,2,0,P|415:116|417:161,1,80.9999975280763,0|8,0:0|0:0,0:0:0:0:
352,271,42061,1,0,0:0:0:0:
352,271,42144,1,0,0:0:0:0:
352,271,42226,6,0,B|243:260,1,80.9999975280763,6|2,0:0|0:0,0:0:0:0:
233,173,42556,1,8,0:0:0:0:
185,337,42720,1,0,0:0:0:0:
95,137,42885,6,0,P|103:185|105:230,1,90,4|0,0:0|0:0,0:0:0:0:
185,337,43215,1,2,0:0:0:0:
233,173,43380,1,0,0:0:0:0:
233,173,43462,1,0,0:0:0:0:
233,173,43545,2,2,L|245:117,3,45
233,34,43874,5,2,0:0:0:0:
261,57,43957,1,2,0:0:0:0:
295,65,44039,1,2,0:0:0:0:
330,59,44122,1,2,0:0:0:0:
364,47,44204,2,2,L|359:-2,3,45
486,84,44534,2,2,L|481:128,3,45
453,237,44863,5,2,0:0:0:0:
426,214,44946,1,2,0:0:0:0:
391,204,45028,1,2,0:0:0:0:
354,207,45111,1,2,0:0:0:0:
323,225,45193,2,2,L|269:222,3,45,2|2|2|2,0:0|0:0|0:0|0:0,0:0:0:0:
185,330,45523,6,2,L|172:262,3,45
70,281,45852,2,2,L|80:237,3,45
111,156,46182,5,2,0:0:0:0:
84,132,46264,1,2,0:0:0:0:
78,96,46347,1,2,0:0:0:0:
88,61,46429,1,2,0:0:0:0:
113,35,46512,2,2,L|176:18,1,45
233,92,46677,2,0,L|289:80,1,45,2|2,0:0|0:0,0:0:0:0:
372,44,46841,6,2,P|380:68|385:107,3,45
353,190,47171,2,2,P|325:193|301:198,3,45
222,248,47501,2,0,L|159:238,1,45,2|2,0:0|0:0,0:0:0:0:
72,205,47666,6,0,L|62:250,1,45,0|0,3:0|3:0,3:0:0:0:
165,361,47830,2,0,L|212:352,1,45,0|0,3:0|3:0,3:0:0:0:
346,330,47995,2,0,L|412:337,1,45,8|8,3:0|3:0,3:0:0:0:
403,206,48160,6,0,P|321:208|279:137,1,135,6|0,0:0|0:0,0:0:0:0:
286,133,48490,2,0,P|291:84|294:33,1,90,8|0,0:0|0:0,0:0:0:0:
403,206,48819,2,0,P|411:251|413:303,1,90,2|2,0:0|0:0,0:0:0:0:
261,357,49149,2,0,L|148:350,1,90,8|0,0:0|0:0,0:0:0:0:
94,235,49479,6,0,P|93:182|82:107,1,90,6|0,0:0|0:0,0:0:0:0:
217,37,49808,2,0,P|210:76|210:136,1,90,8|0,0:0|0:0,0:0:0:0:
136,311,50138,2,0,P|96:322|39:309,2,90,2|2|8,0:0|0:0|0:0,0:0:0:0:
89,145,50633,1,0,0:0:0:0:
276,175,50797,6,0,L|395:155,1,90,4|0,0:0|0:0,0:0:0:0:
442,286,51127,2,0,L|336:301,1,90,8|2,0:0|0:0,0:0:0:0:
364,160,51457,1,10,0:0:0:0:
241,241,51622,1,2,0:0:0:0:
352,298,51786,1,8,0:0:0:0:
324,86,51951,6,0,P|247:46|178:96,1,180,4|0,0:0|0:0,0:0:0:0:
159,177,52363,1,0,0:0:0:0:
159,177,52446,1,8,0:0:0:0:
242,241,52611,1,2,0:0:0:0:
76,298,52775,5,10,0:2:0:0:
90,269,52858,1,2,0:0:0:0:
89,237,52940,1,2,0:0:0:0:
75,208,53023,1,2,0:0:0:0:
51,187,53105,1,8,0:0:0:0:
256,129,53270,1,2,0:0:0:0:
169,334,53435,5,12,0:0:0:0:
169,334,53600,1,8,0:0:0:0:
315,290,53764,2,0,P|376:303|466:314,1,135
478,294,54094,1,0,0:0:0:0:
436,158,54259,6,0,L|428:101,1,49.5000015106202,0|0,3:0|3:0,3:0:0:0:
349,37,54424,2,0,P|346:66|344:97,1,49.5000015106202,0|0,3:0|3:0,3:0:0:0:
270,175,54589,2,0,P|265:153|261:126,1,49.5000015106202,0|0,3:0|3:0,3:0:0:0:
193,47,54753,6,0,P|165:56|45:83,1,135,4|0,0:0|0:0,0:0:0:0:
35,77,55083,1,8,0:0:0:0:
153,181,55248,1,0,0:0:0:0:
26,305,55413,2,0,L|117:329,1,90,2|2,0:0|0:0,0:0:0:0:
153,181,55742,2,0,L|64:162,1,90,8|0,0:0|0:0,0:0:0:0:
301,257,56072,6,0,P|230:242|164:294,1,135,2|0,0:0|0:0,0:0:0:0:
161,296,56402,1,8,0:0:0:0:
245,154,56567,1,0,0:0:0:0:
390,230,56731,1,2,0:0:0:0:
247,342,56896,1,2,0:0:0:0:
247,342,56979,1,0,0:0:0:0:
247,342,57061,1,8,0:0:0:0:
390,230,57226,1,0,0:0:0:0:
267,125,57390,6,0,P|261:169|258:224,1,90,2|0,0:0|0:0,0:0:0:0:
456,67,57720,1,8,0:0:0:0:
315,117,57885,1,0,0:0:0:0:
315,117,57968,1,0,0:0:0:0:
315,117,58050,5,2,0:0:0:0:
477,172,58215,1,2,0:0:0:0:
302,333,58380,1,8,0:0:0:0:
315,117,58545,1,0,0:0:0:0:
421,202,58709,6,0,L|511:194,1,90,2|0,0:0|0:0,0:0:0:0:
314,272,59039,1,8,0:0:0:0:
276,141,59204,1,0,0:0:0:0:
276,141,59286,1,0,0:0:0:0:
276,141,59369,2,0,P|273:93|264:43,1,90,2|2,0:0|0:0,0:0:0:0:
395,177,59698,1,8,0:0:0:0:
153,301,59863,1,0,0:0:0:0:
257,345,60028,6,0,B|278:306|278:306|276:267|251:205,1,135,4|0,0:0|0:0,0:0:0:0:
223,207,60358,1,8,0:0:0:0:
95,166,60523,1,0,0:0:0:0:
63,308,60688,2,0,L|167:299,1,90,2|2,0:0|0:0,0:0:0:0:
291,114,61017,2,0,L|189:123,1,90,8|0,0:0|0:0,0:0:0:0:
260,27,61347,5,4,0:0:0:0:
243,222,61512,1,0,0:0:0:0:
260,27,61677,1,8,0:0:0:0:
139,158,61841,2,0,L|81:142,1,45
4,80,62006,6,0,P|10:133|15:201,1,90,2|2,0:0|0:0,0:0:0:0:
15,333,62336,1,8,0:0:0:0:
386,197,62666,6,0,B|333:195|333:195|290:208|290:208|218:204,1,148.50000453186,4|0,0:0|0:0,0:0:0:0:
202,208,62995,1,8,0:0:0:0:
15,333,63160,6,0,B|53:299|105:288|105:288|150:310|182:360,1,198.000006042481,6|0,0:0|0:0,0:0:0:0:
351,285,63655,1,8,0:0:0:0:
286,97,63819,6,0,P|205:68|153:154,1,180,6|0,0:0|0:0,0:0:0:0:
173,265,64314,1,8,0:0:0:0:
57,103,64479,1,0,0:0:0:0:
227,146,64644,2,0,L|316:138,1,90,2|0,0:0|0:0,0:0:0:0:
451,66,64973,6,0,L|377:90,1,45,8|0,3:2|3:0,3:0:0:0:
357,246,65138,2,0,L|299:232,1,45,0|0,3:0|3:0,0:0:0:0:
161,125,65303,5,2,0:0:0:0:
161,125,65633,2,0,B|159:173|159:173|167:193|167:193|150:233|170:296,1,135,4|0,0:0|0:0,0:0:0:0:
160,339,65962,1,2,0:0:0:0:
255,254,66127,1,0,0:0:0:0:
74,164,66292,1,8,0:0:0:0:
276,340,66457,6,0,P|338:286|318:194,1,180,2|0,0:0|0:0,0:0:0:0:
160,339,66951,2,0,L|66:331,1,90,8|0,0:0|0:0,0:0:0:0:
70,241,67281,2,0,L|185:251,1,90,2|2,0:0|0:0,0:0:0:0:
33,139,67611,1,8,0:0:0:0:
70,241,67775,5,2,0:0:0:0:
70,241,67858,1,0,0:0:0:0:
70,241,67940,1,2,0:0:0:0:
212,66,68105,1,0,0:0:0:0:
250,164,68270,2,0,L|141:158,1,90,8|0,0:0|0:0,0:0:0:0:
342,60,68600,2,0,P|375:50|438:43,2,90,2|2|8,0:0|0:0|0:0,0:0:0:0:
486,224,69094,6,0,P|436:150|325:177,1,180,4|0,0:0|0:0,0:0:0:0:
283,340,69589,1,8,0:0:0:0:
225,197,69753,1,0,0:0:0:0:
225,197,69836,1,0,0:0:0:0:
225,197,69918,1,2,0:0:0:0:
391,244,70083,1,2,0:0:0:0:
283,340,70248,6,0,L|237:337,1,45,8|0,3:2|3:0,3:0:0:0:
81,277,70413,2,0,L|139:271,1,45,0|0,3:0|3:0,3:0:0:0:
312,233,70578,6,0,L|303:136,1,90,4|2,0:0|0:0,0:0:0:0:
127,122,70907,2,0,L|135:25,1,90,8|2,0:0|0:0,0:0:0:0:
187,229,71237,1,8,0:0:0:0:
240,90,71402,1,2,0:0:0:0:
212,251,71567,1,8,0:0:0:0:
368,140,71731,1,2,0:0:0:0:
328,340,71896,6,0,L|321:237,1,90,4|2,0:0|0:0,0:0:0:0:
113,141,72226,2,0,L|120:52,1,90,8|2,0:0|0:0,0:0:0:0:
256,140,72556,1,8,0:0:0:0:
136,256,72720,1,2,0:0:0:0:
233,62,72885,1,8,0:0:0:0:
248,286,73050,1,2,0:0:0:0:
113,141,73215,5,4,0:0:0:0:
328,216,73380,1,2,0:0:0:0:
328,216,73462,1,0,0:0:0:0:
328,216,73545,1,8,0:0:0:0:
136,256,73709,5,6,0:0:0:0:
376,136,73874,2,0,L|448:126,2,45,8|0|2,0:0|0:0|0:0,0:0:0:0:
248,286,74204,5,8,0:0:0:0:
346,47,74369,1,2,0:0:0:0:
79,204,74534,5,8,0:0:0:0:
150,250,75358,5,2,0:0:0:0:
115,328,75523,1,0,3:0:0:0:
79,309,75605,1,0,3:0:0:0:
62,271,75688,1,0,3:0:0:0:
62,230,75770,1,0,3:0:0:0:
83,195,75852,6,2,L|200:178,1,90,4|0,0:0|0:0,0:0:0:0:
261,141,76182,1,2,0:0:0:0:
281,16,76347,2,0,P|198:25|149:112,1,180,4|0,0:0|0:0,0:0:0:0:
292,273,76841,2,0,L|385:281,1,90,2|0,0:0|0:0,0:0:0:0:
351,149,77171,6,0,L|255:141,1,90,6|0,0:0|0:0,0:0:0:0:
281,16,77501,1,2,0:0:0:0:
421,79,77666,2,0,P|455:167|385:241,1,180,4|0,0:0|0:0,0:0:0:0:
260,330,78160,2,0,P|258:283|254:236,1,90,2|0,0:0|0:0,0:0:0:0:
351,149,78490,5,6,0:0:0:0:
254,240,78655,1,2,0:0:0:0:
351,149,78819,1,0,0:0:0:0:
440,259,78984,2,0,P|437:305|437:365,1,90,6|0,0:0|0:0,0:0:0:0:
270,198,79314,2,0,P|271:150|268:101,1,90,2|0,0:0|0:0,0:0:0:0:
158,54,79644,6,0,P|88:86|9:9,1,180,4|2,0:0|0:0,0:0:0:0:
94,185,80138,1,2,0:0:0:0:
206,150,80303,2,0,P|259:146|308:142,1,90,4|0,0:0|0:0,0:0:0:0:
158,54,80633,1,2,0:0:0:0:
115,271,80797,2,0,P|83:268|21:263,1,90,6|0,0:0|0:0,0:0:0:0:
204,369,81127,6,0,P|205:331|210:277,1,90,6|0,0:0|0:0,0:0:0:0:
89,169,81457,1,2,0:0:0:0:
257,167,81622,2,0,B|364:156|335:217|468:186,1,180,6|0,0:0|0:0,0:0:0:0:
421,18,82116,2,0,P|406:62|407:108,1,90,2|0,0:0|0:0,0:0:0:0:
303,338,82446,6,0,P|305:294|288:248,1,90,6|0,0:0|0:0,0:0:0:0:
164,184,82775,1,2,0:0:0:0:
71,309,82940,2,0,P|148:357|219:308,1,180,6|0,0:0|0:0,0:0:0:0:
281,156,83435,1,2,0:0:0:0:
145,275,83600,1,0,0:0:0:0:
316,357,83764,6,0,P|313:316|304:267,1,90,6|0,0:0|0:0,0:0:0:0:
281,156,84094,1,2,0:0:0:0:
402,267,84259,2,0,P|403:223|410:170,1,90,6|0,0:0|0:0,0:0:0:0:
466,78,84589,2,0,L|366:65,1,90,6|0,0:0|0:0,0:0:0:0:
201,14,84918,5,6,0:0:0:0:
299,149,85248,5,0,0:0:0:0:
299,149,85330,1,0,0:0:0:0:
299,149,85413,1,0,0:0:0:0:
376,66,85578,5,2,0:0:0:0:
414,182,85907,1,2,0:0:0:0:
299,149,86237,6,0,L|135:138,1,161.999995056153,4|0,0:0|0:0,0:0:0:0:
16,224,86731,1,2,0:0:0:0:
124,332,86896,1,2,0:0:0:0:
124,332,86979,1,2,0:0:0:0:
124,332,87061,2,0,P|121:291|114:244,1,80.9999975280763,2|0,0:0|0:0,0:0:0:0:
115,251,87391,1,0,0:0:0:0:
325,249,87720,5,2,0:0:0:0:
376,53,88380,5,2,0:0:0:0:
256,192,96292,12,0,98105,0:0:0:0:
196,126,98270,6,0,P|260:142|310:93,1,135.000005149842,4|8,0:0|0:0,0:0:0:0:
381,37,98764,1,0,0:0:0:0:
381,37,98929,2,0,L|396:116,1,67.5000025749208,8|0,0:0|0:0,0:0:0:0:
452,188,99259,6,0,P|405:180|316:175,2,135.000005149842,0|8|8,0:0|0:0|0:0,0:0:0:0:
472,289,100083,1,0,0:0:0:0:
373,342,100248,6,0,P|372:316|364:268,1,67.5000025749208
251,235,100577,2,0,P|247:271|243:321,1,67.5000025749208,8|0,0:0|0:0,0:0:0:0:
162,373,100907,1,8,0:0:0:0:
162,373,101072,1,0,0:0:0:0:
123,287,101237,6,0,P|70:258|-8:285,2,135.000005149842,0|8|8,0:0|0:0|0:0,0:0:0:0:
162,373,102061,1,0,0:0:0:0:
220,296,102226,6,0,B|239:251|239:251|233:207|233:207|260:153,1,135.000005149842,0|8,0:0|0:0,0:0:0:0:
357,113,102720,1,0,0:0:0:0:
398,235,102885,2,0,L|321:228,1,67.5000025749208,8|0,0:0|0:0,0:0:0:0:
79,250,103215,6,0,L|156:243,1,67.5000025749208
24,134,103544,2,0,L|118:144,1,67.5000025749208,8|0,0:0|0:0,0:0:0:0:
192,176,103874,1,8,0:0:0:0:
256,93,104039,1,0,0:0:0:0:
357,132,104204,6,0,P|366:170|370:208,1,67.5000025749208,2|0,0:0|0:0,0:0:0:0:
204,242,104533,2,0,P|195:204|191:166,1,67.5000025749208,10|0,0:0|0:0,0:0:0:0:
307,263,104863,2,0,P|315:295|319:329,1,67.5000025749208,10|0,0:0|0:0,0:0:0:0:
218,335,105193,6,0,P|182:333|143:326,1,67.5000025749208,2|0,0:0|0:0,0:0:0:0:
27,258,105522,2,0,P|63:256|102:249,1,67.5000025749208,10|0,0:0|0:0,0:0:0:0:
188,168,105852,2,0,L|196:80,1,67.5000025749208,10|0,0:0|0:0,0:0:0:0:
41,24,106182,2,0,L|49:113,1,67.5000025749208,2|0,0:0|0:0,0:0:0:0:
313,316,107006,5,0,0:0:0:0:
313,316,107088,1,0,0:0:0:0:
313,316,107171,2,0,L|296:216,1,72,8|0,0:0|0:0,0:0:0:0:
265,41,107500,6,0,L|250:99,1,40.4999987640381,8|0,3:2|3:0,3:0:0:0:
115,155,107665,2,0,L|100:102,1,40.4999987640381,0|0,3:0|3:0,3:0:0:0:
214,174,107830,6,0,P|203:215|192:272,1,90,4|0,0:0|0:0,0:0:0:0:
183,296,108077,1,0,0:0:0:0:
183,296,108160,1,8,0:0:0:0:
311,224,108324,1,0,0:0:0:0:
441,257,108489,2,0,P|427:200|417:118,1,135,2|0,0:0|0:0,0:0:0:0:
362,67,108819,2,0,P|317:69|259:58,1,90,8|0,0:0|0:0,0:0:0:0:
119,37,109149,1,2,0:0:0:0:
280,177,109396,5,0,0:0:0:0:
280,177,109478,2,0,P|281:225|277:276,1,90,8|0,0:0|0:0,0:0:0:0:
111,206,109808,2,0,P|109:162|115:95,1,90,2|0,0:0|0:0,0:0:0:0:
9,48,110138,1,8,0:0:0:0:
199,115,110302,1,0,0:0:0:0:
17,211,110467,1,2,0:0:0:0:
170,332,110714,5,0,0:0:0:0:
170,332,110797,2,0,P|174:283|171:238,1,90,8|0,0:0|0:0,0:0:0:0:
199,115,111127,1,2,0:0:0:0:
80,277,111291,1,2,0:0:0:0:
274,312,111456,1,8,0:0:0:0:
201,203,111621,1,0,0:0:0:0:
315,166,111786,6,0,L|305:49,1,90,2|0,0:0|0:0,0:0:0:0:
304,35,112033,1,0,0:0:0:0:
304,35,112116,1,8,0:0:0:0:
411,97,112280,1,2,0:0:0:0:
455,288,112445,6,0,L|464:189,1,90,2|0,0:0|0:0,0:0:0:0:
360,252,112775,1,8,3:2:0:0:
338,259,112857,1,0,3:0:0:0:
315,261,112940,1,0,3:0:0:0:
292,258,113022,1,0,3:0:0:0:
270,251,113105,6,0,B|241:244|208:223|208:223|177:249|119:257,1,135,4|0,0:0|0:0,0:0:0:0:
117,253,113434,1,8,0:0:0:0:
22,161,113599,1,0,0:0:0:0:
136,78,113764,2,0,L|123:169,1,90,2|2,0:0|0:0,0:0:0:0:
55,329,114094,1,8,3:2:0:0:
79,348,114176,1,0,3:2:0:0:
108,356,114258,1,0,3:2:0:0:
139,352,114341,1,0,3:2:0:0:
167,339,114423,1,4,3:2:0:0:
22,161,114671,5,0,0:0:0:0:
22,161,114753,1,8,0:0:0:0:
215,212,114918,1,0,0:0:0:0:
113,256,115083,2,0,P|118:211|123:166,1,90,2|2,0:0|0:0,0:0:0:0:
213,52,115412,6,0,L|289:34,1,45,8|0,0:0|0:0,0:0:0:0:
215,212,115577,2,0,L|285:224,1,45
395,264,115742,6,0,P|441:255|505:249,1,90,12|2,0:0|0:0,0:0:0:0:
244,344,116072,2,0,P|201:332|129:324,1,90,8|2,0:0|0:0,0:0:0:0:
259,219,116401,1,8,0:0:0:0:
404,350,116566,1,2,0:0:0:0:
461,171,116731,1,8,0:0:0:0:
281,133,116896,6,0,P|193:158|176:243,1,180,4|2,0:0|0:0,0:0:0:0:
344,208,117390,1,8,0:0:0:0:
225,32,117555,1,2,0:0:0:0:
88,155,117720,5,8,0:0:0:0:
271,225,117885,1,2,0:0:0:0:
307,77,118050,1,8,0:0:0:0:
175,190,118214,1,2,0:0:0:0:
375,237,118379,5,4,0:0:0:0:
185,346,118544,1,0,0:0:0:0:
175,190,118709,1,8,0:0:0:0:
275,348,118874,1,2,0:0:0:0:
356,139,119039,5,8,0:0:0:0:
275,348,119203,1,2,0:0:0:0:
134,271,119368,1,8,0:0:0:0:
329,215,119533,1,2,0:0:0:0:
175,190,119698,6,0,L|81:180,1,90,4|0,0:0|0:0,0:0:0:0:
11,172,119945,1,0,0:0:0:0:
11,172,120028,1,8,0:0:0:0:
75,297,120193,1,6,0:0:0:0:
95,94,120357,5,2,3:2:0:0:
95,94,120440,1,0,3:0:0:0:
95,94,120522,2,0,L|99:43,1,45,2|0,3:2|3:0,3:0:0:0:
237,19,120687,2,0,L|232:73,1,45,8|0,3:2|3:0,3:0:0:0:
218,207,120852,5,0,0:0:0:0:
218,207,121841,5,0,0:0:0:0:
209,300,122006,1,0,3:0:0:0:
249,300,122088,1,0,3:0:0:0:
287,285,122171,1,0,3:0:0:0:
305,249,122253,1,0,3:0:0:0:
305,208,122335,6,0,P|309:154|318:66,1,135,4|0,0:0|0:0,0:0:0:0:
324,45,122665,1,8,0:0:0:0:
456,117,122830,1,0,0:0:0:0:
394,219,122995,2,0,L|275:204,1,90,2|0,0:0|0:0,0:0:0:0:
121,123,123324,2,0,L|224:137,1,90,8|0,0:0|0:0,0:0:0:0:
192,309,123654,6,0,P|141:263|59:277,1,135,2|0,0:0|0:0,0:0:0:0:
59,287,123984,1,8,0:0:0:0:
121,123,124149,1,0,0:0:0:0:
241,208,124313,2,0,P|244:165|251:114,1,90,2|2,0:0|0:0,0:0:0:0:
410,34,124643,2,0,P|416:80|418:124,1,90,8|0,0:0|0:0,0:0:0:0:
413,137,124890,1,0,0:0:0:0:
404,148,124973,5,2,0:0:0:0:
320,268,125138,1,0,0:0:0:0:
250,118,125302,1,8,0:0:0:0:
438,241,125467,1,0,0:0:0:0:
348,83,125632,5,2,0:0:0:0:
348,83,125797,1,2,0:0:0:0:
244,206,125962,1,8,0:0:0:0:
436,144,126127,1,0,0:0:0:0:
250,118,126291,6,0,P|243:74|265:6,1,90,2|0,0:0|0:0,0:0:0:0:
436,144,126621,1,8,0:0:0:0:
386,289,126786,2,0,L|312:280,1,45
181,263,126951,1,2,0:0:0:0:
318,167,127116,1,2,0:0:0:0:
159,109,127280,1,8,0:0:0:0:
263,246,127445,5,0,0:0:0:0:
263,246,127528,1,0,0:0:0:0:
263,246,127610,2,0,P|260:298|261:353,1,90,4|0,0:0|0:0,0:0:0:0:
94,236,127940,2,0,P|94:193|91:139,1,90,8|0,0:0|0:0,0:0:0:0:
39,322,128269,5,2,0:0:0:0:
183,239,128434,1,2,0:0:0:0:
5,188,128599,1,8,0:0:0:0:
183,239,128764,1,0,0:0:0:0:
314,49,128929,6,0,P|308:103|311:165,1,90,4|0,0:0|0:0,0:0:0:0:
183,239,129258,1,8,0:0:0:0:
329,317,129423,1,0,0:0:0:0:
329,317,129506,1,0,0:0:0:0:
329,317,129588,2,0,P|371:302|448:293,1,90,2|0,0:0|0:0,0:0:0:0:
206,309,129918,2,0,P|199:240|201:160,1,135,8|0,0:0|0:0,0:0:0:0:
181,75,130247,6,0,P|97:96|29:42,1,180,4|8,0:0|0:0,0:0:0:0:
67,225,130742,6,0,P|74:272|75:328,1,90,4|0,0:0|0:0,0:0:0:0:
226,160,131072,1,0,0:0:0:0:
76,315,131236,1,8,0:0:0:0:
7,161,131401,6,0,P|92:145|150:223,1,180,4|0,0:0|0:0,0:0:0:0:
218,366,131896,1,8,0:0:0:0:
340,191,132061,1,0,0:0:0:0:
205,283,132225,1,0,0:0:0:0:
340,191,132390,1,0,0:0:0:0:
428,293,132555,5,0,3:0:0:0:
428,293,132638,1,0,3:0:0:0:
428,293,132720,2,0,L|354:287,1,45,0|0,3:0|3:0,3:0:0:0:
205,283,132885,1,0,3:0:0:0:
205,283,133214,6,0,B|213:231|213:231|202:202|196:137,1,135,4|0,0:0|0:0,0:0:0:0:
224,67,133544,2,0,P|178:68|136:93,1,90,2|0,0:0|0:0,0:0:0:0:
89,232,133874,1,8,0:0:0:0:
6,143,134039,6,0,P|55:74|158:111,1,180
250,199,134533,1,8,0:0:0:0:
88,152,134698,1,0,0:0:0:0:
237,93,134863,1,2,0:0:0:0:
149,234,135028,1,0,0:0:0:0:
149,234,135193,1,8,0:0:0:0:
141,68,135357,1,0,0:0:0:0:
250,199,135522,6,0,P|301:164|384:181,1,135,2|0,0:0|0:0,0:0:0:0:
349,298,135852,2,0,P|304:302|241:313,1,90,8|0,0:0|0:0,0:0:0:0:
59,244,136182,2,0,P|105:242|154:232,1,90,2|0,0:0|0:0,0:0:0:0:
110,64,136511,1,8,0:0:0:0:
175,146,136676,1,0,0:0:0:0:
175,146,136758,1,0,0:0:0:0:
175,146,136841,6,0,L|278:132,1,90,2|0,0:0|0:0,0:0:0:0:
430,112,137171,1,8,0:0:0:0:
342,225,137335,1,0,0:0:0:0:
342,225,137418,1,0,0:0:0:0:
342,225,137500,5,2,0:0:0:0:
240,55,137665,1,0,0:0:0:0:
217,249,137830,2,0,L|210:305,1,45,8|0,3:2|3:0,3:0:0:0:
342,225,137995,2,0,L|346:179,1,45,0|0,3:0|3:0,3:0:0:0:
357,32,138160,5,4,0:0:0:0:
265,156,138324,1,0,0:0:0:0:
442,220,138489,2,0,P|444:173|449:111,1,90,8|0,0:0|0:0,0:0:0:0:
357,32,138819,1,8,0:0:0:0:
342,225,138984,1,0,0:0:0:0:
181,130,139149,1,8,0:0:0:0:
390,133,139313,1,0,0:0:0:0:
209,307,139478,5,4,0:0:0:0:
181,130,139643,1,0,0:0:0:0:
26,282,139808,1,8,0:0:0:0:
273,198,139973,1,0,0:0:0:0:
108,357,140138,1,8,0:0:0:0:
54,130,140302,1,0,0:0:0:0:
209,307,140467,1,8,0:0:0:0:
54,130,140632,1,0,0:0:0:0:
26,282,140797,5,4,0:0:0:0:
192,226,140962,2,0,L|252:219,1,45
374,198,141127,5,8,0:0:0:0:
312,344,141291,1,4,0:0:0:0:
312,344,141374,1,0,0:0:0:0:
312,344,141456,1,8,0:0:0:0:
435,127,141621,5,0,3:0:0:0:
463,155,141703,1,0,3:0:0:0:
473,195,141786,1,8,3:2:0:0:
465,234,141868,1,0,3:0:0:0:
438,266,141951,1,8,3:2:0:0:
185,230,142116,5,8,3:2:0:0:
185,230,142225,2,0,P|147:229|96:235,1,60
263,84,142445,5,8,3:2:0:0:
263,84,142555,2,0,P|298:88|352:89,1,60
316,221,142775,5,8,3:2:0:0:
316,221,142885,2,0,P|309:253|306:302,1,60
185,230,143105,5,8,3:2:0:0:
185,230,143214,2,0,P|192:192|197:144,1,60
240,330,143434,5,4,0:0:0:0:
154,260,153984,5,2,0:0:0:0:
154,260,154094,2,0,P|238:242|290:267,1,143.999995605469,2|0,0:0|0:0,0:0:0:0:
386,335,154643,1,2,0:0:0:0:
386,335,154753,2,0,P|388:284|402:167,1,143.999995605469,2|0,0:0|0:0,0:0:0:0:
413,104,155302,5,2,0:0:0:0:
413,104,155412,2,0,B|336:97|356:138|261:116,1,143.999995605469,2|0,0:0|0:0,0:0:0:0:
190,57,155962,1,2,0:0:0:0:
130,195,156621,5,2,0:0:0:0:
130,195,156731,2,0,P|206:169|260:202,1,143.999995605469,2|0,0:0|0:0,0:0:0:0:
187,275,157280,1,2,0:0:0:0:
187,275,157390,2,0,P|112:281|27:294,1,143.999995605469,2|0,0:0|0:0,0:0:0:0:
33,143,157940,5,2,0:0:0:0:
33,143,158050,2,0,P|107:138|187:129,1,143.999995605469,2|0,0:0|0:0,0:0:0:0:
262,198,158599,1,2,0:0:0:0:
262,198,159258,5,4,0:0:0:0:
262,198,159588,5,2,0:0:0:0:
357,149,159753,1,0,0:0:0:0:
303,296,159918,5,2,0:0:0:0:
357,149,160083,1,0,0:0:0:0:
165,185,160247,1,2,0:0:0:0:
395,270,160412,1,0,0:0:0:0:
272,78,160577,5,2,0:0:0:0:
196,306,160742,1,0,0:0:0:0:
438,165,160907,1,2,0:0:0:0:
204,21,161072,1,0,0:0:0:0:
284,322,161236,5,2,0:0:0:0:
409,60,161401,1,0,0:0:0:0:
67,105,161566,1,2,0:0:0:0:
284,322,161731,1,0,0:0:0:0:
285,39,161896,5,6,0:0:0:0:
189,276,162061,1,0,0:0:0:0:
189,276,162143,1,0,0:0:0:0:
189,276,162225,1,0,0:0:0:0:
347,144,162390,6,0,L|355:98,1,45,4|0,0:0|0:0,0:0:0:0:
480,205,162555,2,0,L|471:270,1,45,2|0,0:0|0:0,0:0:0:0:
352,352,162720,2,0,L|338:288,1,45,2|0,0:0|0:0,0:0:0:0:
241,137,162885,2,0,L|230:199,1,45,2|0,0:0|0:0,0:0:0:0:
100,355,163050,5,4,0:0:0:0:
38,97,163379,1,4,0:0:0:0:
38,97,163544,2,0,L|45:158,1,45,4|0,0:0|0:0,0:0:0:0:
85,234,163709,2,0,L|78:295,1,45,4|2,0:0|0:0,0:0:0:0:
181,257,163874,1,0,3:0:0:0:
212,232,163956,1,0,3:0:0:0:
252,232,164039,1,0,3:0:0:0:
287,251,164121,1,0,3:0:0:0:
312,282,164203,1,0,3:0:0:0:
345,305,164286,1,0,3:0:0:0:
385,305,164368,1,0,3:0:0:0:
420,284,164451,1,0,3:0:0:0:
437,247,164533,6,0,P|437:203|430:135,1,90,4|0,0:0|0:0,0:0:0:0:
277,29,164863,2,0,P|275:80|275:122,1,90,8|0,0:0|0:0,0:0:0:0:
364,225,165193,1,2,0:0:0:0:
209,199,165357,2,0,P|175:202|116:212,1,90,0|8,0:0|0:0,0:0:0:0:
332,373,165687,6,0,P|385:318|361:222,1,180,2|0,0:0|0:0,0:0:0:0:
196,297,166182,2,0,P|241:291|294:287,1,90,8|0,0:0|0:0,0:0:0:0:
466,206,166511,2,0,P|470:241|478:302,1,90,2|2,0:0|0:0,0:0:0:0:
500,91,166841,1,8,0:0:0:0:
390,134,167006,6,0,P|326:191|235:153,1,180
304,13,167500,2,0,P|307:61|308:111,1,90,8|0,0:0|0:0,0:0:0:0:
316,285,167830,1,2,0:0:0:0:
406,178,167995,1,2,3:2:0:0:
406,178,168077,1,0,3:0:0:0:
406,178,168160,1,8,3:2:0:0:
206,111,168324,6,0,P|211:181|213:252,1,135,4|0,0:0|0:0,0:0:0:0:
209,323,168654,5,4,0:0:0:0:
75,216,168819,1,8,0:0:0:0:
304,188,168984,6,0,P|357:274|293:338,1,180,4|0,0:0|0:0,0:0:0:0:
119,331,169478,1,0,3:0:0:0:
96,326,169561,1,0,3:0:0:0:
74,321,169643,1,0,3:0:0:0:
52,316,169725,1,0,3:0:0:0:
29,311,169808,6,0,P|29:258|25:213,1,90,4|0,0:0|0:0,0:0:0:0:
56,102,170138,1,8,0:0:0:0:
166,166,170302,2,0,P|209:155|261:148,1,90,0|2,0:0|0:0,0:0:0:0:
412,65,170632,2,0,P|370:58|322:42,1,90,0|8,0:0|0:0,0:0:0:0:
359,166,170962,1,0,0:0:0:0:
460,261,171127,6,0,P|464:211|470:158,2,90,4|0|8,0:0|0:0|0:0,0:0:0:0:
331,300,171621,2,0,P|280:307|239:320,1,90,0|2,0:0|0:0,0:0:0:0:
67,208,171951,2,0,P|112:212|157:220,1,90,2|8,0:0|0:0,0:0:0:0:
124,54,172280,1,0,0:0:0:0:
287,92,172445,6,0,P|336:88|403:79,1,90,4|0,0:0|0:0,0:0:0:0:
455,73,172693,1,0,0:0:0:0:
455,73,172775,1,8,0:0:0:0:
303,180,172940,1,0,0:0:0:0:
310,3,173105,1,2,0:0:0:0:
303,180,173269,1,0,0:0:0:0:
447,150,173434,1,8,0:0:0:0:
204,125,173599,1,0,0:0:0:0:
335,285,173764,6,0,L|252:280,2,45,2|0|0,0:0|0:0|0:0,0:0:0:0:
462,341,174094,1,8,0:0:0:0:
337,148,174258,1,0,0:0:0:0:
164,212,174423,5,0,3:0:0:0:
186,240,174506,1,0,3:0:0:0:
197,274,174588,1,0,3:0:0:0:
191,309,174671,1,0,3:0:0:0:
171,339,174753,6,0,L|166:386,1,45,0|0,3:0|3:0,3:0:0:0:
262,209,174918,2,0,L|257:161,1,45,0|0,3:0|3:0,3:0:0:0:
112,279,175083,6,0,P|81:284|20:297,1,90,4|0,0:0|0:0,0:0:0:0:
225,315,175412,1,8,0:0:0:0:
80,168,175577,1,0,0:0:0:0:
199,222,175742,2,0,L|296:206,1,90,2|0,0:0|0:0,0:0:0:0:
375,142,176072,1,8,0:0:0:0:
456,281,176236,6,0,P|385:339|293:290,1,180
375,142,176731,2,0,P|370:192|370:253,1,90,8|0,0:0|0:0,0:0:0:0:
206,159,177061,2,0,P|205:115|201:70,1,90,2|0,0:0|0:0,0:0:0:0:
294,156,177390,1,8,0:0:0:0:
123,208,177555,1,0,0:0:0:0:
206,344,177720,6,0,L|216:248,1,90,2|0,0:0|0:0,0:0:0:0:
123,208,178050,2,0,L|111:297,1,90,8|0,0:0|0:0,0:0:0:0:
111,71,178379,2,0,P|162:85|229:98,1,90,2|2,0:0|0:0,0:0:0:0:
123,208,178709,2,0,P|72:222|5:235,1,90,8|0,0:0|0:0,0:0:0:0:
16,75,179039,5,4,0:0:0:0:
153,297,179258,1,4,0:0:0:0:
294,93,179478,2,0,L|303:17,1,60,2|2,0:0|0:0,0:0:0:0:
279,240,179698,5,8,0:0:0:0:
294,93,179918,1,0,0:0:0:0:
279,240,180138,1,8,0:0:0:0:
279,240,180852,5,2,0:0:0:0:
279,240,181017,2,0,P|223:254|123:260,1,153.000002918243,4|8,0:0|0:0,0:0:0:0:
230,340,181511,1,0,0:0:0:0:
230,340,181676,2,0,P|286:354|386:360,1,153.000002918243,2|8,0:0|0:0,0:0:0:0:
431,283,182170,1,0,0:0:0:0:
431,283,182335,6,0,P|449:228|433:145,1,114.750002188683,2|0,0:0|0:0,0:0:0:0:
433,142,182665,1,8,0:0:0:0:
497,26,182830,1,0,0:0:0:0:
433,142,182995,2,0,P|391:138|327:127,1,76.5000014591217,2|0,0:0|0:0,0:0:0:0:
221,87,183324,2,0,L|228:11,1,76.5000014591217,8|0,0:0|0:0,0:0:0:0:
85,113,183654,6,0,L|92:198,1,76.5000014591217,4|0,0:0|0:0,0:0:0:0:
96,292,183984,1,8,0:0:0:0:
196,193,184148,1,0,0:0:0:0:
281,291,184313,2,0,P|320:286|379:277,1,76.5000014591217,2|0,0:0|0:0,0:0:0:0:
453,190,184643,6,0,L|463:120,1,45,0|0,3:0|3:0,3:0:0:0:
324,133,184808,2,0,L|316:63,1,45,0|0,3:0|3:0,3:0:0:0:
434,18,184973,1,4,0:0:0:0:
256,192,185055,12,0,186291,0:0:0:0:
253,208,192885,6,0,L|241:123,1,67.5000025749208,0|0,3:2|0:0,0:0:0:0:
150,115,193214,2,0,P|159:78|171:34,1,67.5000025749208,0|0,3:0|0:0,0:0:0:0:
61,73,193544,2,0,L|-10:65,1,67.5000025749208,0|0,3:0|0:0,0:0:0:0:
3,166,193874,2,0,L|74:174,1,67.5000025749208,0|0,3:0|0:0,0:0:0:0:
170,287,194203,6,0,L|156:204,1,67.5000025749208,0|0,3:0|0:0,0:0:0:0:
248,357,194533,2,0,L|269:282,1,67.5000025749208,0|0,3:0|0:0,0:0:0:0:
263,191,194863,2,0,P|296:198|332:204,1,67.5000025749208,0|0,3:0|0:0,0:0:0:0:
158,220,195192,2,0,P|125:228|89:233,1,67.5000025749208,0|0,3:0|0:0,0:0:0:0:
178,109,195522,5,4,0:2:0:0:
158,220,195687,1,0,0:0:0:0:
76,148,195852,2,0,P|74:119|65:75,1,67.5000025749208,0|0,3:0|0:0,0:0:0:0:
72,307,196181,2,0,P|66:345|58:380,1,67.5000025749208,0|0,3:0|0:0,0:0:0:0:
263,256,196511,2,0,P|259:219|249:170,1,67.5000025749208,0|0,3:0|0:0,0:0:0:0:
238,34,196841,5,6,0:0:0:0:
250,68,196923,1,2,0:0:0:0:
280,90,197006,1,2,0:0:0:0:
314,103,197088,1,2,0:0:0:0:
355,100,197170,6,0,L|422:91,3,45,0|0|0|0,3:0|3:0|3:0|3:0,3:0:0:0:
419,188,197500,2,0,L|407:253,3,45,0|0|0|0,3:0|3:0|3:0|3:0,3:0:0:0:
307,273,197830,6,0,L|319:338,1,45,0|0,3:0|3:0,3:0:0:0:
343,160,197995,2,0,L|358:90,1,45,0|0,3:0|3:0,3:0:0:0:
227,178,198159,6,0,L|77:193,1,135,4|0,0:0|0:0,0:0:0:0:
59,181,198489,1,8,0:0:0:0:
125,69,198654,1,0,0:0:0:0:
327,216,198819,2,0,P|331:169|341:114,1,90,2|0,0:0|0:0,0:0:0:0:
212,8,199148,2,0,P|219:52|223:97,1,90,8|0,0:0|0:0,0:0:0:0:
195,285,199478,6,0,P|128:325|46:276,1,180,2|8,0:0|0:0,0:0:0:0:
138,112,199973,1,0,0:0:0:0:
272,191,200137,1,2,0:0:0:0:
124,245,200302,1,0,0:0:0:0:
272,191,200467,1,8,0:0:0:0:
47,175,200632,5,0,0:0:0:0:
47,175,200714,1,0,0:0:0:0:
47,175,200797,2,0,P|45:135|42:78,1,90,2|0,0:0|0:0,0:0:0:0:
206,307,201126,2,0,P|210:260|217:211,1,90,8|0,0:0|0:0,0:0:0:0:
148,68,201456,5,2,0:0:0:0:
292,149,201621,1,0,0:0:0:0:
175,194,201786,1,8,0:0:0:0:
272,34,201951,1,0,0:0:0:0:
380,163,202115,6,0,P|337:158|272:143,1,90,2|0,0:0|0:0,0:0:0:0:
175,194,202445,1,8,0:0:0:0:
333,257,202610,1,0,0:0:0:0:
333,257,202692,1,0,0:0:0:0:
333,257,202775,2,0,P|282:261|239:270,1,90,2|0,0:0|0:0,0:0:0:0:
294,367,203104,1,8,0:0:0:0:
291,148,203269,1,0,0:0:0:0:
420,249,203434,5,4,0:0:0:0:
420,249,203599,1,0,0:0:0:0:
291,148,203764,2,0,L|305:48,1,90,8|0,0:0|0:0,0:0:0:0:
433,160,204093,2,0,L|419:260,1,90,2|0,0:0|0:0,0:0:0:0:
203,126,204423,2,0,L|97:113,1,90,8|0,0:0|0:0,0:0:0:0:
303,58,204753,5,4,0:0:0:0:
313,236,204918,1,0,0:0:0:0:
303,58,205082,1,8,0:0:0:0:
448,144,205247,1,0,0:0:0:0:
448,144,205330,1,0,0:0:0:0:
448,144,205412,5,2,0:0:0:0:
376,327,205577,1,0,0:0:0:0:
224,252,205742,2,0,P|274:241|341:233,1,90,8|0,0:0|0:0,0:0:0:0:
170,355,206071,6,0,P|119:309|115:244,1,135,4|0,0:0|0:0,0:0:0:0:
155,174,206401,1,8,0:0:0:0:
279,95,206566,6,0,P|219:97|97:78,1,180,4|0,0:0|0:0,0:0:0:0:
225,2,207060,1,8,0:0:0:0:
253,206,207225,6,0,P|313:208|435:189,1,180,4|0,0:0|0:0,0:0:0:0:
373,104,207720,1,8,0:0:0:0:
332,302,207885,1,0,0:0:0:0:
116,222,208049,1,8,0:0:0:0:
224,91,208214,6,0,L|218:46,1,45,0|0,3:0|3:0,3:0:0:0:
74,98,208379,2,0,L|84:155,1,45,0|0,3:0|3:0,3:0:0:0:
195,295,208544,2,0,L|203:241,1,45,0|0,3:0|3:0,3:0:0:0:
224,91,208709,5,0,3:0:0:0:
224,91,209038,2,0,P|297:104|367:95,1,135,4|0,0:0|0:0,0:0:0:0:
427,56,209368,1,2,0:0:0:0:
270,251,209533,1,0,0:0:0:0:
479,177,209698,1,8,0:0:0:0:
270,251,209863,1,0,0:0:0:0:
270,251,209945,1,0,0:0:0:0:
270,251,210027,6,0,P|276:302|278:346,1,90,2|0,0:0|0:0,0:0:0:0:
383,106,210357,2,0,P|374:154|368:198,1,90,8|0,0:0|0:0,0:0:0:0:
237,149,210687,1,0,3:0:0:0:
237,149,210769,1,0,3:0:0:0:
237,149,210852,2,0,L|250:85,1,45,0|0,3:0|3:0,3:0:0:0:
112,48,211017,6,0,L|129:95,1,45,0|0,3:0|3:0,3:0:0:0:
263,231,211181,2,0,L|249:282,1,45,0|0,3:0|3:0,3:0:0:0:
72,236,211346,6,0,L|184:223,1,90,4|0,0:0|0:0,0:0:0:0:
335,113,211676,2,0,L|223:102,1,90,8|0,0:0|0:0,0:0:0:0:
112,48,212006,1,2,0:0:0:0:
161,225,212170,1,0,0:0:0:0:
245,104,212335,1,8,0:0:0:0:
35,166,212500,6,0,P|-1:216|54:323,1,180
160,336,212995,2,0,L|173:247,1,90,8|0,0:0|0:0,0:0:0:0:
143,84,213324,1,2,0:0:0:0:
75,238,213489,1,0,0:0:0:0:
248,258,213654,1,8,3:2:0:0:
287,266,213736,1,0,3:0:0:0:
326,257,213819,1,0,3:0:0:0:
366,260,213901,1,0,3:0:0:0:
403,275,213984,6,0,L|498:265,1,90,4|0,0:0|0:0,0:0:0:0:
405,169,214313,1,8,0:0:0:0:
328,345,214478,1,0,0:0:0:0:
225,171,214643,5,8,0:0:0:0:
328,345,214808,1,0,0:0:0:0:
86,230,214973,1,8,0:0:0:0:
237,82,215137,1,0,0:0:0:0:
237,82,215220,1,0,0:0:0:0:
237,82,215302,6,0,P|228:122|224:172,1,90,4|0,0:0|0:0,0:0:0:0:
137,317,215632,1,8,0:0:0:0:
93,132,215797,1,0,0:0:0:0:
284,258,215962,5,8,0:0:0:0:
35,314,216126,1,0,0:0:0:0:
216,150,216291,1,8,0:0:0:0:
328,349,216456,1,0,0:0:0:0:
328,349,216538,1,0,0:0:0:0:
328,349,216621,6,0,L|220:343,1,90,4|0,0:0|0:0,0:0:0:0:
415,173,216951,1,8,0:0:0:0:
284,258,217115,1,0,0:0:0:0:
369,86,217280,5,8,0:0:0:0:
436,321,217445,1,0,0:0:0:0:
182,247,217610,1,8,0:0:0:0:
360,215,217775,1,0,0:0:0:0:
360,215,217857,1,0,0:0:0:0:
360,215,217940,6,0,L|481:198,1,90,4|0,0:0|0:0,0:0:0:0:
315,333,218269,1,8,0:0:0:0:
173,177,218434,1,0,0:0:0:0:
387,121,218599,5,8,0:0:0:0:
241,286,218764,1,0,0:0:0:0:
265,107,218929,2,0,L|276:13,1,90,8|0,0:0|0:0,0:0:0:0:
69,202,219258,5,6,0:0:0:0:
241,286,219423,1,2,0:0:0:0:
265,107,219588,1,10,0:0:0:0:
149,270,219753,1,2,0:0:0:0:
149,270,219835,1,0,0:0:0:0:
149,270,219918,5,10,0:0:0:0:
377,257,220082,1,2,0:0:0:0:
167,86,220247,1,10,0:0:0:0:
261,329,220412,1,2,0:0:0:0:
386,146,220577,5,6,0:0:0:0:
128,181,220742,1,2,0:0:0:0:
261,329,220907,1,10,0:0:0:0:
313,74,221071,1,2,0:0:0:0:
313,74,221154,1,2,0:0:0:0:
313,74,221236,5,10,0:0:0:0:
171,283,221401,1,2,0:0:0:0:
463,143,221566,1,10,0:0:0:0:
187,37,221731,1,2,0:0:0:0:
231,366,221896,5,10,0:0:0:0:
313,74,222060,1,2,0:0:0:0:
313,74,222143,1,0,0:0:0:0:
313,74,222225,1,10,0:0:0:0:
11,178,222390,1,2,0:0:0:0:
233,272,222555,6,0,L|226:228,1,45,10|0,0:0|0:0,0:0:0:0:
307,48,222720,2,0,L|300:100,1,45,2|0,0:0|0:0,0:0:0:0:
89,176,222885,6,0,L|132:188,1,45,10|0,0:0|0:0,0:0:0:0:
373,292,223049,2,0,L|328:299,1,45,2|0,0:0|0:0,0:0:0:0:
58,373,223214,5,4,0:0:0:0:
345,156,224038,5,2,0:0:0:0:
406,92,224203,1,0,3:0:0:0:
375,65,224286,1,0,3:0:0:0:
334,62,224368,1,0,3:0:0:0:
296,78,224451,1,0,3:0:0:0:
272,110,224533,6,0,P|264:151|259:207,1,90,6|0,0:0|0:0,0:0:0:0:
358,332,224863,1,0,0:0:0:0:
488,262,225027,2,0,P|456:195|352:192,1,180,6|0,0:0|0:0,0:0:0:0:
242,276,225522,2,0,L|152:267,1,90,2|0,0:0|0:0,0:0:0:0:
28,120,225852,6,0,L|121:130,1,90,6|0,0:0|0:0,0:0:0:0:
242,276,226181,1,0,0:0:0:0:
359,135,226346,2,0,P|367:89|372:32,1,90,6|0,0:0|0:0,0:0:0:0:
245,173,226676,1,0,0:0:0:0:
364,287,226841,2,0,L|466:297,1,90,6|0,0:0|0:0,0:0:0:0:
165,345,227170,6,0,P|161:297|150:242,1,90,6|2,0:0|0:0,0:0:0:0:
92,95,227500,1,0,0:0:0:0:
293,18,227665,2,0,P|287:64|284:121,1,90,6|0,0:0|0:0,0:0:0:0:
72,216,227995,1,2,0:0:0:0:
198,50,228159,1,2,0:0:0:0:
334,190,228324,6,0,B|243:220|248:155|158:181,1,180,4|0,0:0|0:0,0:0:0:0:
181,319,228819,2,0,P|230:324|282:336,1,90,6|0,0:0|0:0,0:0:0:0:
456,246,229148,2,0,P|457:201|464:148,1,90,6|0,0:0|0:0,0:0:0:0:
286,29,229478,2,0,P|291:78|293:152,1,90,6|0,0:0|0:0,0:0:0:0:
358,337,229808,6,0,P|355:287|346:219,1,90,6|0,0:0|0:0,0:0:0:0:
426,122,230137,1,2,0:0:0:0:
229,253,230302,2,0,P|225:213|215:156,1,90,6|0,0:0|0:0,0:0:0:0:
93,84,230632,1,0,0:0:0:0:
36,254,230797,2,0,P|88:244|140:233,1,90,6|0,0:0|0:0,0:0:0:0:
300,98,231126,6,0,P|248:88|196:77,1,90,6|0,0:0|0:0,0:0:0:0:
55,13,231456,1,2,0:0:0:0:
133,148,231621,2,0,P|121:195|128:251,1,90,6|0,0:0|0:0,0:0:0:0:
223,333,231951,1,0,0:0:0:0:
301,192,232115,2,0,L|201:209,1,90,6|0,0:0|0:0,0:0:0:0:
124,326,232445,5,6,0:0:0:0:
232,122,232610,1,0,0:0:0:0:
308,300,232775,1,2,0:0:0:0:
412,108,232940,5,6,0:0:0:0:
251,218,233104,1,0,0:0:0:0:
438,246,233269,1,2,0:0:0:0:
315,71,233434,1,0,0:0:0:0:
162,257,233599,6,0,P|239:321|321:284,1,180,6|0,0:0|0:0,0:0:0:0:
326,179,234093,1,0,0:0:0:0:
164,170,234258,6,0,L|68:160,1,90,2|0,0:0|0:0,0:0:0:0:
77,299,234588,2,0,L|-38:286,1,90,2|0,0:0|0:0,0:0:0:0:
245,231,234918,6,0,L|446:219,1,180,4|0,0:0|0:0,0:0:0:0:
475,107,235412,1,8,0:0:0:0:
475,107,235577,1,0,0:0:0:0:
348,41,235742,2,0,P|339:88|336:157,1,90,2|0,0:0|0:0,0:0:0:0:
270,280,236071,2,0,P|225:274|171:261,1,90,8|0,0:0|0:0,0:0:0:0:
247,114,236401,6,0,P|292:120|346:133,1,90,4|0,0:0|0:0,0:0:0:0:
409,231,236731,1,8,0:0:0:0:
460,77,236896,1,0,0:0:0:0:
273,198,237060,1,2,0:0:0:0:
273,198,237225,1,0,0:0:0:0:
409,231,237390,1,8,0:0:0:0:
316,65,237555,1,0,0:0:0:0:
187,169,237720,6,0,P|126:168|2:151,1,180,4|8,0:0|0:0,0:0:0:0:
51,53,238214,1,0,0:0:0:0:
51,53,238379,2,0,P|103:49|153:37,1,90,2|2,0:0|0:0,0:0:0:0:
225,142,238709,1,8,0:0:0:0:
49,268,238874,6,0,P|146:273|238:296,1,180,4|0,0:0|0:0,0:0:0:0:
368,353,239368,1,8,0:0:0:0:
339,212,239533,2,0,P|332:170|328:113,1,90,8|0,0:0|0:0,0:0:0:0:
434,149,239863,1,8,0:0:0:0:
210,175,240192,6,0,P|216:124|212:56,1,90,4|0,0:0|0:0,0:0:0:0:
98,86,240522,2,0,L|87:26,2,45,0|0|0,3:0|3:0|3:0,3:0:0:0:
31,196,240852,6,0,L|222:173,1,180,4|0,0:0|2:0,0:0:0:0:
316,196,241264,1,0,3:0:0:0:
316,196,241346,2,0,L|296:125,1,45,0|0,3:0|3:0,3:0:0:0:
436,142,241511,2,0,L|445:84,1,45,0|0,3:0|3:0,3:0:0:0:
461,281,241676,5,4,0:0:0:0:
282,357,241841,1,0,3:0:0:0:
282,357,241923,1,0,3:0:0:0:
282,357,242006,1,0,3:0:0:0:
316,196,242170,1,4,0:0:0:0:
366,289,242335,5,0,3:0:0:0:
348,285,242418,1,0,3:0:0:0:
330,281,242500,1,0,3:0:0:0:
312,277,242582,1,0,3:0:0:0:
294,273,242665,2,0,L|212:284,1,45,0|0,3:0|3:0,3:0:0:0:
114,200,242830,2,0,L|196:211,1,45,0|0,3:0|3:0,3:0:0:0:
112,332,242995,5,4,0:0:0:0:
15,266,243159,2,0,L|-3:322,2,45,0|0|0,3:0|3:0|3:0,3:0:0:0:
110,107,243489,6,0,P|160:118|225:121,1,90,4|0,0:0|3:0,0:0:0:0:
216,120,243736,1,0,3:0:0:0:
233,116,243819,1,0,3:0:0:0:
249,110,243901,1,0,3:0:0:0:
261,97,243984,6,0,L|253:40,1,45,0|0,3:0|3:0,3:0:0:0:
381,124,244148,2,0,L|373:172,1,45,0|0,3:0|3:0,3:0:0:0:
347,308,244313,5,4,0:0:0:0:
210,218,244478,1,0,3:0:0:0:
210,218,244560,1,0,3:0:0:0:
210,218,244643,1,0,3:0:0:0:
373,168,244808,1,4,0:0:0:0:
242,347,244973,6,0,L|225:290,1,45,0|0,3:0|3:0,3:0:0:0:
298,121,245137,2,0,L|286:187,1,45,0|0,3:0|3:0,3:0:0:0:
118,255,245302,6,0,L|105:202,1,45,0|0,3:0|3:0,3:0:0:0:
209,42,245467,2,0,L|198:96,1,45,0|0,3:0|3:0,3:0:0:0:
256,192,245962,5,4,0:0:0:0:
256,192,246044,12,0,250907,0:0:0:0:
