osu file format v14

[General]
AudioFilename: 01..mp3
AudioLeadIn: 0
PreviewTime: 53742
Countdown: 0
SampleSet: Soft
StackLeniency: 0.7
Mode: 0
LetterboxInBreaks: 0
WidescreenStoryboard: 0

[Editor]
Bookmarks: 666,11215,32314,54731,98248,122313,159236,198137
DistanceSpacing: 1.1
BeatDivisor: 2
GridSize: 32
TimelineZoom: 1.7

[Metadata]
Title:Sayonara Usotsuki
TitleUnicode:サヨナラ嘘ツキ
Artist:mimimemeMIMI
ArtistUnicode:みみめめMIMI
Creator:Mikii
Version:Easy
Source:Blade & Soul
Tags:and ブレイドアンドソウル opening full unison square garden yuki takao タカオユキ professionalbox kibbleru fuccho evilelvis toybot
BeatmapID:1011726
BeatmapSetID:395359

[Difficulty]
HPDrainRate:2
CircleSize:3
OverallDifficulty:2
ApproachRate:3
SliderMultiplier:0.799999999999999
SliderTickRate:1

[Events]
//Background and Video events
0,0,"204743-52411.jpg",0,0
//Break Periods
2,90358,96830
2,143634,157818
2,187810,191445
//Storyboard Layer 0 (Background)
//Storyboard Layer 1 (Fail)
//Storyboard Layer 2 (Pass)
//Storyboard Layer 3 (Foreground)
//Storyboard Sound Samples

[TimingPoints]
-631,329.67032967033,4,2,2,40,1,0
5136,-100,4,2,1,50,0,0
5468,-100,4,2,1,60,0,0
5797,-100,4,2,1,70,0,0
11237,-100,4,2,2,40,0,0
21457,-100,4,2,2,45,0,0
21786,-100,4,2,1,50,0,0
32336,-100,4,2,1,40,0,0
48160,-100,4,2,1,50,0,0
51951,-100,4,2,1,60,0,0
54753,-100,4,2,1,70,0,1
62666,-100,4,2,1,70,0,1
63819,-100,4,2,1,70,0,1
70578,-100,4,2,1,80,0,1
74533,-100,4,2,1,80,0,0
75852,-100,4,2,2,70,0,0
86237,-100,4,2,1,40,0,0
87720,-100,4,2,2,40,0,0
90358,329.67032967033,3,2,2,40,1,0
98270,-100,3,2,2,40,0,0
104204,-100,3,2,2,40,0,0
105193,329.67032967033,4,2,2,40,1,0
107171,-100,4,2,1,40,0,0
107500,-100,4,2,1,40,0,0
107830,-100,4,2,1,50,0,0
115742,-100,4,2,1,60,0,0
122335,-100,4,2,1,70,0,1
138160,-100,4,2,1,80,0,1
142445,-100,4,2,1,70,0,1
142775,-100,4,2,1,60,0,1
143105,-100,4,2,1,50,0,1
143434,-100,4,2,1,40,0,0
153984,-100,4,2,2,40,0,0
159258,-100,4,2,1,40,0,0
159918,-100,4,2,1,50,0,0
160577,-100,4,2,1,60,0,0
161236,-100,4,2,1,70,0,0
164533,-100,4,2,1,60,0,0
168324,-100,4,2,1,70,0,0
169808,-100,4,2,1,60,0,0
181017,329.67032967033,4,2,1,50,1,0
184643,-100,4,2,1,40,0,0
192885,-100,4,2,1,40,0,0
194203,-100,4,2,1,50,0,0
195522,-100,4,2,1,60,0,0
198159,-100,4,2,1,70,0,1
213984,-100,4,2,1,80,0,1
223214,-100,4,2,1,60,0,0
224451,-100,4,2,2,70,0,0
234918,-100,4,2,1,70,0,0
250742,-100,4,2,1,40,0,0

[Colours]
Combo1 : 220,35,183
Combo2 : 162,162,162
Combo3 : 0,147,255
Combo4 : 128,128,255

[HitObjects]
209,220,688,6,0,P|149:219|102:184,2,120,10|10|2,0:0|0:0|0:0,0:0:0:0:
272,159,2006,2,0,L|285:40,2,120,10|10|2,0:0|0:0|0:0,0:0:0:0:
310,238,3325,6,0,P|366:207|440:233,1,120,10|10,0:0|0:0,0:0:0:0:
379,296,4149,1,2,0:0:0:0:
309,350,4479,2,0,P|263:342|143:333,1,160,10|2,0:0|0:0,0:0:0:0:
63,350,5468,1,2,0:0:0:0:
93,267,5797,6,0,P|103:211|66:136,1,120,4|8,0:0|0:0,0:0:0:0:
56,68,6622,2,0,P|88:53|154:66,1,79.9999999999999,2|8,0:0|0:0,0:0:0:0:
180,128,7281,2,0,B|221:153|221:153|341:130,1,160,4|2,0:0|0:0,0:0:0:0:
416,109,8270,1,8,0:0:0:0:
392,193,8600,6,0,P|399:234|405:313,1,120,4|4,0:0|0:0,0:0:0:0:
324,347,9424,1,2,0:0:0:0:
243,312,9753,2,0,P|150:290|98:325,1,160,4|0,0:0|0:0,0:0:0:0:
324,347,11237,6,0,B|354:315|354:315|337:194,1,160,2|2,0:0|0:0,0:0:0:0:
478,94,12556,2,0,P|484:62|462:0,2,79.9999999999999,2|10|2,0:0|0:0|0:0,0:0:0:0:
396,60,13545,1,10,0:0:0:0:
309,46,13874,2,0,P|233:63|162:28,1,160,2|2,0:0|0:0,0:0:0:0:
75,52,14863,2,0,P|68:96|68:141,1,79.9999999999999,8|0,0:0|0:0,0:0:0:0:
67,131,16512,6,0,P|155:111|221:168,1,160,2|2,0:0|0:0,0:0:0:0:
210,324,17830,2,0,B|159:317|159:317|107:330|107:330|27:318,1,160,2|2,0:0|0:0,0:0:0:0:
50,233,18819,1,8,0:0:0:0:
129,194,19149,6,0,B|180:201|180:201|232:188|232:188|312:200,1,160,0|0,0:0|0:0,0:0:0:0:
454,249,20468,2,0,P|484:200|463:83,1,160,0|0,0:0|3:0,0:0:0:0:
307,56,21786,6,0,B|230:80|230:28|136:55,1,160,4|2,0:0|0:0,0:0:0:0:
106,127,22775,1,8,0:0:0:0:
144,206,23105,2,0,P|229:236|304:178,2,160,2|2|2,0:0|0:0|0:0,0:0:0:0:
107,286,24753,1,8,0:0:0:0:
28,246,25083,2,0,B|28:199|41:166|41:166|27:135|28:80,1,160,2|2,0:0|0:0,0:0:0:0:
27,89,27061,6,0,B|105:110|109:63|187:93,1,160,2|2,0:0|0:0,0:0:0:0:
266,60,28050,1,8,0:0:0:0:
337,112,28380,2,0,P|357:161|338:268,1,160,2|2,0:0|0:0,0:0:0:0:
279,328,29369,1,8,0:0:0:0:
192,333,29698,6,0,L|95:322,1,79.9999999999999,2|12,0:0|0:0,0:0:0:0:
28,295,30358,2,0,P|37:216|0:138,1,160,2|2,0:0|0:0,0:0:0:0:
71,85,31347,2,0,P|72:51|78:-1,2,79.9999999999999,4|0|8,0:0|3:0|0:0,0:0:0:0:
129,151,32336,6,0,B|162:177|198:179|198:179|236:141|295:162,1,160,2|2,0:0|0:0,0:0:0:0:
348,107,33325,1,2,0:0:0:0:
430,137,33655,2,0,P|446:213|406:279,1,160,2|2,0:0|0:0,0:0:0:0:
232,316,34973,6,0,L|71:304,1,160,2|0,0:0|0:0,0:0:0:0:
35,225,35962,1,0,0:0:0:0:
98,164,36292,2,0,P|111:98|66:30,2,120,2|0|2,0:0|0:0|0:0,0:0:0:0:
24,114,37611,1,2,0:0:0:0:
194,69,38270,6,0,L|303:73,1,79.9999999999999,2|2,0:0|0:0,0:0:0:0:
355,104,38929,2,0,P|372:152|365:203,1,79.9999999999999,4|2,0:0|0:0,0:0:0:0:
319,252,39589,1,2,0:0:0:0:
147,218,40248,6,0,P|90:170|-1:206,1,160,2|0,0:0|0:0,0:0:0:0:
67,258,41237,1,2,0:0:0:0:
110,334,41567,2,0,L|202:328,1,79.9999999999999,6|8,0:0|0:0,0:0:0:0:
233,252,42226,2,0,L|325:246,1,79.9999999999999,6|8,0:0|0:0,0:0:0:0:
394,281,42885,6,0,P|414:230|361:125,1,160,4|2,0:0|0:0,0:0:0:0:
289,124,43874,1,2,0:0:0:0:
222,182,44204,2,0,B|177:197|177:197|141:177|75:178,2,120,2|2|2,0:0|0:0|0:0,0:0:0:0:
289,124,45523,6,0,P|292:84|329:33,1,79.9999999999999,2|2,0:0|0:0,0:0:0:0:
398,39,46182,2,0,L|484:51,1,79.9999999999999,2|2,0:0|0:0,0:0:0:0:
492,136,46841,2,0,L|348:116,2,120,2|2|0,0:0|0:0|3:0,0:0:0:0:
448,212,48160,6,0,P|412:289|430:384,1,160,6|2,0:0|0:0,0:0:0:0:
331,368,49149,1,8,0:0:0:0:
258,317,49479,2,0,L|132:329,2,120,6|0|8,0:0|0:0|0:0,0:0:0:0:
275,230,50797,6,0,L|193:236,1,79.9999999999999,4|8,0:0|0:0,0:0:0:0:
115,197,51457,2,0,P|79:150|82:68,1,120,10|4,0:0|0:0,0:0:0:0:
153,52,52281,2,0,B|255:86|255:24|357:61,1,200,0|10,0:0|0:0,0:0:0:0:
427,22,53435,1,12,0:0:0:0:
427,22,54753,6,0,P|394:93|412:190,1,160,4|2,0:0|0:0,0:0:0:0:
440,251,55742,1,8,0:0:0:0:
399,330,56072,2,0,L|224:317,1,160,2|2,0:0|0:0,0:0:0:0:
152,330,57061,1,8,0:0:0:0:
72,292,57391,6,0,P|73:250|87:194,1,79.9999999999999,2|8,0:0|0:0,0:0:0:0:
167,198,58050,2,0,P|167:157|157:101,1,79.9999999999999,2|8,0:0|0:0,0:0:0:0:
86,72,58709,2,0,P|145:32|236:69,1,160,2|2,0:0|0:0,0:0:0:0:
298,104,59698,1,8,0:0:0:0:
359,40,60028,6,0,L|451:29,1,79.9999999999999,4|8,0:0|0:0,0:0:0:0:
472,111,60687,1,2,0:0:0:0:
419,181,61017,2,0,P|437:217|453:262,2,79.9999999999999,8|4|8,0:0|0:0|0:0,0:0:0:0:
343,135,62006,2,0,P|326:171|310:218,1,79.9999999999999,2|8,0:0|0:0,0:0:0:0:
308,297,62666,6,0,B|272:298|240:289|240:289|207:314|184:349,1,120,4|6,0:0|0:0,0:0:0:0:
119,353,63490,1,0,0:0:0:0:
72,278,63819,2,0,B|79:235|79:235|71:202|71:202|86:134,1,120,6|8,0:0|0:0,0:0:0:0:
132,90,64644,2,0,P|196:36|298:47,1,160,2|2,0:0|0:0,0:0:0:0:
337,89,65633,1,4,0:0:0:0:
423,101,65962,6,0,P|400:154|345:175,1,120,2|2,0:0|0:0,0:0:0:0:
230,238,66951,2,0,P|214:195|224:132,2,79.9999999999999,8|2|8,0:0|0:0|0:0,0:0:0:0:
193,318,67940,6,0,P|110:308|16:352,1,160,2|2,0:0|0:0,0:0:0:0:
85,210,69094,2,0,L|94:84,1,120,4|8,0:0|0:0,0:0:0:0:
181,87,69918,2,0,L|175:197,1,79.9999999999999,2|8,0:0|3:2,0:0:0:0:
235,232,70578,6,0,P|297:235|404:253,1,160,4|8,0:0|0:0,0:0:0:0:
466,90,71896,2,0,P|386:85|307:71,1,160,4|8,0:0|0:0,0:0:0:0:
219,65,72885,1,8,0:0:0:0:
138,99,73215,6,0,P|70:154|84:250,2,160,4|8|8,0:0|0:0|0:0,0:0:0:0:
130,101,75852,6,0,P|193:130|271:120,1,120,4|4,0:0|0:0,0:0:0:0:
357,65,76841,1,2,0:0:0:0:
420,125,77171,2,0,P|416:176|414:252,1,120,6|4,0:0|0:0,0:0:0:0:
316,334,78160,1,2,0:0:0:0:
249,276,78490,6,0,P|200:246|126:261,2,120,6|6|0,0:0|0:0|0:0,0:0:0:0:
181,331,79808,2,0,B|159:346|149:369|149:369|108:370|49:359,1,120,4|4,0:0|0:0,0:0:0:0:
14,249,80797,1,6,0:0:0:0:
86,195,81127,6,0,P|90:135|98:75,1,120,6|6,0:0|0:0,0:0:0:0:
225,112,82116,1,2,0:0:0:0:
303,71,82446,2,0,L|459:81,1,120,6|6,0:0|0:0,0:0:0:0:
486,197,83435,1,2,0:0:0:0:
429,264,83764,6,0,L|286:277,1,120,6|6,0:0|0:0,0:0:0:0:
246,338,84589,1,6,0:0:0:0:
162,312,84918,2,0,P|166:217|138:142,1,160,6|2,0:0|0:0,0:0:0:0:
89,88,85907,1,2,0:0:0:0:
11,130,86237,1,4,0:0:0:0:
256,192,86402,12,0,89039,0:0:0:0:
91,90,98270,6,0,P|157:43|262:73,1,160,4|8,0:0|0:0,0:0:0:0:
299,108,99259,2,0,L|288:212,1,79.9999999999999,0|8,0:0|0:0,0:0:0:0:
282,275,99918,1,8,0:0:0:0:
214,331,100248,2,0,B|129:338|129:338|129:300|102:260,1,160,0|8,0:0|0:0,0:0:0:0:
55,196,101237,2,0,P|53:119|114:71,1,160,0|8,0:0|0:0,0:0:0:0:
136,156,102226,6,0,L|303:172,1,160,0|8,0:0|0:0,0:0:0:0:
333,250,103215,2,0,L|420:256,1,79.9999999999999,0|8,0:0|0:0,0:0:0:0:
453,178,103874,1,8,0:0:0:0:
401,106,104204,6,0,P|402:73|409:16,2,79.9999999999999,2|10|10,0:0|0:0|0:0,0:0:0:0:
314,126,105193,2,0,L|226:116,1,79.9999999999999,2|10,0:0|0:0,0:0:0:0:
227,204,105852,2,0,L|318:215,1,79.9999999999999,10|2,0:0|0:0,0:0:0:0:
306,213,107830,6,0,P|325:266|286:357,1,160,4|2,0:0|0:0,0:0:0:0:
199,340,108819,1,8,0:0:0:0:
161,260,109149,2,0,P|119:265|16:287,2,120,2|0|8,0:0|0:0|0:0,0:0:0:0:
248,258,110467,6,0,P|243:209|222:89,1,160,2|2,0:0|0:0,0:0:0:0:
305,65,111456,1,8,0:0:0:0:
385,100,111786,2,0,P|443:109|494:80,2,120,2|2|8,0:0|0:0|3:2,0:0:0:0:
305,65,113105,5,4,0:0:0:0:
424,192,113764,2,0,L|413:297,1,79.9999999999999,2|8,0:0|3:2,0:0:0:0:
408,359,114423,1,4,3:2:0:0:
238,311,115083,2,0,L|246:231,1,79.9999999999999,2|8,0:0|0:0,0:0:0:0:
192,161,115742,6,0,P|125:170|82:258,1,160,12|8,0:0|0:0,0:0:0:0:
7,135,116896,2,0,P|17:87|28:0,1,120,4|8,0:0|0:0,0:0:0:0:
109,45,117720,2,0,B|192:65|186:17|291:41,1,160,8|4,0:0|0:0,0:0:0:0:
325,101,118709,2,0,P|393:147|486:134,1,160,8|8,0:0|0:0,0:0:0:0:
470,231,119698,6,0,P|404:240|336:280,1,120,4|6,0:0|0:0,0:0:0:0:
269,250,120522,2,0,L|257:161,1,79.9999999999999,0|0,3:0|0:0,0:0:0:0:
310,344,122335,6,0,P|245:302|143:307,1,160,4|2,0:0|0:0,0:0:0:0:
94,352,123324,1,8,0:0:0:0:
36,285,123654,2,0,B|16:237|16:237|54:195|52:114,1,160,2|2,0:0|0:0,0:0:0:0:
102,65,124643,1,8,0:0:0:0:
174,115,124973,6,0,P|161:141|161:220,1,79.9999999999999,2|8,0:0|0:0,0:0:0:0:
213,257,125632,2,0,L|304:244,1,79.9999999999999,2|8,0:0|0:0,0:0:0:0:
366,293,126291,2,0,L|477:306,1,79.9999999999999,2|8,0:0|0:0,0:0:0:0:
454,214,126951,2,0,L|343:201,1,79.9999999999999,2|8,0:0|0:0,0:0:0:0:
316,138,127610,6,0,P|282:67|209:40,1,160,4|2,0:0|0:0,0:0:0:0:
124,65,128599,1,8,0:0:0:0:
49,111,128929,2,0,P|41:163|33:280,1,160,4|2,0:0|0:0,0:0:0:0:
112,309,129918,1,8,0:0:0:0:
179,253,130247,6,0,P|228:212|310:234,1,120,4|4,0:0|0:0,0:0:0:0:
336,283,131072,1,0,0:0:0:0:
417,316,131401,2,0,P|418:255|436:175,1,120,4|8,0:0|0:0,0:0:0:0:
509,161,132225,2,0,L|494:71,1,79.9999999999999,0|0,0:0|3:0,0:0:0:0:
413,52,132885,2,0,P|370:53|330:73,1,79.9999999999999,0|4,3:0|0:0,0:0:0:0:
284,138,133544,6,0,P|217:149|158:132,2,120,2|0|8,0:0|0:0|0:0,0:0:0:0:
341,206,134863,2,0,P|345:251|331:293,1,79.9999999999999,2|8,0:0|0:0,0:0:0:0:
254,318,135522,2,0,P|182:270|86:302,1,160,2|2,0:0|0:0,0:0:0:0:
37,325,136511,1,8,0:0:0:0:
5,242,136841,6,0,P|11:202|27:153,1,79.9999999999999,2|8,0:0|0:0,0:0:0:0:
106,137,137500,2,0,L|96:43,1,79.9999999999999,2|8,0:0|3:2,0:0:0:0:
180,27,138160,6,0,P|224:112|217:183,1,160,4|8,0:0|0:0,0:0:0:0:
325,314,139478,2,0,B|364:314|401:298|401:298|424:326|472:340,1,160,8|8,0:0|0:0,0:0:0:0:
477,251,140467,1,8,0:0:0:0:
421,182,140797,6,0,L|434:90,2,79.9999999999999,4|8|8,0:0|0:0|0:0,0:0:0:0:
334,202,141786,1,8,3:2:0:0:
285,129,142116,2,0,P|214:118|120:100,2,160,8|8|4,3:2|3:2|0:0,0:0:0:0:
256,191,159258,6,0,L|263:88,1,79.9999999999999,4|2,0:0|0:0,0:0:0:0:
176,87,159918,2,0,L|167:198,1,79.9999999999999,2|2,0:0|0:0,0:0:0:0:
84,142,160577,2,0,L|93:55,2,79.9999999999999,2|2|2,0:0|0:0|0:0,0:0:0:0:
44,220,161566,1,2,0:0:0:0:
87,296,161896,6,0,P|166:273|224:300,1,120,6|0,0:0|0:0,0:0:0:0:
271,333,162720,1,2,0:0:0:0:
349,291,163050,2,0,P|359:233|339:177,1,120,4|4,0:0|0:0,0:0:0:0:
259,141,163874,2,0,L|267:43,1,79.9999999999999,0|0,3:0|3:0,0:0:0:0:
181,35,164533,6,0,P|99:49|53:125,1,160,4|2,0:0|0:0,0:0:0:0:
31,192,165522,1,8,0:0:0:0:
71,270,165852,2,0,L|166:263,1,79.9999999999999,0|8,0:0|0:0,0:0:0:0:
212,326,166511,2,0,L|309:318,1,79.9999999999999,2|8,0:0|0:0,0:0:0:0:
275,232,167171,6,0,P|346:202|450:237,1,160,0|2,0:0|0:0,0:0:0:0:
470,94,168324,2,0,L|372:100,1,79.9999999999999,4|4,0:0|0:0,0:0:0:0:
324,40,168984,2,0,L|170:49,1,120,4|0,0:0|3:0,0:0:0:0:
120,18,169808,6,0,B|88:26|59:20|59:20|-12:100|59:182,1,240,4|8,0:0|0:0,0:0:0:0:
93,260,171127,2,0,P|206:240|255:136,1,240,4|8,0:0|0:0,0:0:0:0:
342,125,172445,6,0,L|433:115,2,79.9999999999999,4|8|2,0:0|0:0|0:0,0:0:0:0:
292,51,173434,1,8,0:0:0:0:
203,52,173764,2,0,P|165:60|29:69,1,160,2|4,0:0|3:2,0:0:0:0:
8,242,175083,6,0,P|73:234|184:231,1,160,4|2,0:0|0:0,0:0:0:0:
227,295,176072,1,8,0:0:0:0:
305,255,176401,2,0,P|307:217|314:171,2,79.9999999999999,0|8|2,0:0|0:0|0:0,0:0:0:0:
376,306,177390,1,8,0:0:0:0:
452,262,177720,6,0,P|450:211|439:99,2,160,2|2|4,0:0|0:0|0:0,0:0:0:0:
295,181,179698,1,8,0:0:0:0:
295,181,181017,6,0,P|250:177|136:175,1,160,4|2,0:0|0:0,0:0:0:0:
91,251,182006,1,8,0:0:0:0:
126,331,182335,2,0,P|205:331|285:336,1,160,2|2,0:0|0:0,0:0:0:0:
369,308,183324,1,8,0:0:0:0:
450,341,183654,6,0,P|478:261|458:173,1,160,4|2,0:0|0:0,0:0:0:0:
336,68,184973,1,4,0:0:0:0:
256,192,185137,12,0,187610,0:0:0:0:
437,110,192885,6,0,B|364:108|330:173|330:173|277:163|228:111,1,240,0|0,3:2|3:0,0:0:0:0:
168,65,194203,2,0,P|84:133|100:278,1,240,0|0,3:0|3:0,0:0:0:0:
78,344,195522,2,0,P|47:349|-6:361,2,79.9999999999999,4|0|0,0:2|3:0|3:0,0:0:0:0:
164,325,196511,1,0,3:0:0:0:
246,357,196841,6,0,P|270:300|239:202,1,160,6|0,0:0|3:0,0:0:0:0:
173,156,197830,1,0,3:0:0:0:
118,224,198159,6,0,P|83:223|-3:213,2,120,4|0|8,0:0|0:0|0:0,0:0:0:0:
173,156,199478,2,0,P|208:155|294:145,2,120,2|0|8,0:0|0:0|0:0,0:0:0:0:
186,69,200797,6,0,P|232:66|277:61,1,79.9999999999999,2|8,0:0|0:0,0:0:0:0:
352,46,201456,2,0,P|394:51|445:52,1,79.9999999999999,2|8,0:0|0:0,0:0:0:0:
466,133,202115,2,0,P|427:194|425:293,1,160,2|2,0:0|0:0,0:0:0:0:
360,343,203104,1,8,0:0:0:0:
280,305,203434,6,0,L|111:294,1,160,4|2,0:0|0:0,0:0:0:0:
41,254,204423,1,8,0:0:0:0:
44,165,204753,2,0,L|129:171,1,79.9999999999999,4|8,0:0|0:0,0:0:0:0:
211,179,205412,2,0,P|210:137|197:100,1,79.9999999999999,2|8,0:0|0:0,0:0:0:0:
264,44,206071,6,0,P|312:57|395:38,1,120,4|4,0:0|0:0,0:0:0:0:
430,118,206896,1,0,0:0:0:0:
360,171,207225,2,0,L|373:325,1,120,4|8,0:0|0:0,0:0:0:0:
282,298,208049,2,0,L|269:135,1,160,8|0,0:0|3:0,0:0:0:0:
290,52,209038,1,4,0:0:0:0:
202,59,209368,6,0,P|146:57|27:46,2,160,2|2|0,0:0|0:0|3:0,0:0:0:0:
249,133,211017,1,0,3:0:0:0:
272,217,211346,6,0,P|265:260|264:302,2,79.9999999999999,4|8|2,0:0|0:0|0:0,0:0:0:0:
333,154,212335,1,8,0:0:0:0:
360,70,212665,2,0,P|289:32|201:44,1,160,0|2,0:0|0:0,0:0:0:0:
124,32,213654,1,8,3:2:0:0:
54,86,213984,6,0,P|62:133|76:187,1,79.9999999999999,4|8,0:0|0:0,0:0:0:0:
10,229,214643,2,0,P|50:252|95:269,1,79.9999999999999,8|8,0:0|0:0,0:0:0:0:
144,325,215302,2,0,P|165:287|181:237,1,79.9999999999999,4|8,0:0|0:0,0:0:0:0:
264,232,215962,2,0,P|253:206|221:155,1,79.9999999999999,8|8,0:0|0:0,0:0:0:0:
260,80,216621,6,0,P|223:77|180:70,2,79.9999999999999,4|8|8,0:0|0:0|0:0,0:0:0:0:
341,45,217610,1,8,0:0:0:0:
392,116,217940,2,0,P|434:111|482:108,2,79.9999999999999,4|8|8,0:0|0:0|0:0,0:0:0:0:
328,177,218929,1,8,0:0:0:0:
292,257,219258,6,0,P|296:303|285:344,1,79.9999999999999,6|10,0:0|0:0,0:0:0:0:
211,292,219918,2,0,P|178:315|132:323,1,79.9999999999999,10|10,0:0|0:0,0:0:0:0:
142,235,220577,2,0,P|110:222|68:191,1,79.9999999999999,6|10,0:0|0:0,0:0:0:0:
1,145,221236,2,0,P|34:115|80:97,1,79.9999999999999,10|10,0:0|0:0,0:0:0:0:
121,31,221896,6,0,L|203:66,1,79.9999999999999,10|8,0:0|0:0,0:0:0:0:
282,58,222555,2,0,L|355:26,1,79.9999999999999,10|8,0:0|0:0,0:0:0:0:
433,68,223214,1,8,0:0:0:0:
256,192,224533,6,0,P|250:251|247:311,2,120,6|6|2,0:0|0:0|0:0,0:0:0:0:
334,151,225852,2,0,P|339:91|342:31,2,120,6|6|4,0:0|0:0|0:0,0:0:0:0:
351,238,227170,2,0,P|414:226|461:253,1,120,6|6,0:0|0:0,0:0:0:0:
397,314,227995,1,4,0:0:0:0:
312,337,228324,2,0,P|255:325|174:373,1,120,4|6,0:0|0:0,0:0:0:0:
110,349,229148,2,0,P|107:313|105:259,1,79.9999999999999,6|6,0:0|0:0,0:0:0:0:
136,186,229808,6,0,P|92:185|-14:179,2,120,4|4|4,0:0|0:0|0:0,0:0:0:0:
171,105,231126,2,0,P|236:108|307:109,1,120,4|4,0:0|0:0,0:0:0:0:
398,32,232115,1,4,0:0:0:0:
473,78,232445,6,0,P|479:132|462:221,1,120,6|6,0:0|0:0,0:0:0:0:
409,362,233599,2,0,L|231:347,1,160,6|2,0:0|0:0,0:0:0:0:
216,266,234588,1,0,0:0:0:0:
230,179,234918,6,0,P|191:181|131:241,1,120,4|8,0:0|0:0,0:0:0:0:
69,172,235742,2,0,P|69:139|63:55,1,79.9999999999999,2|8,0:0|0:0,0:0:0:0:
145,54,236401,2,0,P|189:56|233:53,1,79.9999999999999,4|8,0:0|0:0,0:0:0:0:
265,131,237060,2,0,P|309:129|353:132,1,79.9999999999999,2|8,0:0|0:0,0:0:0:0:
429,156,237720,6,0,P|364:176|331:275,1,160,4|2,0:0|0:0,0:0:0:0:
219,330,238874,2,0,P|221:261|216:165,1,160,4|8,0:0|0:0,0:0:0:0:
189,86,239863,1,0,0:0:0:0:
135,14,240192,6,0,P|86:52|73:153,1,160,4|4,0:0|0:0,0:0:0:0:
283,201,241676,2,0,L|435:208,1,120,4|4,0:0|0:0,0:0:0:0:
212,96,242995,6,0,L|60:103,1,120,4|4,0:0|0:0,0:0:0:0:
251,253,244313,2,0,P|308:243|393:278,2,120,4|4|0,0:0|0:0|3:0,0:0:0:0:
99,343,245962,1,4,0:0:0:0:
256,192,246126,12,0,250907,0:0:0:0:
