osu file format v14

[General]
AudioFilename: 01..mp3
AudioLeadIn: 0
PreviewTime: 53742
Countdown: 0
SampleSet: Soft
StackLeniency: 0.7
Mode: 0
LetterboxInBreaks: 0
WidescreenStoryboard: 0

[Editor]
Bookmarks: 666,11215,32314,54731,98248,122313,159236,198137
DistanceSpacing: 1.1
BeatDivisor: 2
GridSize: 4
TimelineZoom: 1.7

[Metadata]
Title:Sayonara Usotsuki
TitleUnicode:サヨナラ嘘ツキ
Artist:mimimemeMIMI
ArtistUnicode:みみめめMIMI
Creator:Mikii
Version:Collab Normal
Source:Blade & Soul
Tags:and ブレイドアンドソウル opening full unison square garden yuki takao タカオユキ professionalbox kibbleru fuccho evilelvis toybot
BeatmapID:1095535
BeatmapSetID:395359

[Difficulty]
HPDrainRate:3
CircleSize:3.5
OverallDifficulty:4
ApproachRate:5
SliderMultiplier:0.799999999999999
SliderTickRate:1

[Events]
//Background and Video events
0,0,"204743-52411.jpg",0,0
//Break Periods
2,90358,96905
2,143634,152784
2,187810,191566
//Storyboard Layer 0 (Background)
//Storyboard Layer 1 (Fail)
//Storyboard Layer 2 (Pass)
//Storyboard Layer 3 (Foreground)
//Storyboard Sound Samples

[TimingPoints]
-631,329.67032967033,4,2,2,40,1,0
5136,-100,4,2,1,50,0,0
5468,-100,4,2,1,60,0,0
5797,-100,4,2,1,70,0,0
11237,-100,4,2,2,40,0,0
21457,-100,4,2,2,45,0,0
21786,-100,4,2,1,50,0,0
32336,-100,4,2,1,40,0,0
40248,-100,4,2,1,40,0,0
42885,-100,4,2,1,40,0,0
48160,-100,4,2,1,50,0,0
51951,-100,4,2,1,60,0,0
54753,-100,4,2,1,70,0,1
62666,-100,4,2,1,70,0,1
63819,-100,4,2,1,70,0,1
70578,-100,4,2,1,80,0,1
74533,-100,4,2,1,80,0,0
75852,-100,4,2,2,70,0,0
86237,-100,4,2,1,40,0,0
87720,-100,4,2,2,40,0,0
90358,329.67032967033,3,2,2,40,1,0
98270,-100,3,2,2,40,0,0
104204,-100,3,2,2,40,0,0
105193,329.67032967033,4,2,2,40,1,0
107171,-100,4,2,1,40,0,0
107500,-100,4,2,1,40,0,0
107830,-100,4,2,1,50,0,0
115742,-100,4,2,1,60,0,0
122335,-100,4,2,1,70,0,1
138160,-100,4,2,1,80,0,1
142445,-100,4,2,1,70,0,1
142775,-100,4,2,1,60,0,1
143105,-100,4,2,1,50,0,1
143434,-100,4,2,1,40,0,0
153984,-100,4,2,2,40,0,0
159258,-100,4,2,1,40,0,0
159918,-100,4,2,1,50,0,0
160577,-100,4,2,1,60,0,0
161236,-100,4,2,1,70,0,0
164533,-100,4,2,1,60,0,0
168324,-100,4,2,1,70,0,0
169808,-100,4,2,1,60,0,0
181017,329.67032967033,4,2,1,50,1,0
184643,-100,4,2,1,40,0,0
192885,-100,4,2,1,40,0,0
194203,-100,4,2,1,50,0,0
195522,-100,4,2,1,60,0,0
197170,-100,4,2,1,60,0,0
198159,-100,4,2,1,70,0,1
213984,-100,4,2,1,80,0,1
223214,-100,4,2,1,60,0,0
224451,-100,4,2,2,70,0,0
234918,-100,4,2,1,70,0,0
250742,-100,4,2,1,40,0,0

[Colours]
Combo1 : 220,35,183
Combo2 : 162,162,162
Combo3 : 0,147,255
Combo4 : 128,128,255

[HitObjects]
56,188,358,6,0,L|52:130,1,40,2|2,0:0|0:0,0:0:0:0:
48,104,688,2,0,B|116:102|96:143|175:137,1,120,10|2,0:0|0:0,0:0:0:0:
287,105,1677,2,0,L|355:93,1,40,2|0,0:0|0:0,0:0:0:0:
357,129,2006,2,0,P|350:195|345:280,2,120,10|10|2,0:0|0:0|0:0,0:0:0:0:
372,87,3160,1,0,0:0:0:0:
372,87,3325,6,0,P|450:54|481:68,1,120,10|8,0:0|0:0,0:0:0:0:
484,153,4149,1,2,0:0:0:0:
412,203,4479,1,2,0:0:0:0:
412,203,4644,2,0,P|370:194|318:196,1,79.9999999999999,0|2,0:0|0:0,0:0:0:0:
290,206,5138,1,2,0:0:0:0:
254,125,5468,1,2,0:0:0:0:
177,175,5797,6,0,B|134:198|134:198|64:178,1,120,4|8,0:0|0:0,0:0:0:0:
25,158,6457,2,0,L|31:255,1,79.9999999999999,0|2,0:0|0:0,0:0:0:0:
25,281,6951,1,8,0:0:0:0:
112,272,7281,2,0,P|170:265|252:257,2,120,4|0|8,0:0|0:0|0:0,0:0:0:0:
143,354,8600,6,0,L|245:345,1,79.9999999999999,4|8,0:0|0:0,0:0:0:0:
266,342,9094,1,4,0:0:0:0:
313,268,9424,1,2,0:0:0:0:
364,339,9753,2,0,P|403:341|457:318,1,79.9999999999999,4|0,0:0|0:0,0:0:0:0:
471,295,10248,1,8,0:0:0:0:
471,295,10413,2,0,L|462:154,1,120,0|0,0:0|3:0,0:0:0:0:
461,131,11072,6,0,P|434:128|391:125,1,40,0|2,0:0|0:0,0:0:0:0:
348,176,11567,1,8,0:0:0:0:
274,128,11896,1,2,0:0:0:0:
152,179,12391,1,2,0:0:0:0:
152,179,12556,2,0,P|116:179|54:149,2,79.9999999999999,2|10|2,0:0|0:0|0:0,0:0:0:0:
239,165,13545,2,0,L|234:234,1,40,10|0,0:0|0:0,0:0:0:0:
245,247,13874,6,0,P|202:250|157:280,1,79.9999999999999,2|2,0:0|0:0,0:0:0:0:
100,321,14534,1,2,0:0:0:0:
175,365,14863,1,8,0:0:0:0:
256,331,15193,2,0,P|314:326|385:319,1,120,2|2,0:0|0:0,0:0:0:0:
418,330,15852,2,0,L|426:278,2,40,0|2|8,0:0|0:0|0:0,0:0:0:0:
338,291,16512,6,0,P|324:232|326:151,1,120,2|0,0:0|0:0,0:0:0:0:
358,146,17171,1,2,0:0:0:0:
228,173,17666,1,0,0:0:0:0:
228,173,17830,2,0,L|76:167,1,120,2|0,0:0|0:0,0:0:0:0:
64,163,18490,2,0,P|55:141|54:119,1,40,2|2,0:0|0:0,0:0:0:0:
76,87,18819,2,0,P|85:65|86:43,1,40,8|2,0:0|0:0,0:0:0:0:
69,7,19149,5,0,0:0:0:0:
307,202,20303,1,2,0:0:0:0:
307,202,20468,2,0,P|370:189|467:282,1,200,0|0,0:0|3:0,0:0:0:0:
469,315,21457,1,8,3:2:0:0:
396,363,21786,6,0,B|342:349|342:349|290:369|290:369|231:357,1,160,4|2,0:0|0:0,0:0:0:0:
170,309,22775,2,0,P|143:305|110:314,1,40,8|0,0:0|0:0,0:0:0:0:
89,322,23105,2,0,L|95:209,2,79.9999999999999,2|8|2,0:0|0:0|0:0,0:0:0:0:
9,283,24094,1,8,0:0:0:0:
16,195,24424,6,0,P|56:159|106:156,1,79.9999999999999,2|8,0:0|0:0,0:0:0:0:
124,155,24918,1,0,0:0:0:0:
160,179,25083,2,0,P|233:182|268:159,1,79.9999999999999,2|8,0:0|0:0,0:0:0:0:
316,140,25742,2,0,L|307:50,2,79.9999999999999,2|8|2,0:0|0:0|0:0,0:0:0:0:
376,204,26731,2,0,P|398:207|437:196,1,40,8|0,0:0|0:0,0:0:0:0:
459,197,27061,6,0,P|447:259|448:321,1,120,2|0,0:0|0:0,0:0:0:0:
454,359,27720,1,2,0:0:0:0:
367,340,28050,2,0,L|305:344,1,40,8|0,0:0|0:0,0:0:0:0:
282,343,28380,2,0,B|299:289|299:289|272:210,1,120,2|0,0:0|0:0,0:0:0:0:
251,194,29039,2,0,L|182:188,1,40,2|2,0:0|0:0,0:0:0:0:
175,217,29369,2,0,L|135:220,1,40,8|0,0:0|0:0,0:0:0:0:
91,220,29698,6,0,P|71:172|83:120,1,79.9999999999999,2|12,0:0|0:0,0:0:0:0:
89,103,30193,1,0,0:0:0:0:
89,103,30358,2,0,L|181:96,1,79.9999999999999,2|8,0:0|0:0,0:0:0:0:
238,42,31017,6,0,P|258:90|246:142,1,79.9999999999999,2|4,0:0|0:0,0:0:0:0:
242,159,31512,1,0,0:0:0:0:
242,159,31677,2,0,L|321:165,1,79.9999999999999,0|8,3:0|0:0,0:0:0:0:
354,135,32171,1,0,0:0:0:0:
354,135,32336,6,0,L|359:15,2,120,2|0|2,0:0|0:0|0:0,0:0:0:0:
371,175,33490,1,8,0:0:0:0:
313,241,33819,1,0,0:0:0:0:
360,315,34149,2,0,P|316:329|245:295,1,120,0|2,0:0|0:0,0:0:0:0:
205,225,34973,5,2,0:0:0:0:
205,225,35138,2,0,L|132:228,2,40,0|0|0,0:0|0:0|0:0,0:0:0:0:
248,219,35633,2,0,P|243:178|237:118,1,79.9999999999999,0|0,0:0|0:0,0:0:0:0:
233,95,36127,1,8,0:0:0:0:
150,126,36457,1,0,0:0:0:0:
71,86,36786,2,0,L|65:199,1,79.9999999999999,0|0,0:0|0:0,0:0:0:0:
84,206,37281,2,0,L|85:258,1,40,2|0,0:0|0:0,0:0:0:0:
67,286,37611,5,2,0:0:0:0:
179,354,38105,1,0,0:0:0:0:
179,354,38270,2,0,P|197:358|244:348,1,40,2|8,0:0|0:0,0:0:0:0:
259,339,38600,2,0,P|277:335|324:345,1,40,2|0,0:0|0:0,0:0:0:0:
339,352,38929,1,4,0:0:0:0:
410,301,39259,1,2,0:0:0:0:
348,237,39589,2,0,L|353:129,1,79.9999999999999,2|2,0:0|0:0,0:0:0:0:
405,87,40248,6,0,P|356:68|280:115,1,120,2|0,0:0|0:0,0:0:0:0:
263,121,40907,1,0,0:0:0:0:
153,194,41402,1,2,0:0:0:0:
153,194,41567,2,0,L|156:104,2,79.9999999999999,6|8|6,0:0|0:0|0:0,0:0:0:0:
163,281,42556,2,0,P|137:283|98:259,1,40,8|0,0:0|0:0,0:0:0:0:
84,260,42885,6,0,P|88:326|92:387,2,120,4|0|2,0:0|0:0|0:0,0:0:0:0:
74,216,44039,1,2,0:0:0:0:
125,144,44369,1,0,0:0:0:0:
198,191,44698,2,2,P|250:196|314:163,1,120,0|2,0:0|0:0,0:0:0:0:
339,134,45358,1,2,0:0:0:0:
339,134,45523,6,2,L|345:33,2,79.9999999999999,0|0|2,0:0|0:0|0:0,0:0:0:0:
401,196,46512,1,0,0:0:0:0:
401,196,46677,2,0,L|412:306,2,79.9999999999999,0|0|0,0:0|0:0|0:0,0:0:0:0:
465,136,47666,1,0,3:0:0:0:
465,136,47830,2,0,L|468:78,1,40,0|8,3:0|3:0,3:3:0:0:
470,51,48160,6,0,P|401:55|329:59,1,120,6|0,0:0|0:0,0:0:0:0:
306,53,48819,2,0,L|311:113,1,40,2|2,0:0|0:0,0:0:0:0:
324,134,49149,2,0,L|319:194,1,40,8|0,0:0|0:0,0:0:0:0:
311,217,49479,6,0,L|174:208,1,120,6|0,0:0|0:0,0:0:0:0:
148,198,50138,2,0,P|136:156|138:140,1,40,2|2,0:0|0:0,0:0:0:0:
138,116,50468,2,0,P|150:74|148:58,1,40,8|0,0:0|0:0,0:0:0:0:
138,35,50797,6,0,P|72:24|22:162,1,240,4|8,0:0|0:0,0:0:0:0:
52,189,51951,2,0,P|76:238|74:288,1,79.9999999999999,4|0,0:0|0:0,0:0:0:0:
68,306,52446,2,0,L|0:300,2,40,8|2|8,0:0|0:0|0:2,0:0:0:0:
97,338,52940,1,2,0:0:0:0:
97,338,53105,2,0,L|172:333,1,40,10|2,0:0|0:0,0:0:0:0:
178,319,53435,2,0,L|217:321,1,40,12|8,0:0|0:0,0:0:0:0:
261,326,53764,5,0,0:0:0:0:
266,238,54094,1,0,0:0:0:0:
271,150,54424,1,0,3:0:0:0:
348,191,54753,6,0,P|414:205|482:191,2,120,4|0|8,0:0|0:0|0:0,0:0:0:0:
271,150,56072,2,0,L|170:156,1,79.9999999999999,2|8,0:0|0:0,0:0:0:0:
146,156,56567,2,0,B|126:118|126:118|139:53,1,79.9999999999999,0|2,0:0|0:0,0:0:0:0:
144,39,57061,1,8,0:0:0:0:
144,39,57226,6,0,L|251:33,1,79.9999999999999,0|0,0:0|0:0,0:0:0:0:
264,51,57720,2,0,L|316:54,1,40,8|0,0:0|0:0,0:0:0:0:
344,36,58050,2,0,L|397:38,1,40,2|2,0:0|0:0,0:0:0:0:
427,46,58380,1,8,0:0:0:0:
436,133,58709,6,0,P|423:179|426:240,1,79.9999999999999,2|8,0:0|0:0,0:0:0:0:
462,228,59204,2,0,P|484:276|483:332,1,79.9999999999999,0|2,0:0|0:0,0:0:0:0:
452,330,59698,2,0,L|398:325,1,40,8|0,0:0|0:0,0:0:0:0:
387,289,60028,6,0,P|318:293|269:378,1,160,4|2,0:0|0:0,0:0:0:0:
191,321,61017,2,0,L|187:254,1,40,8|0,0:0|0:0,0:0:0:0:
168,241,61347,2,0,P|107:247|48:219,2,120,4|0|8,0:0|0:0|0:0,0:0:0:0:
193,204,62501,1,0,0:0:0:0:
193,204,62666,6,0,L|185:111,1,79.9999999999999,4|8,0:0|0:0,0:0:0:0:
193,80,63160,2,0,B|254:97|254:97|322:55,1,120,6|8,0:0|0:0,0:0:0:0:
333,35,63819,2,0,L|485:40,1,120,6|8,0:0|0:0,0:0:0:0:
497,43,64479,1,0,0:0:0:0:
466,125,64808,1,0,0:0:0:0:
466,125,64973,2,0,L|472:182,1,40,8|0,3:2|3:0,0:0:0:0:
477,208,65303,5,2,0:0:0:0:
395,242,65633,2,0,L|323:236,1,40,4|0,0:0|0:0,0:0:0:0:
312,229,65962,2,0,L|321:318,1,79.9999999999999,2|8,0:0|0:0,0:0:0:0:
323,352,66457,2,0,P|267:332|197:346,1,120,2|8,0:0|0:0,0:0:0:0:
168,358,67116,1,0,0:0:0:0:
128,376,67281,2,0,P|112:372|88:368,1,40,2|2,0:0|0:0,0:0:0:0:
51,343,67611,2,0,L|-1:331,1,40,8|0,0:0|0:0,0:0:0:0:
24,291,67940,6,0,P|25:244|15:195,1,79.9999999999999,2|8,0:0|0:0,0:0:0:0:
53,129,68600,2,0,L|114:135,1,40,2|2,0:0|0:0,0:0:0:0:
136,139,68929,1,8,0:0:0:0:
136,139,69094,2,0,B|120:80|120:80|146:15,1,120,4|8,0:0|0:0,0:0:0:0:
185,20,69753,2,0,L|322:29,1,120,0|8,0:0|3:2,3:3:0:0:
379,75,70578,6,0,P|389:113|384:163,1,79.9999999999999,4|8,0:0|0:0,0:0:0:0:
340,228,71237,2,0,L|252:220,1,79.9999999999999,8|8,0:0|0:0,0:0:0:0:
216,228,71731,1,2,0:0:0:0:
216,228,71896,2,0,P|206:266|211:316,1,79.9999999999999,4|8,0:0|0:0,0:0:0:0:
282,355,72556,2,0,L|370:363,1,79.9999999999999,8|8,0:0|0:0,0:0:0:0:
448,347,73215,6,0,P|466:280|441:168,1,160,4|8,0:0|0:0,0:0:0:0:
410,114,74204,1,8,0:0:0:0:
338,61,74534,2,0,B|253:26|253:99|166:59,1,160,8|0,0:0|0:0,0:0:0:0:
110,16,75523,1,0,3:0:0:0:
110,16,75852,6,2,P|96:55|111:121,1,79.9999999999999,4|2,0:0|0:0,0:0:0:0:
125,128,76347,2,0,P|139:167|124:233,1,79.9999999999999,4|0,0:0|0:0,0:0:0:0:
120,246,76841,2,0,L|57:238,1,40,2|0,0:0|0:0,0:0:0:0:
36,232,77171,2,0,L|46:344,1,79.9999999999999,6|2,0:0|0:0,0:0:0:0:
51,355,77666,2,0,B|90:338|90:338|153:355,1,79.9999999999999,4|0,0:0|0:0,0:0:0:0:
166,365,78160,2,0,P|190:368|218:361,1,40,2|0,0:0|0:0,0:0:0:0:
244,345,78490,6,0,L|234:247,1,79.9999999999999,6|0,0:0|0:0,0:0:0:0:
234,221,78984,2,0,P|271:204|330:209,1,79.9999999999999,6|2,0:0|0:0,0:0:0:0:
352,215,79479,1,0,0:0:0:0:
352,215,79644,2,0,B|373:163|373:163|351:92,1,120,4|2,0:0|0:0,0:0:0:0:
336,61,80303,2,0,L|250:62,1,79.9999999999999,4|0,0:0|0:0,0:0:0:0:
212,64,80797,2,0,L|219:130,1,40,6|0,0:0|0:0,0:0:0:0:
217,148,81127,6,0,P|156:154|86:124,2,120,6|6|2,0:0|0:0|0:0,0:0:0:0:
256,129,82281,1,0,0:0:0:0:
256,129,82446,2,0,P|299:129|350:135,1,79.9999999999999,6|0,0:0|0:0,0:0:0:0:
373,154,82940,2,0,P|412:155|476:148,1,79.9999999999999,6|0,0:0|0:0,0:0:0:0:
498,147,83435,2,0,L|490:223,1,40,2|0,0:0|0:0,0:0:0:0:
490,230,83764,6,0,L|501:364,2,120,6|6|0,0:0|0:0|0:0,0:0:0:0:
446,234,84918,2,0,P|390:251|312:230,1,120,6|0,0:0|0:0,0:0:0:0:
296,211,85578,1,2,0:0:0:0:
303,123,85907,1,2,0:0:0:0:
370,66,86237,6,0,P|331:36|247:54,1,120,4|2,0:0|0:0,0:0:0:0:
228,68,86896,1,2,0:0:0:0:
200,102,87061,2,0,P|149:125|111:118,1,79.9999999999999,2|0,0:0|0:0,0:0:0:0:
42,95,87720,2,0,L|37:198,1,79.9999999999999,2|0,0:0|0:0,0:0:0:0:
108,228,88380,2,0,L|113:331,1,79.9999999999999,2|0,0:0|0:0,0:0:0:0:
55,375,89039,5,0,0:0:0:0:
36,68,98105,5,0,0:0:0:0:
36,68,98270,2,0,P|91:68|167:58,1,120,4|0,0:0|0:0,0:0:0:0:
198,51,98929,2,0,L|193:117,1,40,8|0,0:0|0:0,0:0:0:0:
191,135,99259,1,0,0:0:0:0:
255,194,99588,1,8,0:0:0:0:
336,161,99918,2,0,L|397:156,1,40,8|0,0:0|0:0,0:0:0:0:
419,151,100248,6,0,L|410:283,1,120,0|0,0:0|0:0,0:0:0:0:
407,314,100907,2,0,L|354:308,1,40,8|0,0:0|0:0,0:0:0:0:
324,297,101237,2,0,P|254:298|200:332,1,120,0|0,0:0|0:0,0:0:0:0:
180,352,101896,1,8,0:0:0:0:
180,352,102061,1,0,0:0:0:0:
180,352,102226,6,0,B|130:368|130:368|55:338,1,120,0|0,0:0|0:0,0:0:0:0:
36,311,102885,2,0,L|41:242,1,40,8|0,0:0|0:0,0:0:0:0:
58,231,103215,2,0,L|58:117,1,79.9999999999999,0|8,0:0|0:0,0:0:0:0:
64,107,103709,1,0,0:0:0:0:
64,107,103874,2,0,P|94:113|141:114,1,40,8|0,0:0|0:0,0:0:0:0:
147,119,104204,6,0,P|146:82|143:28,2,79.9999999999999,2|10|10,0:0|0:0|0:0,0:0:0:0:
199,189,105193,2,0,P|235:178|305:180,1,79.9999999999999,2|10,0:0|0:0,0:0:0:0:
361,201,105852,1,10,0:0:0:0:
348,113,106182,2,0,L|344:60,1,40,2|0,0:0|0:0,0:0:0:0:
340,29,106511,6,0,L|268:20,2,40,0|0|0,0:0|0:0|0:0,0:0:0:0:
382,43,107006,2,0,P|438:51|499:22,1,120,0|8,0:0|3:2,3:3:0:0:
510,112,107830,6,0,L|504:203,1,79.9999999999999,4|8,0:0|0:0,0:0:0:0:
500,235,108324,1,0,0:0:0:0:
500,235,108489,2,0,P|457:228|385:226,1,79.9999999999999,2|8,0:0|0:0,0:0:0:0:
376,231,108984,1,0,0:0:0:0:
384,318,109313,1,0,0:0:0:0:
314,371,109643,2,0,P|255:374|187:357,1,120,0|8,0:0|0:0,0:0:0:0:
162,332,110302,1,0,0:0:0:0:
162,332,110467,6,0,L|169:224,1,79.9999999999999,2|8,0:0|0:0,0:0:0:0:
170,207,110962,1,0,0:0:0:0:
170,207,111127,2,0,L|72:209,1,79.9999999999999,2|8,0:0|0:0,0:0:0:0:
57,179,111621,2,0,P|39:140|45:72,2,79.9999999999999,0|0|2,0:0|0:0|0:0,0:0:0:0:
124,122,112610,1,0,0:0:0:0:
124,122,112775,2,0,L|182:124,1,40,8|0,3:2|3:0,0:0:0:0:
207,130,113105,6,0,B|250:124|250:124|284:137|284:137|352:124,1,120,4|0,0:0|0:0,0:0:0:0:
366,119,113764,2,0,L|370:57,2,40,2|2|8,0:0|0:0|3:2,0:0:0:0:
394,152,114258,1,0,3:2:0:0:
394,152,114423,6,0,L|403:276,1,120,4|0,3:2|0:0,0:0:0:0:
404,315,115083,2,0,L|344:310,1,40,2|2,0:0|0:0,0:0:0:0:
320,307,115412,2,0,L|280:310,1,40,8|0,0:0|0:0,0:0:0:0:
235,311,115742,6,0,L|241:206,2,79.9999999999999,12|8|8,0:0|0:0|0:0,0:0:0:0:
196,331,116566,1,2,0:0:0:0:
196,331,116731,1,8,0:0:0:0:
196,331,116896,2,0,P|126:339|59:302,1,120,4|8,0:0|0:0,0:0:0:0:
53,286,117555,1,2,0:0:0:0:
53,286,117720,2,0,L|49:213,1,40,8|2,0:0|0:0,0:0:0:0:
57,202,118050,2,0,L|61:129,1,40,8|2,0:0|0:0,0:0:0:0:
46,119,118379,5,4,0:0:0:0:
46,119,118544,1,0,0:0:0:0:
46,119,118709,2,0,L|41:49,1,40,8|2,0:0|0:0,0:0:0:0:
60,38,119039,2,0,L|166:45,1,79.9999999999999,8|8,0:0|0:0,0:0:0:0:
183,49,119533,1,2,0:0:0:0:
183,49,119698,6,0,P|192:91|192:156,1,79.9999999999999,4|8,0:0|0:0,0:0:0:0:
188,171,120193,2,0,P|259:145|314:160,1,120,6|8,0:0|3:2,3:3:0:0:
339,173,120852,1,0,0:0:0:0:
379,344,121511,5,0,0:0:0:0:
379,344,121676,1,0,0:0:0:0:
379,344,121841,2,0,P|422:353|469:335,1,79.9999999999999,0|0,0:0|3:0,0:0:0:0:
482,308,122335,6,0,L|485:201,1,79.9999999999999,4|8,0:0|0:0,0:0:0:0:
482,183,122830,2,0,L|337:188,1,120,0|8,0:0|0:0,0:0:0:0:
281,152,123654,2,0,P|264:94|277:41,1,79.9999999999999,2|8,0:0|0:0,0:0:0:0:
274,31,124149,2,0,L|135:25,1,120,0|8,0:0|0:0,0:0:0:0:
110,24,124808,6,0,P|114:64|119:113,1,79.9999999999999,0|0,0:0|0:0,0:0:0:0:
132,145,125302,2,0,L|129:199,1,40,8|0,0:0|0:0,0:0:0:0:
108,223,125632,2,0,L|112:278,1,40,2|2,0:0|0:0,0:0:0:0:
124,305,125962,1,8,0:0:0:0:
124,305,126127,1,0,0:0:0:0:
124,305,126291,6,0,P|164:317|232:308,1,79.9999999999999,2|8,0:0|0:0,0:0:0:0:
244,304,126786,2,0,P|321:300|361:323,1,120,0|8,0:0|0:0,0:0:0:0:
388,349,127445,1,0,0:0:0:0:
388,349,127610,6,0,L|395:238,2,79.9999999999999,4|8|2,0:0|0:0|0:0,0:0:0:0:
472,322,128599,2,0,L|477:258,1,40,8|0,0:0|0:0,0:0:0:0:
474,237,128929,2,0,P|446:199|358:190,1,120,4|0,0:0|0:0,0:0:0:0:
335,196,129588,1,2,0:0:0:0:
271,257,129918,1,8,0:0:0:0:
237,175,130247,6,0,L|230:49,2,120,4|4|8,0:0|0:0|0:0,0:0:0:0:
197,193,131401,2,0,P|154:189|94:183,1,79.9999999999999,4|0,0:0|0:0,0:0:0:0:
73,176,131896,1,8,0:0:0:0:
73,176,132061,1,0,0:0:0:0:
37,256,132390,1,0,0:0:0:0:
37,256,132555,2,0,L|45:322,1,40,0|0,3:0|3:0,3:3:0:0:
48,339,132885,5,0,3:0:0:0:
133,317,133214,2,0,P|153:317|194:331,1,40,4|0,0:0|0:0,0:0:0:0:
211,342,133544,2,0,L|206:234,1,79.9999999999999,2|8,0:0|0:0,0:0:0:0:
242,235,134039,2,0,P|301:247|368:232,1,120,0|8,0:0|0:0,0:0:0:0:
395,211,134698,1,0,0:0:0:0:
395,211,134863,2,0,L|402:149,1,40,2|0,0:0|0:0,0:0:0:0:
375,134,135193,2,0,L|368:72,1,40,8|0,0:0|0:0,0:0:0:0:
379,51,135522,6,0,L|265:46,1,79.9999999999999,2|8,0:0|0:0,0:0:0:0:
217,13,136182,2,0,L|117:16,1,79.9999999999999,2|8,0:0|0:0,0:0:0:0:
94,25,136676,2,0,P|91:85|86:171,1,120,0|8,0:0|0:0,0:0:0:0:
80,188,137335,1,0,0:0:0:0:
80,188,137500,2,0,P|137:182|188:231,1,120,2|0,0:0|3:0,3:3:0:0:
203,258,138160,5,4,0:0:0:0:
276,210,138489,1,8,0:0:0:0:
343,266,138819,2,0,L|389:261,1,40,8|0,0:0|0:0,0:0:0:0:
426,255,139149,1,8,0:0:0:0:
426,255,139313,6,0,L|421:347,1,79.9999999999999,0|0,0:0|0:0,0:0:0:0:
412,378,139808,2,0,L|366:373,1,40,8|0,0:0|0:0,0:0:0:0:
328,366,140138,1,8,0:0:0:0:
260,309,140467,1,8,0:0:0:0:
260,309,140632,6,0,L|157:313,1,79.9999999999999
138,295,141127,2,0,P|132:258|132:248,1,40,8|0,0:0|0:0,0:0:0:0:
139,212,141456,2,0,P|145:175|145:165,1,40,8|0,0:0|3:0,0:0:0:0:
129,130,141786,2,0,P|123:93|123:83,1,40,8|8,3:2|3:2,0:0:0:0:
129,46,142116,5,8,3:2:0:0:
210,77,142445,1,8,3:2:0:0:
283,29,142775,2,0,L|379:38,1,79.9999999999999,8|8,3:2|0:0,0:0:0:0:
449,48,143434,5,4,0:0:0:0:
146,81,153984,6,0,P|211:71|233:81,1,79.9999999999999,2|0,0:0|0:0,0:0:0:0:
285,137,154643,2,0,P|274:201|274:221,1,79.9999999999999,2|0,0:0|0:0,0:0:0:0:
302,299,155302,2,0,P|347:314|378:310,1,79.9999999999999,2|0,0:0|0:0,0:0:0:0:
459,273,155962,1,2,0:0:0:0:
415,104,156621,6,0,L|321:108,1,79.9999999999999,2|0,0:0|0:0,0:0:0:0:
260,60,157280,2,0,P|199:40|171:48,1,79.9999999999999,2|0,0:0|0:0,0:0:0:0:
123,104,157940,2,0,L|115:195,1,79.9999999999999,2|0,0:0|0:0,0:0:0:0:
106,271,158599,1,2,0:0:0:0:
264,345,159258,5,4,0:0:0:0:
264,345,159588,2,0,L|269:254,1,79.9999999999999,2|2,0:0|0:0,0:0:0:0:
313,189,160247,1,2,0:0:0:0:
266,114,160577,2,0,P|228:100|176:109,1,79.9999999999999,2|2,0:0|0:0,0:0:0:0:
126,165,161236,2,0,L|36:170,1,79.9999999999999,2|2,0:0|0:0,0:0:0:0:
73,253,161896,6,0,P|132:259|170:310,1,120,6|0,0:0|0:0,0:0:0:0:
253,327,162720,1,2,0:0:0:0:
327,279,163050,2,0,P|364:285|412:289,1,79.9999999999999,4|4,0:0|0:0,0:0:0:0:
428,326,163544,1,4,0:0:0:0:
489,262,163874,2,0,L|484:213,1,40,0|0,3:0|3:0,0:0:0:0:
447,199,164203,2,0,L|442:150,1,40,0|0,3:0|3:0,0:0:0:0:
434,115,164533,6,0,P|386:120|346:99,1,79.9999999999999,4|8,0:0|0:0,0:0:0:0:
325,77,165028,1,0,0:0:0:0:
325,77,165193,2,0,L|236:85,1,79.9999999999999,2|8,0:0|0:0,0:0:0:0:
204,101,165687,2,0,P|197:142|197:191,1,79.9999999999999,2|0,0:0|0:0,0:0:0:0:
112,152,166346,2,0,P|119:111|119:62,1,79.9999999999999,2|2,0:0|0:0,0:0:0:0:
37,107,167006,6,0,P|24:166|32:232,1,120,0|8,0:0|0:0,0:0:0:0:
93,293,167830,2,0,L|81:350,2,40,2|2|8,0:0|3:2|3:2,0:0:0:0:
120,258,168324,5,4,0:0:0:0:
181,321,168654,1,4,0:0:0:0:
260,283,168984,1,4,0:0:0:0:
340,317,169313,1,0,0:0:0:0:
340,317,169478,2,0,L|383:314,1,40,0|0,3:0|3:0,0:0:0:0:
422,325,169808,6,0,P|419:288|416:232,1,79.9999999999999,4|8,0:0|0:0,0:0:0:0:
410,201,170302,2,0,P|442:184|488:175,2,79.9999999999999,0|0|0,0:0|0:0|0:0,0:0:0:0:
377,230,171127,1,4,0:0:0:0:
253,182,171621,2,0,P|249:141|241:101,2,79.9999999999999,0|2|0,0:0|0:0|0:0,0:0:0:0:
257,227,172445,6,0,L|248:321,1,79.9999999999999,4|8,0:0|0:0,0:0:0:0:
162,320,173105,2,0,L|171:226,1,79.9999999999999,2|8,0:0|0:0,0:0:0:0:
131,161,173764,2,0,L|45:149,1,79.9999999999999,2|8,0:0|0:0,0:0:0:0:
7,146,174258,1,0,0:0:0:0:
93,46,174753,2,0,L|149:56,1,40,0|0,3:0|3:0,3:3:0:0:
170,75,175083,6,0,P|211:71|265:66,1,79.9999999999999,4|8,0:0|0:0,0:0:0:0:
276,107,175577,2,0,P|312:124|363:114,1,79.9999999999999,0|0,0:0|0:0,0:0:0:0:
437,101,176236,2,0,P|430:139|427:187,1,79.9999999999999,0|0,0:0|0:0,0:0:0:0:
403,217,176731,2,0,L|411:269,1,40,8|0,0:0|0:0,0:0:0:0:
421,299,177061,1,2,0:0:0:0:
333,307,177390,2,0,L|320:349,1,40,8|0,0:0|0:0,0:0:0:0:
281,324,177720,6,0,L|194:305,1,79.9999999999999,2|8,0:0|0:0,0:0:0:0:
160,297,178214,1,0,0:0:0:0:
160,297,178379,2,0,P|118:308|73:315,1,79.9999999999999,2|8,0:0|0:0,0:0:0:0:
40,298,178874,1,0,0:0:0:0:
26,256,179039,6,0,P|35:194|87:172,1,120,4|0,0:0|0:0,0:0:0:0:
112,203,179698,2,0,P|174:194|238:176,1,120,8|8,0:0|0:0,0:0:0:0:
387,102,180852,5,2,0:0:0:0:
387,102,181017,2,0,P|366:143|372:187,1,79.9999999999999,4|8,0:0|0:0,0:0:0:0:
389,214,181511,1,0,0:0:0:0:
389,214,181676,2,0,L|481:229,1,79.9999999999999,2|8,0:0|0:0,0:0:0:0:
473,270,182170,1,0,0:0:0:0:
455,310,182335,2,0,L|359:295,1,79.9999999999999,2|8,0:0|0:0,0:0:0:0:
312,238,182995,2,0,P|288:265|276:323,1,79.9999999999999,2|8,0:0|0:0,0:0:0:0:
245,330,183489,1,0,0:0:0:0:
245,330,183654,6,0,P|202:319|155:308,1,79.9999999999999,4|8,0:0|0:0,0:0:0:0:
83,338,184313,1,2,0:0:0:0:
47,257,184643,1,0,3:0:0:0:
68,171,184973,5,4,0:0:0:0:
256,192,185137,12,0,187610,0:0:0:0:
315,248,192885,6,0,P|325:206|330:156,1,79.9999999999999,0|0,3:2|3:0,0:0:0:0:
272,104,193544,2,0,L|185:92,1,79.9999999999999,0|0,3:0|3:0,0:0:0:0:
153,73,194038,1,0,0:0:0:0:
153,73,194203,2,0,P|143:114|140:154,1,79.9999999999999,0|0,3:0|3:0,0:0:0:0:
61,191,194863,2,0,L|70:280,1,79.9999999999999,0|0,3:0|3:0,0:0:0:0:
102,299,195357,1,0,0:0:0:0:
102,299,195522,6,0,P|143:278|191:280,2,79.9999999999999,4|0|0,0:2|3:0|3:0,0:0:0:0:
162,362,196511,1,0,3:0:0:0:
245,335,196841,2,0,P|285:341|330:354,1,79.9999999999999,6|0,0:0|3:0,3:3:0:0:
408,329,197500,2,0,L|420:244,1,79.9999999999999,0|0,3:0|3:0,3:3:0:0:
448,166,198159,6,0,P|427:140|380:119,1,79.9999999999999,4|8,0:0|0:0,0:0:0:0:
349,145,198654,2,0,L|223:159,1,120,0|8,0:0|0:0,0:0:0:0:
157,108,199478,2,0,P|122:92|70:95,1,79.9999999999999,2|8,0:0|0:0,0:0:0:0:
44,116,199973,2,0,P|16:164|29:236,1,120,0|8,0:0|0:0,0:0:0:0:
42,265,200632,6,0,P|100:260|151:291,1,120,2|8,0:0|0:0,0:0:0:0:
232,326,201456,2,0,L|280:331,1,40,2|0,0:0|0:0,0:0:0:0:
309,307,201786,2,0,L|364:302,1,40,8|0,0:0|0:0,0:0:0:0:
392,306,202115,2,0,P|395:270|403:214,1,79.9999999999999,2|8,0:0|0:0,0:0:0:0:
473,176,202775,2,0,P|470:140|462:84,1,79.9999999999999,2|8,0:0|0:0,0:0:0:0:
423,80,203269,1,0,0:0:0:0:
423,80,203434,6,0,P|378:79|338:89,1,79.9999999999999,4|8,0:0|0:0,0:0:0:0:
315,120,203929,1,0,0:0:0:0:
315,120,204093,2,0,P|319:165|325:207,1,79.9999999999999,2|8,0:0|0:0,0:0:0:0:
246,241,204753,6,0,P|211:248|155:264,1,79.9999999999999,4|8,0:0|0:0,0:0:0:0:
92,305,205412,1,2,0:0:0:0:
50,227,205742,2,0,L|61:182,1,40,8|0,0:0|0:0,0:0:0:0:
95,163,206071,2,0,P|91:132|79:73,1,79.9999999999999,4|8,0:0|0:0,0:0:0:0:
58,46,206566,2,0,P|97:24|148:32,1,79.9999999999999,4|0,0:0|0:0,0:0:0:0:
180,97,207225,6,0,P|228:102|305:116,1,120,4|8,0:0|0:0,0:0:0:0:
380,82,208049,2,0,L|390:35,2,40,8|0|0,0:0|3:0|3:0,3:3:0:0:
403,112,208544,1,0,3:0:0:0:
403,112,208709,2,0,P|422:152|423:202,1,79.9999999999999,0|4,3:0|0:0,0:0:0:0:
410,274,209368,1,2,0:0:0:0:
410,274,209533,2,0,L|317:286,1,79.9999999999999,0|4,0:0|0:0,0:0:0:0:
197,280,210357,6,0,L|190:239,2,40,8|0|0,0:0|0:0|0:0,0:0:0:0:
170,315,210852,1,0,0:0:0:0:
170,315,211017,2,0,L|122:327,1,40,0|0,3:0|3:0,3:3:0:0:
89,338,211346,6,0,L|76:246,1,79.9999999999999,4|8,0:0|0:0,0:0:0:0:
43,178,212006,2,0,P|91:169|125:145,1,79.9999999999999,2|8,0:0|0:0,0:0:0:0:
134,112,212500,2,0,P|209:121|260:129,1,120,0|8,0:0|0:0,0:0:0:0:
325,178,213324,2,0,P|341:139|333:96,1,79.9999999999999,2|8,0:0|3:2,0:0:0:0:
357,62,213819,1,0,3:0:0:0:
357,62,213984,6,0,L|443:79,1,79.9999999999999,4|8,0:0|0:0,0:0:0:0:
434,165,214643,2,0,P|442:212|445:259,1,79.9999999999999,8|8,0:0|0:0,0:0:0:0:
416,327,215302,2,0,L|331:309,1,79.9999999999999,4|8,0:0|0:0,0:0:0:0:
269,253,215962,2,0,P|224:263|192:291,1,79.9999999999999,8|8,0:0|0:0,0:0:0:0:
179,323,216456,1,0,0:0:0:0:
179,323,216621,6,0,P|143:312|88:304,1,79.9999999999999,4|8,0:0|0:0,0:0:0:0:
52,232,217280,2,0,P|92:222|138:210,1,79.9999999999999,8|8,0:0|0:0,0:0:0:0:
210,176,217940,2,0,P|208:136|201:84,1,79.9999999999999,4|8,0:0|0:0,0:0:0:0:
268,37,218599,2,0,P|350:52|374:93,1,120,8|0,0:0|0:0,0:0:0:0:
356,120,219258,6,0,P|351:157|350:202,1,79.9999999999999,6|10,0:0|0:0,0:0:0:0:
417,256,219918,2,0,P|385:283|337:285,1,79.9999999999999,10|10,0:0|0:0,0:0:0:0:
316,317,220412,1,2,0:0:0:0:
316,317,220577,2,0,P|277:307|235:301,1,79.9999999999999,6|10,0:0|0:0,0:0:0:0:
164,253,221236,2,0,P|124:266|81:286,1,79.9999999999999,10|10,0:0|0:0,0:0:0:0:
63,317,221731,1,2,0:0:0:0:
63,317,221896,5,10,0:0:0:0:
36,233,222225,1,10,0:0:0:0:
106,180,222555,1,10,0:0:0:0:
172,238,222885,2,0,L|225:229,1,40,8|2,0:0|0:0,0:0:0:0:
254,224,223214,5,4,0:0:0:0:
249,161,224533,6,0,L|238:267,1,79.9999999999999,6|0,0:0|0:0,0:0:0:0:
271,273,225027,2,0,P|317:284|365:272,1,79.9999999999999,6|0,0:0|0:0,0:0:0:0:
382,250,225522,2,0,L|385:206,1,40,2|0,0:0|0:0,0:0:0:0:
400,168,225852,2,0,P|394:131|389:85,1,79.9999999999999,6|0,0:0|0:0,0:0:0:0:
409,48,226346,2,0,P|366:47|318:36,1,79.9999999999999,6|0,0:0|0:0,0:0:0:0:
288,23,226841,1,6,0:0:0:0:
280,110,227170,6,0,L|184:123,1,79.9999999999999,6|0,0:0|0:0,0:0:0:0:
159,135,227665,2,0,P|154:93|143:51,2,79.9999999999999,6|2|4,0:0|0:0|0:0,0:0:0:0:
129,218,228654,1,0,0:0:0:0:
129,218,228819,2,0,P|112:259|117:304,1,79.9999999999999,6|6,0:0|0:0,0:0:0:0:
199,271,229478,1,6,0:0:0:0:
264,330,229808,6,0,L|351:322,1,79.9999999999999,6|2,0:0|0:0,0:0:0:0:
388,322,230302,2,0,P|391:282|373:232,1,79.9999999999999,6|0,0:0|0:0,0:0:0:0:
338,228,230797,2,0,L|286:232,1,40,6|0,0:0|0:0,0:0:0:0:
254,236,231126,6,0,P|249:196|233:147,1,79.9999999999999,6|2,0:0|0:0,0:0:0:0:
234,113,231621,2,0,P|192:106|155:93,1,79.9999999999999,6|0,0:0|0:0,0:0:0:0:
115,78,232115,1,6,0:0:0:0:
74,156,232445,6,0,P|117:169|156:187,1,79.9999999999999,6|2,0:0|0:0,0:0:0:0:
179,215,232940,1,6,0:0:0:0:
246,158,233269,1,2,0:0:0:0:
325,196,233599,2,0,B|345:235|345:235|330:321,1,120,6|0,0:0|0:0,0:0:0:0:
324,353,234258,1,2,0:0:0:0:
242,318,234588,1,2,0:0:0:0:
160,350,234918,6,0,P|103:336|40:347,1,120,4|8,0:0|0:0,0:0:0:0:
42,257,235742,2,0,L|52:178,1,79.9999999999999,2|8,0:0|0:0,0:0:0:0:
42,90,236401,2,0,P|87:96|128:89,1,79.9999999999999,4|8,0:0|0:0,0:0:0:0:
177,23,237060,2,0,P|216:16|255:21,1,79.9999999999999,2|8,0:0|0:0,0:0:0:0:
289,51,237555,1,0,0:0:0:0:
289,51,237720,2,0,L|279:148,1,79.9999999999999,4|8,0:0|0:0,0:0:0:0:
359,169,238379,2,0,L|369:72,1,79.9999999999999,2|8,0:0|0:0,0:0:0:0:
405,66,238874,6,0,P|474:78|507:169,1,160,4|8,0:0|0:0,0:0:0:0:
469,232,239863,1,8,0:0:0:0:
412,165,240192,6,0,P|360:177|294:196,1,120,4|0,0:0|3:0,0:0:0:0:
251,199,240852,2,0,P|236:236|237:322,1,120,4|0,0:0|3:0,3:3:0:0:
153,347,241676,2,0,P|152:308|142:258,1,79.9999999999999,4|0,0:0|3:0,0:0:0:0:
109,241,242170,2,0,L|130:114,1,120,4|0,0:0|3:0,3:3:0:0:
215,107,242995,6,0,L|201:192,1,79.9999999999999,4|0,0:0|3:0,0:0:0:0:
224,223,243489,2,0,P|282:244|344:218,1,120,4|0,0:0|3:0,3:3:0:0:
389,158,244313,2,0,L|403:107,2,40,4|0|0,0:0|3:0|3:0,0:0:0:0:
424,184,244808,2,0,P|432:241|433:316,1,120,4|0,0:0|3:0,3:3:0:0:
256,192,245962,5,4,0:0:0:0:
256,192,246126,12,0,250907,0:0:0:0:
