osu file format v14

[General]
AudioFilename: 01..mp3
AudioLeadIn: 0
PreviewTime: 53742
Countdown: 0
SampleSet: Soft
StackLeniency: 0.7
Mode: 0
LetterboxInBreaks: 0
WidescreenStoryboard: 0

[Editor]
Bookmarks: 666,11215,32314,54731,98248,122313,159236,198137
DistanceSpacing: 1.1
BeatDivisor: 3
GridSize: 4
TimelineZoom: 1.7

[Metadata]
Title:Sayonara Usotsuki
TitleUnicode:サヨナラ嘘ツキ
Artist:mimimemeMIMI
ArtistUnicode:みみめめMIMI
Creator:Mikii
Version:Collab Hard
Source:Blade & Soul
Tags:and ブレイドアンドソウル opening full unison square garden yuki takao タカオユキ professionalbox kibbleru fuccho evilelvis toybot
BeatmapID:1047959
BeatmapSetID:395359

[Difficulty]
HPDrainRate:5
CircleSize:4
OverallDifficulty:6
ApproachRate:8
SliderMultiplier:1.5
SliderTickRate:1

[Events]
//Background and Video events
0,0,"204743-52411.jpg",0,0
//Break Periods
2,90358,97281
2,146272,153234
2,187610,191566
//Storyboard Layer 0 (Background)
//Storyboard Layer 1 (Fail)
//Storyboard Layer 2 (Pass)
//Storyboard Layer 3 (Foreground)
//Storyboard Sound Samples

[TimingPoints]
-631,329.67032967033,4,2,2,40,1,0
687,-133.333333333333,4,2,2,40,0,0
5136,-125,4,2,1,50,0,0
5468,-111.111111111111,4,2,1,60,0,0
5797,-100,4,2,1,70,0,0
11237,-133.333333333333,4,2,2,40,0,0
21457,-100,4,2,2,45,0,0
21786,-100,4,2,1,50,0,0
32336,-133.333333333333,4,2,1,40,0,0
40248,-100,4,2,1,40,0,0
40578,-100,4,2,1,40,0,0
42885,-133.333333333333,4,2,1,40,0,0
48160,-100,4,2,1,50,0,0
51951,-100,4,2,1,60,0,0
54753,-100,4,2,1,70,0,1
62666,-100,4,2,1,70,0,1
63819,-100,4,2,1,70,0,1
70578,-100,4,2,1,80,0,1
74533,-100,4,2,1,80,0,0
75852,-100,4,2,2,70,0,0
86237,-100,4,2,1,40,0,0
87720,-100,4,2,2,40,0,0
90358,329.67032967033,3,2,2,40,1,0
98270,-133.333333333333,3,2,2,40,0,0
104204,-117.647058823529,3,2,2,40,0,0
105193,329.67032967033,4,2,2,40,1,0
107171,-100,4,2,1,40,0,0
107500,-100,4,2,1,40,0,0
107830,-100,4,2,1,50,0,0
115742,-100,4,2,1,60,0,0
122335,-100,4,2,1,70,0,1
138160,-100,4,2,1,80,0,1
142445,-100,4,2,1,70,0,1
142775,-100,4,2,1,60,0,1
143105,-100,4,2,1,50,0,1
143434,-100,4,2,1,40,0,0
153984,-133.333333333333,4,2,2,40,0,0
159258,-100,4,2,1,40,0,0
159918,-100,4,2,1,50,0,0
160577,-100,4,2,1,60,0,0
161236,-100,4,2,1,70,0,0
164533,-100,4,2,1,60,0,0
168324,-100,4,2,1,70,0,0
169808,-100,4,2,1,60,0,0
181017,329.67032967033,4,2,1,50,1,0
184643,-100,4,2,1,40,0,0
192885,-133.333333333333,4,2,1,40,0,0
194203,-133.333333333333,4,2,1,50,0,0
195522,-133.333333333333,4,2,1,60,0,0
197170,-100,4,2,1,60,0,0
198159,-100,4,2,1,70,0,1
213984,-100,4,2,1,80,0,1
223214,-100,4,2,1,60,0,0
224451,-100,4,2,2,70,0,0
234918,-100,4,2,1,70,0,0
250742,-100,4,2,1,40,0,0

[Colours]
Combo1 : 220,35,183
Combo2 : 162,162,162
Combo3 : 0,147,255
Combo4 : 128,128,255

[HitObjects]
64,116,688,6,0,L|188:96,1,112.500004291535,10|0,0:0|0:0,0:0:0:0:
244,144,1182,2,0,P|220:192|216:260,1,112.500004291535,10|0,0:0|0:0,0:0:0:0:
276,308,1677,2,0,P|303:313|331:312,1,56.2500021457673,2|0,0:0|0:0,0:0:0:0:
432,248,2006,6,0,P|385:218|330:222,1,112.500004291535,10|0,0:0|0:0,0:0:0:0:
264,276,2501,2,0,L|140:296,1,112.500004291535,10|0,0:0|0:0,0:0:0:0:
76,255,2995,2,0,P|86:230|91:202,1,56.2500021457673,2|0,0:0|0:0,0:0:0:0:
76,120,3325,6,0,P|100:80|164:64,1,112.500004291535,10|0,0:0|0:0,0:0:0:0:
228,116,3819,2,0,L|212:188,1,56.2500021457673,10|0,0:0|0:0,0:0:0:0:
292,208,4149,2,0,L|304:153,1,56.2500021457673,2|0,0:0|0:0,0:0:0:0:
352,84,4479,6,0,L|468:68,1,112.500004291535,10|0,0:0|0:0,0:0:0:0:
492,148,4973,1,2,0:0:0:0:
416,280,5138,6,0,L|405:220,1,60,2|0,0:0|0:0,0:0:0:0:
292,208,5468,2,0,L|303:274,1,67.4999979400635,2|0,0:0|0:0,0:0:0:0:
208,344,5797,6,0,P|156:360|60:308,1,150,4|0,0:0|0:0,0:0:0:0:
48,244,6292,2,0,L|72:164,1,75,8|0,0:0|0:0,0:0:0:0:
52,92,6622,1,2,0:0:0:0:
112,36,6786,2,0,P|148:42|189:25,1,75,2|8,0:0|0:0,0:0:0:0:
268,28,7116,1,0,0:0:0:0:
404,104,7281,6,0,B|367:110|332:91|332:91|303:117|263:114,1,150,4|8,0:0|0:0,0:0:0:0:
344,184,7775,2,0,L|364:268,1,75,0|2,0:0|0:0,0:0:0:0:
352,340,8105,1,2,0:0:0:0:
272,360,8270,2,0,P|235:368|199:361,1,75,8|0,0:0|0:0,0:0:0:0:
36,268,8600,6,0,B|136:252|136:252|172:292,1,150,4|8,0:0|0:0,0:0:0:0:
232,236,9094,2,0,P|263:170|238:101,1,150,4|2,0:0|0:0,0:0:0:0:
168,56,9589,1,8,0:0:0:0:
316,36,9753,6,0,B|392:16|392:60|463:38,1,150,4|0,0:0|0:0,0:0:0:0:
500,112,10248,1,8,0:0:0:0:
468,196,10413,1,0,0:0:0:0:
384,200,10578,2,0,L|376:163,2,37.5,0|0|0,3:0|3:0|3:0,0:0:0:0:
320,272,10907,2,0,L|312:308,2,37.5,0|0|0,3:0|0:0|0:0,0:0:0:0:
271,203,11237,6,0,P|207:167|152:176,1,112.500004291535,2|8,0:0|0:0,0:0:0:0:
116,228,11731,1,2,0:0:0:0:
84,300,11896,2,0,P|87:318|89:334,2,28.1250010728836,2|0|0,0:0|0:0|0:0,0:0:0:0:
24,248,12226,2,0,L|32:192,1,56.2500021457673,8|2,0:0|0:0,0:0:0:0:
56,108,12556,6,0,L|0:114,1,56.2500021457673,2|0,0:0|0:0,0:0:0:0:
112,44,12885,2,0,L|167:37,1,56.2500021457673,10|0,0:0|0:0,0:0:0:0:
232,84,13215,2,0,P|272:116|348:108,1,112.500004291535,2|10,0:0|0:0,0:0:0:0:
392,64,13709,1,0,0:0:0:0:
448,120,13874,6,0,L|436:192,1,56.2500021457673,2|0,0:0|0:0,0:0:0:0:
447,256,14204,2,0,B|376:288|376:288|336:272,1,112.500004291535,8|2,0:0|0:0,0:0:0:0:
269,184,14698,2,0,P|266:211|263:239,1,56.2500021457673,0|2,0:0|0:0,0:0:0:0:
268,324,15028,1,2,0:0:0:0:
192,352,15193,5,0,0:0:0:0:
128,304,15358,2,0,L|124:180,1,112.500004291535,2|2,0:0|0:0,0:0:0:0:
100,116,15852,2,0,L|108:72,2,28.1250010728836,0|0|2,0:0|0:0|0:0,0:0:0:0:
180,124,16182,2,0,L|256:112,1,56.2500021457673,8|2,0:0|0:0,0:0:0:0:
304,80,16512,6,0,L|414:100,1,112.500004291535,2|8,0:0|0:0,0:0:0:0:
460,164,17006,1,0,0:0:0:0:
432,236,17171,2,0,L|424:304,1,56.2500021457673,2|0,0:0|0:0,0:0:0:0:
344,252,17501,2,0,L|350:196,1,56.2500021457673,8|0,0:0|0:0,0:0:0:0:
276,168,17830,5,2,0:0:0:0:
207,208,17995,2,0,P|161:238|105:238,1,112.500004291535,0|0,0:0|0:0,0:0:0:0:
48,183,18490,2,0,P|55:159|53:126,1,56.2500021457673,2|2,0:0|0:0,0:0:0:0:
24,268,18819,2,0,P|30:292|28:325,1,56.2500021457673,8|2,0:0|0:0,0:0:0:0:
104,352,19149,6,0,P|176:368|224:344,1,112.500004291535,0|8,0:0|0:0,0:0:0:0:
260,292,19644,1,2,0:0:0:0:
332,256,19808,2,0,L|392:268,2,56.2500021457673,0|2|8,0:0|0:0|0:0,0:0:0:0:
292,188,20303,1,0,0:0:0:0:
219,216,20468,6,0,P|166:231|111:221,1,112.500004291535,0|8,0:0|0:0,0:0:0:0:
64,160,20962,1,2,0:0:0:0:
72,80,21127,2,0,L|80:40,2,28.1250010728836,0|0|0,3:0|3:0|3:0,0:0:0:0:
140,128,21457,1,8,3:2:0:0:
200,72,21622,1,0,3:0:0:0:
200,72,21704,1,0,3:0:0:0:
200,72,21786,6,0,B|302:92|302:92|344:64,1,150,4|8,0:0|0:0,0:0:0:0:
424,76,22281,1,0,0:0:0:0:
448,156,22446,1,2,0:0:0:0:
448,156,22528,1,0,0:0:0:0:
448,156,22611,2,0,P|461:186|454:228,1,75,2|8,0:0|0:0,0:0:0:0:
376,198,22940,1,0,0:0:0:0:
386,279,23105,6,0,P|346:277|316:257,1,75,2|0,0:0|0:0,0:0:0:0:
269,190,23435,2,0,L|181:198,1,75,8|0,0:0|0:0,0:0:0:0:
76,231,23764,1,2,0:0:0:0:
152,267,23929,1,2,0:0:0:0:
176,187,24094,2,0,L|156:111,1,75,8|0,0:0|0:0,0:0:0:0:
175,33,24424,6,0,B|251:13|251:57|322:37,1,150,2|8,0:0|0:0,0:0:0:0:
404,48,24918,1,0,0:0:0:0:
440,120,25083,2,0,B|416:216|416:216|444:264,1,150,2|8,0:0|0:0,0:0:0:0:
420,340,25578,1,0,0:0:0:0:
340,364,25742,5,2,0:0:0:0:
276,312,25907,2,0,L|288:232,1,75,0|8,0:0|0:0,0:0:0:0:
212,201,26237,2,0,L|200:275,1,75,0|2,0:0|0:0,0:0:0:0:
66,156,26567,2,0,P|104:151|141:145,1,75,2|8,0:0|0:0,0:0:0:0:
204,88,26896,1,0,0:0:0:0:
204,88,26979,1,0,0:0:0:0:
204,88,27061,6,0,P|244:48|348:56,1,150,2|8,0:0|0:0,0:0:0:0:
396,100,27556,1,0,0:0:0:0:
364,176,27720,2,0,B|388:248|336:248|359:323,1,150,2|8,0:0|0:0,0:0:0:0:
284,360,28215,1,0,0:0:0:0:
216,312,28380,5,2,0:0:0:0:
208,228,28545,2,0,L|281:213,1,75,0|8,0:0|0:0,0:0:0:0:
136,180,28874,1,0,0:0:0:0:
72,240,29039,2,0,B|59:275|59:275|67:314,1,75,2|2,0:0|0:0,0:0:0:0:
136,180,29369,2,0,B|149:145|149:145|141:106,1,75,8|0,0:0|0:0,0:0:0:0:
112,32,29698,6,0,L|228:44,1,112.5,2|0,0:0|0:0,0:0:0:0:
244,60,30028,2,0,L|324:40,1,75,12|0,0:0|0:0,0:0:0:0:
388,88,30358,2,0,P|406:117|404:157,1,75,2|0,0:0|0:0,0:0:0:0:
339,212,30688,2,0,P|299:213|269:196,1,75,8|0,0:0|0:0,0:0:0:0:
208,140,31017,5,2,0:0:0:0:
208,140,31182,1,0,0:0:0:0:
144,188,31347,2,0,B|168:260|120:260|141:335,1,150,4|0,0:0|3:0,0:0:0:0:
220,304,31841,1,0,3:0:0:0:
220,304,31924,1,0,3:0:0:0:
220,304,32006,2,0,L|272:292,4,37.5,8|0|0|0|2,0:0|0:0|0:0|0:0|0:0,0:0:0:0:
372,352,32666,5,2,0:0:0:0:
464,228,32995,1,2,0:0:0:0:
416,164,33160,2,0,L|360:153,1,56.2500021457673,8|2,0:0|0:0,0:0:0:0:
264,80,33490,2,0,L|319:69,1,56.2500021457673,8|2,0:0|0:0,0:0:0:0:
188,156,33984,5,2,0:0:0:0:
152,308,34314,1,2,0:0:0:0:
304,348,34644,1,2,0:0:0:0:
344,196,34973,5,2,0:0:0:0:
188,156,35303,1,0,0:0:0:0:
152,308,35633,1,0,0:0:0:0:
216,264,35797,2,0,P|243:268|271:263,1,56.2500021457673,8|0,0:0|0:0,0:0:0:0:
132,224,36127,2,0,P|104:228|76:223,1,56.2500021457673,8|2,0:0|0:0,0:0:0:0:
200,124,36622,5,2,0:0:0:0:
268,160,36786,2,0,P|324:168|384:120,1,112.500004291535,0|0,0:0|0:0,0:0:0:0:
448,156,37281,2,0,L|432:224,2,56.2500021457673,2|0|2,0:0|0:0|0:0,0:0:0:0:
480,312,37940,5,2,0:0:0:0:
328,344,38270,1,2,0:0:0:0:
268,296,38435,2,0,L|200:284,1,56.2500021457673,8|2,0:0|0:0,0:0:0:0:
356,220,38929,5,4,0:0:0:0:
280,80,39259,1,2,0:0:0:0:
128,116,39589,2,0,L|136:232,1,112.500004291535,2|2,0:0|0:0,0:0:0:0:
208,260,40083,1,0,0:0:0:0:
208,260,40166,1,0,0:0:0:0:
208,260,40248,6,0,L|294:244,1,75,2|0,0:0|0:0,0:0:0:0:
430,163,40578,2,0,P|364:130|294:151,1,150,4|0,0:0|0:0,0:0:0:0:
358,227,41072,1,2,0:0:0:0:
358,227,41155,1,2,0:0:0:0:
358,227,41237,2,0,L|366:275,3,37.5,2|2|2|0,0:0|0:0|0:0|0:0,0:0:0:0:
336,292,41567,6,0,P|319:325|322:372,1,75,6|0,0:0|0:0,0:0:0:0:
248,248,41896,2,0,P|228:208|232:172,1,75,8|0,0:0|0:0,0:0:0:0:
172,316,42226,2,0,P|148:348|144:396,1,75,6|2,0:0|0:0,0:0:0:0:
104,248,42556,1,8,0:0:0:0:
104,248,42720,1,0,0:0:0:0:
152,180,42885,6,0,L|207:171,1,56.2500021457673,4|0,0:0|0:0,0:0:0:0:
276,128,43215,1,0,0:0:0:0:
349,165,43380,1,0,0:0:0:0:
349,165,43462,1,0,0:0:0:0:
349,165,43545,2,2,P|381:213|369:285,1,112.500004291535,0|2,0:0|0:0,0:0:0:0:
328,328,44039,6,0,B|251:307|251:307|215:330,1,112.500004291535,2|0,0:0|0:0,0:0:0:0:
144,312,44534,1,0,0:0:0:0:
100,248,44698,1,0,0:0:0:0:
100,248,44781,1,0,0:0:0:0:
100,248,44863,2,0,P|102:207|120:177,1,56.2500021457673,2|2,0:0|0:0,0:0:0:0:
180,156,45193,2,2,P|213:172|252:172,1,56.2500021457673,2|2,0:0|0:0,0:0:0:0:
300,136,45523,5,0,0:0:0:0:
352,76,45688,2,0,P|400:52|472:64,1,112.500004291535,0|0,0:0|0:0,0:0:0:0:
488,132,46182,2,2,P|480:187|474:243,1,112.500004291535,2|0,0:0|0:0,0:0:0:0:
436,312,46677,6,0,P|376:328|320:296,1,112.500004291535,0|0,0:0|0:0,0:0:0:0:
292,240,47171,1,0,0:0:0:0:
292,240,47336,2,0,P|256:232|229:223,1,56.2500021457673,0|2,0:0|0:0,0:0:0:0:
168,260,47666,1,0,3:0:0:0:
168,260,47748,1,0,3:0:0:0:
168,260,47830,2,0,L|164:308,4,28.1250010728836,0|0|8|8|6,3:0|3:0|3:0|3:0|0:0,0:0:0:0:
76,124,48490,5,8,0:0:0:0:
143,75,48655,2,0,P|181:75|215:59,1,75,0|2,0:0|0:0,0:0:0:0:
296,44,48984,1,2,0:0:0:0:
328,120,49149,2,0,P|314:154|312:192,1,75,8|0,0:0|0:0,0:0:0:0:
380,240,49479,1,6,0:0:0:0:
264,332,49808,5,8,0:0:0:0:
204,276,49973,1,0,0:0:0:0:
204,276,50056,1,0,0:0:0:0:
204,276,50138,2,0,B|164:264|164:264|131:272,1,75,2|2,0:0|0:0,0:0:0:0:
28,172,50468,2,0,B|68:184|68:184|100:175,1,75,8|0,0:0|0:0,0:0:0:0:
140,104,50797,6,0,L|124:264,1,150,4|8,0:0|0:0,0:0:0:0:
152,331,51292,2,0,P|184:313|224:310,1,75,2|10,0:0|0:0,0:0:0:0:
292,264,51622,2,0,P|327:274|359:301,1,75,2|8,0:0|0:0,0:0:0:0:
376,380,51951,5,4,0:0:0:0:
464,248,52281,1,0,0:0:0:0:
464,248,52363,1,0,0:0:0:0:
464,248,52446,2,0,L|455:211,2,37.5,8|0|2,0:0|0:0|0:0,0:0:0:0:
356,297,52775,2,0,P|339:288|321:282,3,37.5,8|2|2|2,0:2|0:0|0:0|0:0,0:0:0:0:
285,261,53105,2,0,P|266:263|244:274,3,37.5,10|0|2|0,0:0|0:0|0:0|0:0,0:0:0:0:
225,304,53435,5,12,0:0:0:0:
368,212,53600,1,8,0:0:0:0:
368,212,54094,5,0,0:0:0:0:
304,164,54259,1,0,3:0:0:0:
304,164,54341,1,0,3:0:0:0:
304,164,54424,2,0,B|235:181|235:181|196:160,1,112.5,0|0,3:0|3:0,3:3:0:0:
167,131,54753,6,0,P|192:200|157:264,1,150,4|8,0:0|0:0,0:0:0:0:
84,228,55248,2,0,L|73:302,1,75,0|2,0:0|0:0,0:0:0:0:
136,356,55578,1,2,0:0:0:0:
212,324,55742,2,0,P|244:306|281:309,1,75,8|0,0:0|0:0,0:0:0:0:
428,251,56072,6,0,P|355:258|305:206,1,150,2|8,0:0|0:0,0:0:0:0:
300,124,56567,2,0,P|309:87|318:51,1,75,0|2,0:0|0:0,0:0:0:0:
236,52,56896,2,0,L|198:49,2,37.5,2|0|8,0:0|0:0|0:0,0:0:0:0:
212,132,57226,6,0,B|139:153|140:106|64:129,1,150,0|0,0:0|0:0,0:0:0:0:
36,208,57720,2,0,L|49:281,1,75,8|0,0:0|0:0,0:0:0:0:
120,340,58050,2,0,L|131:265,1,75,2|2,0:0|0:0,0:0:0:0:
224,248,58380,2,0,L|212:322,1,75,8|0,0:0|0:0,0:0:0:0:
300,296,58709,5,2,0:0:0:0:
364,243,58874,2,0,P|397:228|434:231,1,75,0|8,0:0|0:0,0:0:0:0:
476,160,59204,2,0,P|496:116|448:20,1,150,0|2,0:0|0:0,0:0:0:0:
376,36,59698,2,0,L|296:52,1,75,8|0,0:0|0:0,0:0:0:0:
224,24,60028,6,0,L|209:97,1,75,4|0,0:0|0:0,0:0:0:0:
168,171,60358,2,0,P|135:189|98:189,1,75,8|0,0:0|0:0,0:0:0:0:
59,263,60688,2,0,P|94:276|120:304,1,75,2|2,0:0|0:0,0:0:0:0:
180,364,61017,1,8,0:0:0:0:
264,356,61182,1,0,0:0:0:0:
320,296,61347,6,0,B|423:286|423:286|454:320,1,150,4|8,0:0|0:0,0:0:0:0:
496,252,61841,1,0,0:0:0:0:
479,172,62006,2,0,P|501:141|501:104,1,75,2|2,0:0|0:0,0:0:0:0:
440,48,62336,2,0,P|403:44|370:62,1,75,8|0,0:0|0:0,0:0:0:0:
331,136,62666,6,0,P|278:185|207:173,1,150,4|8,0:0|0:0,0:0:0:0:
140,80,63160,2,0,P|67:72|13:120,1,150,6|0,0:0|0:0,0:0:0:0:
16,204,63655,1,8,0:0:0:0:
92,312,63819,6,0,B|72:236|120:236|97:165,1,150,6|0,0:0|0:0,0:0:0:0:
180,168,64314,1,8,0:0:0:0:
216,240,64479,2,0,P|252:246|286:232,1,75,0|2,0:0|0:0,0:0:0:0:
332,164,64808,1,0,0:0:0:0:
456,140,64973,2,0,L|418:135,4,37.5,8|0|0|0|2,3:2|3:0|3:0|3:0|0:0,0:0:0:0:
464,152,65633,6,0,B|481:252|481:252|451:290,1,150,4|2,0:0|0:0,0:0:0:0:
371,315,66127,2,0,P|340:295|304:291,1,75,0|8,0:0|0:0,0:0:0:0:
199,251,66457,6,0,P|271:259|322:206,1,150,2|0,0:0|0:0,0:0:0:0:
340,128,66951,1,8,0:0:0:0:
288,64,67116,1,0,0:0:0:0:
212,32,67281,2,0,P|206:69|201:106,1,75,2|2,0:0|0:0,0:0:0:0:
124,136,67611,2,0,L|114:61,1,75,8|2,0:0|0:0,0:0:0:0:
28,32,67940,6,0,B|0:132|0:132|28:168,1,150,2|8,0:0|0:0,0:0:0:0:
47,247,68435,2,0,P|81:263|118:258,1,75,0|2,0:0|0:0,0:0:0:0:
192,224,68764,2,0,P|223:204|260:203,1,75,2|8,0:0|0:0,0:0:0:0:
324,256,69094,6,0,P|326:327|266:368,1,150,4|0,0:0|0:0,0:0:0:0:
200,320,69589,1,8,0:0:0:0:
120,336,69753,2,0,L|72:344,2,37.5,0|0|2,0:0|0:0|0:0,0:0:0:0:
144,256,70083,1,2,0:0:0:0:
72,216,70248,2,0,P|63:179|72:143,1,75,8|0,3:2|3:0,3:3:0:0:
140,96,70578,6,0,L|212:113,1,75,4|2,0:0|0:0,0:0:0:0:
280,64,70907,2,0,L|352:46,1,75,8|2,0:0|0:0,0:0:0:0:
364,128,71237,2,0,L|291:145,1,75,8|2,0:0|0:0,0:0:0:0:
212,113,71567,2,0,L|139:95,1,75,8|2,0:0|0:0,0:0:0:0:
64,132,71896,6,0,P|45:166|48:203,1,75,4|2,0:0|0:0,0:0:0:0:
99,267,72226,2,0,P|115:301|111:338,1,75,8|2,0:0|0:0,0:0:0:0:
168,215,72556,2,0,P|205:219|236:239,1,75,8|2,0:0|0:0,0:0:0:0:
312,204,72885,2,0,P|329:171|328:134,1,75,8|2,0:0|0:0,0:0:0:0:
276,68,73215,5,4,0:0:0:0:
388,36,73380,2,0,L|424:29,2,37.5,2|0|8,0:0|0:0|0:0,0:0:0:0:
420,124,73709,5,6,0:0:0:0:
276,68,73874,2,0,L|239:61,2,37.5,8|0|2,0:0|0:0|0:0,0:0:0:0:
244,144,74204,2,0,L|239:181,3,37.5,8|0|2|0,0:0|0:0|0:0|0:0,0:0:0:0:
231,222,74534,5,8,0:0:0:0:
231,222,75523,2,0,L|225:259,3,37.5,0|0|0|0,3:0|3:0|3:0|3:0,0:0:0:0:
210,297,75852,6,2,B|158:288|135:335|59:306,1,150,4|2,0:0|0:0,0:0:0:0:
98,232,76347,2,0,P|108:173|98:79,1,150,4|0,0:0|0:0,0:0:0:0:
159,27,76841,2,0,P|200:29|240:50,1,75,2|0,0:0|0:0,0:0:0:0:
255,136,77171,6,0,L|345:112,2,75,6|0|2,0:0|0:0|0:0,0:0:0:0:
191,189,77666,2,0,P|260:211|287:289,1,150,4|0,0:0|0:0,0:0:0:0:
223,330,78160,2,0,L|148:340,1,75,2|0,0:0|0:0,0:0:0:0:
299,361,78490,6,0,L|476:345,1,150,6|0,0:0|0:0,0:0:0:0:
489,275,78984,2,0,P|476:237|450:207,1,75,6|0,0:0|0:0,0:0:0:0:
372,194,79314,2,0,P|379:157|406:111,1,75,2|0,0:0|0:0,0:0:0:0:
437,32,79644,6,0,L|271:56,1,150,4|2,0:0|0:0,0:0:0:0:
234,168,80138,1,2,0:0:0:0:
198,93,80303,2,0,P|142:59|32:90,1,150,4|0,0:0|0:0,0:0:0:0:
28,144,80797,1,6,0:0:0:0:
72,213,80962,1,0,0:0:0:0:
153,200,81127,6,0,L|174:295,2,75,6|0|2,0:0|0:0|0:0,0:0:0:0:
72,213,81622,6,0,B|94:313|94:313|72:371,1,150,6|0,0:0|0:0,0:0:0:0:
158,358,82116,2,0,P|196:344|250:344,1,75,2|0,0:0|0:0,0:0:0:0:
303,301,82446,5,6,0:0:0:0:
238,248,82611,2,0,P|241:213|246:173,1,75,2|0,0:0|0:0,0:0:0:0:
298,109,82940,2,0,P|370:123|411:192,1,150,6|0,0:0|0:0,0:0:0:0:
380,261,83435,1,2,0:0:0:0:
246,173,83764,6,0,L|72:155,1,150,6|2,0:0|0:0,0:0:0:0:
31,209,84259,2,0,P|38:254|41:292,1,75,6|0,0:0|0:0,0:0:0:0:
121,336,84589,2,0,P|122:302|129:253,1,75,6|0,0:0|0:0,0:0:0:0:
166,188,84918,1,6,0:0:0:0:
69,53,85248,5,0,0:0:0:0:
95,131,85413,1,0,0:0:0:0:
152,71,85578,2,0,L|248:79,1,75,2|0,0:0|0:0,0:0:0:0:
253,155,85907,2,0,L|349:163,1,75,2|0,0:0|0:0,0:0:0:0:
376,94,86237,6,0,P|410:163|363:245,1,150,4|0,0:0|0:0,0:0:0:0:
330,288,86731,1,2,0:0:0:0:
249,269,86896,1,2,0:0:0:0:
249,269,86979,1,2,0:0:0:0:
249,269,87061,6,0,P|205:275|152:298,1,75,2|0,0:0|0:0,0:0:0:0:
121,347,87391,1,0,0:0:0:0:
66,191,87720,5,2,0:0:0:0:
386,112,88380,1,2,0:0:0:0:
96,135,98270,6,0,L|227:153,1,112.500004291535,4|8,0:0|0:0,0:0:0:0:
282,112,98764,1,0,0:0:0:0:
282,112,98929,2,0,P|288:86|293:51,1,56.2500021457673,8|0,0:0|0:0,0:0:0:0:
376,47,99259,6,0,P|429:56|493:27,2,112.500004291535,0|8|8,0:0|0:0|0:0,0:0:0:0:
377,131,100083,1,0,0:0:0:0:
377,131,100248,6,0,P|370:170|366:205,1,56.2500021457673
365,270,100577,2,0,L|373:343,1,56.2500021457673,8|0,0:0|0:0,0:0:0:0:
268,357,100907,2,0,L|260:284,1,56.2500021457673,8|0,0:0|0:0,0:0:0:0:
239,219,101237,6,0,P|191:220|117:195,1,112.500004291535,0|8,0:0|0:0,0:0:0:0:
45,348,101896,2,0,L|121:339,1,56.2500021457673,8|0,0:0|0:0,0:0:0:0:
184,354,102226,6,0,P|184:293|140:236,1,112.500004291535,0|8,0:0|0:0,0:0:0:0:
78,222,102720,1,0,0:0:0:0:
78,222,102885,2,0,L|87:147,1,56.2500021457673,8|0,0:0|0:0,0:0:0:0:
160,127,103215,6,0,P|155:89|143:11,2,112.500004291535,0|8|8,0:0|0:0|0:0,0:0:0:0:
244,130,104039,1,0,0:0:0:0:
244,130,104204,6,0,L|232:54,1,63.7500012159348,2|0,0:0|0:0,0:0:0:0:
312,24,104533,2,0,L|323:103,1,63.7500012159348,10|0,0:0|0:0,0:0:0:0:
359,168,104863,2,0,P|344:203|344:255,1,63.7500012159348,10|0,0:0|0:0,0:0:0:0:
299,300,105193,6,0,P|245:302|205:283,1,75,2|0,0:0|0:0,0:0:0:0:
181,225,105522,2,0,P|127:223|87:242,1,75,10|0,0:0|0:0,0:0:0:0:
62,299,105852,2,0,L|44:120,1,150,10|2,0:0|0:0,0:0:0:0:
35,68,106346,1,0,0:0:0:0:
35,68,107006,6,0,L|44:14,2,37.5,0|0|8,0:0|0:0|0:0,0:0:0:0:
116,77,107335,1,0,0:0:0:0:
189,39,107500,2,0,P|251:42|316:93,1,112.5,8|0,3:2|3:0,3:3:0:0:
300,107,107830,6,0,L|283:197,2,75,4|0|8,0:0|0:0|0:0,0:0:0:0:
370,64,108324,1,0,0:0:0:0:
401,140,108489,2,0,P|453:169|512:168,1,112.5,2|0,0:0|0:0,0:0:0:0:
487,207,108819,2,0,P|472:248|470:293,1,75,8|0,0:0|0:0,0:0:0:0:
423,348,109149,5,2,0:0:0:0:
363,291,109313,2,0,L|352:246,2,37.5,0|0|8,0:0|0:0|0:0,0:0:0:0:
287,326,109643,1,0,0:0:0:0:
220,276,109808,2,0,L|126:287,1,75,2|0,0:0|0:0,0:0:0:0:
84,212,110138,2,0,L|178:201,1,75,8|0,0:0|0:0,0:0:0:0:
224,117,110467,6,0,L|79:132,1,112.5,2|0,0:0|0:0,0:0:0:0:
71,135,110797,2,0,P|62:98|65:39,1,75,8|0,0:0|0:0,0:0:0:0:
135,24,111127,1,2,0:0:0:0:
215,40,111291,2,0,L|308:27,1,75,2|8,0:0|0:0,0:0:0:0:
362,68,111621,1,0,0:0:0:0:
365,150,111786,6,0,P|412:169|473:156,1,112.5,2|0,0:0|0:0,0:0:0:0:
470,199,112116,2,0,L|457:300,1,75,8|0,0:0|0:0,0:0:0:0:
378,280,112445,2,0,P|332:275|283:295,1,75,2|0,0:0|0:0,0:0:0:0:
226,256,112775,1,8,3:2:0:0:
152,294,112940,1,0,3:0:0:0:
138,212,113105,6,0,P|74:246|67:318,1,150,4|8,0:0|0:0,0:0:0:0:
152,294,113599,1,0,0:0:0:0:
152,294,113764,2,0,P|191:300|245:319,1,75,2|2,0:0|0:0,0:0:0:0:
290,361,114094,2,0,P|302:326|326:285,1,75,8|0,3:2|3:2,0:0:0:0:
402,289,114423,6,0,B|433:253|433:253|406:151,1,150,4|8,3:2|0:0,0:0:0:0:
332,191,114918,1,0,0:0:0:0:
332,191,115083,2,0,L|310:107,1,75,2|2,0:0|0:0,0:0:0:0:
400,8,115412,2,0,L|383:96,1,75,8|0,0:0|0:0,0:0:0:0:
290,38,115742,6,0,L|134:73,1,150,12|8,0:0|0:0,0:0:0:0:
83,127,116236,2,0,P|114:149|169:143,1,75,2|8,0:0|0:0,0:0:0:0:
219,196,116566,1,2,0:0:0:0:
168,261,116731,1,8,0:0:0:0:
221,323,116896,6,0,P|268:324|382:337,2,150,4|2|2,0:0|0:0|0:0,0:0:0:0:
168,261,117720,2,0,P|199:247|267:252,1,75,8|2,0:0|0:0,0:0:0:0:
301,189,118050,2,0,L|382:204,1,75,8|2,0:0|0:0,0:0:0:0:
454,181,118379,6,0,P|465:148|462:99,1,75,4|0,0:0|0:0,0:0:0:0:
418,38,118709,2,0,P|371:44|328:70,1,75,8|2,0:0|0:0,0:0:0:0:
282,108,119039,2,0,L|195:95,1,75,8|2,0:0|0:0,0:0:0:0:
128,74,119368,1,8,0:0:0:0:
102,237,119698,6,0,P|151:182|241:213,1,150,4|8,0:0|0:0,0:0:0:0:
259,265,120193,2,0,L|356:274,2,75,6|2|2,0:0|0:0|0:0,3:3:0:0:
230,342,120687,1,8,0:0:0:0:
230,342,120852,1,0,0:0:0:0:
121,212,121841,5,2,0:0:0:0:
202,269,122006,2,0,L|192:330,3,37.5,0|0|0|0,3:0|3:0|3:0|3:0,0:0:0:0:
182,330,122335,6,0,L|356:308,1,150,4|8,0:0|0:0,0:0:0:0:
298,232,122830,2,0,L|124:254,1,150,0|0,0:0|0:0,0:0:0:0:
69,232,123324,2,0,P|60:203|58:153,1,75,8|0,0:0|0:0,0:0:0:0:
92,88,123654,6,0,B|129:55|129:55|246:80,1,150,2|8,0:0|0:0,0:0:0:0:
286,133,124149,1,0,0:0:0:0:
359,96,124313,2,0,P|372:66|373:8,2,75,2|2|8,0:0|0:0|0:0,0:0:0:0:
286,133,124808,1,0,0:0:0:0:
356,179,124973,6,0,L|366:267,1,75,2|0,0:0|0:0,0:0:0:0:
249,314,125302,2,0,P|259:277|281:245,1,75,8|0,0:0|0:0,0:0:0:0:
406,333,125632,2,0,L|301:318,1,75,2|2,0:0|0:0,0:0:0:0:
249,314,125962,2,0,L|168:328,1,75,8|0,0:0|0:0,0:0:0:0:
63,335,126291,5,2,0:0:0:0:
63,335,126456,2,0,P|64:300|45:244,1,75,0|8,0:0|0:0,0:0:0:0:
18,176,126786,1,0,0:0:0:0:
148,184,126951,2,0,P|138:220|139:257,1,75,2|2,0:0|0:0,0:0:0:0:
233,267,127280,2,0,P|242:230|241:193,1,75,8|0,0:0|0:0,0:0:0:0:
207,104,127610,6,0,L|355:124,1,150,4|8,0:0|0:0,0:0:0:0:
438,123,128105,1,0,0:0:0:0:
412,200,128269,2,0,P|402:250|398:286,1,75,2|2,0:0|0:0,0:0:0:0:
323,309,128599,2,0,L|309:216,1,75,8|0,0:0|0:0,0:0:0:0:
232,210,128929,6,0,P|161:230|74:181,1,150,4|8,0:0|0:0,0:0:0:0:
40,138,129423,1,0,0:0:0:0:
67,60,129588,2,0,P|107:55|151:68,1,75,2|0,0:0|0:0,0:0:0:0:
195,125,129918,2,0,L|278:102,1,75,8|0,0:0|0:0,0:0:0:0:
343,22,130247,6,0,P|340:88|419:137,1,150,4|8,0:0|0:0,0:0:0:0:
465,242,130742,2,0,B|376:230|376:230|299:285,1,150,4|0,0:0|0:0,0:0:0:0:
381,326,131236,1,8,0:0:0:0:
270,356,131401,6,0,P|225:313|125:324,1,150,4|0,0:0|0:0,0:0:0:0:
62,339,131896,2,0,L|53:243,1,75,8|0,0:0|0:0,0:0:0:0:
121,214,132225,2,0,L|112:118,1,75,0|0,0:0|0:0,0:0:0:0:
195,122,132555,1,0,3:0:0:0:
248,185,132720,1,0,3:0:0:0:
204,257,132885,6,0,B|278:287|278:240|368:265,1,150,0|4,3:0|0:0,0:0:0:0:
232,112,133544,2,0,P|245:147|248:185,2,75,2|0|8,0:0|0:0|0:0,0:0:0:0:
323,97,134039,6,0,P|379:141|460:109,1,150,0|0,0:0|0:0,0:0:0:0:
394,59,134533,1,8,0:0:0:0:
394,59,134698,1,0,0:0:0:0:
384,174,134863,2,0,P|376:208|378:256,1,75,2|0,0:0|0:0,0:0:0:0:
411,323,135193,2,0,L|318:334,1,75,8|0,0:0|0:0,0:0:0:0:
286,264,135522,6,0,B|188:242|188:242|144:267,2,150,2|8|2,0:0|0:0|0:0,0:0:0:0:
338,200,136346,1,0,0:0:0:0:
289,133,136511,1,8,0:0:0:0:
211,104,136676,2,0,P|152:154|85:135,1,150,0|0,0:0|0:0,0:0:0:0:
19,88,137171,1,8,0:0:0:0:
36,202,137335,6,0,P|106:186|159:234,1,150,0|0,0:0|0:0,0:0:0:0:
71,307,137830,2,0,L|85:254,2,37.5,8|0|0,3:2|3:0|3:0,3:3:0:0:
153,317,138160,6,0,L|235:340,1,75,4|0,0:0|0:0,0:0:0:0:
307,336,138489,2,0,L|387:318,1,75,8|0,0:0|0:0,0:0:0:0:
358,239,138819,2,0,L|278:257,1,75,8|0,0:0|0:0,0:0:0:0:
204,234,139149,1,8,0:0:0:0:
178,156,139313,6,0,P|217:99|318:99,1,150,0|0,0:0|0:0,0:0:0:0:
374,73,139808,2,0,P|376:113|359:146,1,75,8|0,0:0|0:0,0:0:0:0:
385,222,140138,1,8,0:0:0:0:
320,272,140302,2,0,L|233:258,1,75,0|8,0:0|0:0,0:0:0:0:
168,236,140632,6,0,L|145:339,1,75,0|4,0:0|0:0,0:0:0:0:
83,261,140962,2,0,L|96:205,2,37.5,0|0|8,0:0|0:0|0:0,0:0:0:0:
115,135,141291,1,4,0:0:0:0:
186,93,141456,6,0,L|175:39,2,37.5,8|0|0,0:0|0:0|3:0,0:0:0:0:
289,128,141786,2,0,L|281:177,3,37.5,8|0|8|0,3:2|3:0|3:2|0:0,0:0:0:0:
289,254,142116,6,0,P|321:246|361:234,2,50,8|0|0,3:2|0:0|0:0,0:0:0:0:
217,302,142445,2,0,P|232:324|260:349,2,50,8|0|0,3:2|0:0|0:0,0:0:0:0:
147,252,142775,2,0,P|137:280|129:309,2,50,8|0|0,3:2|0:0|0:0,0:0:0:0:
165,169,143105,2,0,P|141:170|112:178,2,50,8|0|0,3:2|0:0|0:0,0:0:0:0:
251,156,143434,5,4,0:0:0:0:
256,192,143517,12,0,146072,0:0:0:0:
307,153,153984,6,0,P|368:112|527:137,2,225.000008583069
256,242,155962,1,0,0:0:0:0:
205,153,156621,6,0,P|144:112|-15:137,2,225.000008583069
256,242,158599,1,0,0:0:0:0:
58,113,159258,6,0,L|169:96,1,112.5,4|0,0:0|0:0,0:0:0:0:
187,85,159588,6,0,L|175:159,1,75,2|0,0:0|0:0,0:0:0:0:
271,69,159918,2,0,L|260:144,1,75,2|0,0:0|0:0,0:0:0:0:
355,54,160247,2,0,L|343:128,1,75,2|0,0:0|0:0,0:0:0:0:
400,187,160577,5,2,0:0:0:0:
400,187,160742,1,0,0:0:0:0:
345,248,160907,2,0,P|310:261|273:255,1,75,2|0,0:0|0:0,0:0:0:0:
223,190,161236,1,2,0:0:0:0:
223,190,161401,1,0,0:0:0:0:
142,210,161566,2,0,P|107:197|70:203,1,75,2|0,0:0|0:0,0:0:0:0:
98,281,161896,6,0,B|130:358|130:358|151:335|187:323,1,150,6|0,0:0|0:0,0:0:0:0:
255,278,162390,2,0,B|340:258|340:258|376:308,1,150,0|2,0:0|0:0,0:0:0:0:
449,269,162885,1,2,0:0:0:0:
417,192,163050,6,0,P|449:141|438:84,1,112.5,4|0,0:0|0:0,0:0:0:0:
423,75,163379,1,4,0:0:0:0:
320,49,163544,2,0,L|245:43,1,75,4|2,0:0|0:0,0:0:0:0:
172,84,163874,2,0,L|178:120,3,37.5,0|0|0|0,3:0|3:0|3:0|3:0,0:0:0:0:
197,164,164203,2,0,L|190:200,3,37.5,0|0|0|0,3:0|3:0|3:0|3:0,0:0:0:0:
176,233,164533,6,0,P|241:200|323:220,1,150,4|8,0:0|0:0,0:0:0:0:
371,274,165028,1,0,0:0:0:0:
431,217,165193,2,0,P|428:179|423:142,1,75,2|0,0:0|0:0,0:0:0:0:
475,77,165522,1,8,0:0:0:0:
402,37,165687,6,0,B|333:60|327:13|243:38,1,150,2|0,0:0|0:0,0:0:0:0:
188,85,166182,2,0,P|181:121|173:158,1,75,8|0,0:0|0:0,0:0:0:0:
270,221,166511,2,0,L|259:146,1,75,2|2,0:0|0:0,0:0:0:0:
336,114,166841,2,0,L|346:188,1,75,8|0,0:0|0:0,0:0:0:0:
408,243,167171,5,0,0:0:0:0:
348,299,167335,1,0,0:0:0:0:
268,277,167500,1,8,0:0:0:0:
229,203,167665,2,0,L|154:193,1,75,0|2,0:0|0:0,0:0:0:0:
178,78,167995,2,0,L|222:84,2,37.5,2|0|8,3:2|3:0|3:2,0:0:0:0:
306,134,168324,6,0,P|376:112|398:44,1,150,4|4,0:0|0:0,0:0:0:0:
314,49,168819,1,8,0:0:0:0:
429,171,168984,2,0,B|409:260|409:260|454:297,1,150,4|0,0:0|0:0,0:0:0:0:
343,331,169478,2,0,L|264:325,1,75,0|0,3:0|3:0,0:0:0:0:
174,281,169808,5,4,0:0:0:0:
230,220,169973,1,0,0:0:0:0:
207,140,170138,1,8,0:0:0:0:
128,112,170302,2,0,P|199:123|251:72,1,150,0|0,0:0|0:0,0:0:0:0:
332,95,170797,2,0,P|320:130|326:166,1,75,8|0,0:0|0:0,0:0:0:0:
443,231,171127,5,4,0:0:0:0:
448,312,171291,1,0,0:0:0:0:
373,348,171456,1,8,0:0:0:0:
299,309,171621,2,0,B|234:287|219:330|151:307,1,150,0|2,0:0|0:0,0:0:0:0:
95,245,172116,2,0,P|101:208|107:171,1,75,8|0,0:0|0:0,0:0:0:0:
205,105,172445,6,0,P|210:142|217:178,1,75,4|0,0:0|0:0,0:0:0:0:
288,136,172775,2,0,L|376:131,1,75,8|0,0:0|0:0,0:0:0:0:
460,194,173105,1,2,0:0:0:0:
399,249,173269,1,0,0:0:0:0:
317,235,173434,1,8,0:0:0:0:
280,161,173599,6,0,B|274:201|294:234|294:234|268:260|262:300,1,150,0|0,0:0|0:0,0:0:0:0:
303,372,174094,1,8,0:0:0:0:
191,343,174258,1,0,0:0:0:0:
184,260,174423,2,0,L|179:222,3,37.5,0|0|0|0,3:0|3:0|3:0|3:0,0:0:0:0:
170,182,174753,2,0,L|174:144,3,37.5,0|0|0|0,3:0|3:0|3:0|3:0,3:3:0:0:
164,114,175083,6,0,P|202:109|239:104,1,75,4|0,0:0|0:0,0:0:0:0:
316,130,175412,1,8,0:0:0:0:
355,25,175577,2,0,B|287:5|263:43|207:18,1,150,0|0,0:0|0:0,0:0:0:0:
125,28,176072,2,0,P|117:64|109:101,1,75,8|0,0:0|0:0,0:0:0:0:
155,169,176401,6,0,L|161:243,1,75,0|0,0:0|0:0,0:0:0:0:
232,286,176731,1,8,0:0:0:0:
291,228,176896,2,0,P|358:200|427:225,1,150,0|0,0:0|0:0,0:0:0:0:
476,290,177390,2,0,P|480:326|462:359,1,75,8|0,0:0|0:0,0:0:0:0:
392,313,177720,6,0,P|354:310|317:308,1,75,2|0,0:0|0:0,0:0:0:0:
250,259,178050,2,0,P|212:261|175:263,1,75,8|0,0:0|0:0,0:0:0:0:
160,344,178379,2,0,P|197:342|234:339,1,75,2|2,0:0|0:0,0:0:0:0:
331,308,178709,2,0,P|348:272|338:226,1,75,8|0,0:0|0:0,0:0:0:0:
291,140,179039,6,0,P|243:113|190:113,2,100,4|4|0,0:0|0:0|0:0,0:0:0:0:
398,144,179698,2,0,P|446:116|468:76,2,100,8|0|8,0:0|0:0|0:0,0:0:0:0:
297,316,180522,2,0,L|308:267,2,37.5,0|0|0,0:0|0:0|0:0,0:0:0:0:
391,216,181017,6,0,P|332:172|260:183,1,150,4|8,0:0|0:0,0:0:0:0:
198,239,181511,1,0,0:0:0:0:
198,239,181593,1,0,0:0:0:0:
198,238,181676,2,0,P|133:273|62:254,1,150,2|8,0:0|0:0,0:0:0:0:
26,180,182170,1,0,0:0:0:0:
71,110,182335,6,0,P|67:73|82:38,1,75,2|0,0:0|0:0,0:0:0:0:
154,81,182665,2,0,L|251:67,1,75,8|0,0:0|0:0,0:0:0:0:
306,44,182995,6,0,P|345:106|320:174,1,150,2|8,0:0|0:0,0:0:0:0:
242,201,183489,1,0,0:0:0:0:
291,284,183654,2,0,P|236:235|159:242,1,150,4|8,0:0|0:0,0:0:0:0:
126,314,184148,1,0,0:0:0:0:
56,269,184313,2,0,L|49:231,2,37.5,2|0|0,0:0|0:0|0:0,0:0:0:0:
119,167,184643,2,0,L|125:129,3,37.5,0|0|0|0,3:0|3:0|3:0|3:0,3:3:0:0:
109,85,184973,5,4,0:0:0:0:
40,103,192885,6,0,L|151:91,1,112.500004291535,0|0,3:2|3:0,0:0:0:0:
98,202,193544,2,0,L|209:190,1,112.500004291535,0|0,3:0|3:0,0:0:0:0:
470,174,194203,6,0,L|359:162,1,112.500004291535,0|0,3:0|3:0,0:0:0:0:
412,273,194863,2,0,L|301:261,1,112.500004291535,0|0,3:0|3:0,0:0:0:0:
173,199,195522,6,0,L|178:254,1,56.2500021457673,4|0,0:2|0:0,0:0:0:0:
95,282,195852,2,0,L|89:226,1,56.2500021457673,0|0,3:0|0:0,0:0:0:0:
122,127,196181,2,0,L|127:71,1,56.2500021457673,0|0,3:0|0:0,0:0:0:0:
211,101,196511,2,0,L|283:94,1,56.2500021457673,0|0,3:0|0:0,0:0:0:0:
373,26,196841,5,6,0:0:0:0:
420,98,197006,1,2,0:0:0:0:
420,98,197088,1,2,0:0:0:0:
420,98,197170,2,0,L|407:167,3,37.5,0|0|0|0,3:0|3:0|3:0|3:0,3:3:0:0:
391,170,197500,6,0,L|404:239,3,37.5,0|0|0|0,3:0|3:0|3:0|3:0,3:3:0:0:
410,246,197830,2,0,L|397:315,3,37.5,0|0|0|0,3:0|3:0|3:0|3:0,3:3:0:0:
416,307,198159,6,0,P|350:273|276:294,1,150,4|8,0:0|0:0,0:0:0:0:
215,238,198654,2,0,L|130:220,1,75,0|2,0:0|0:0,0:0:0:0:
87,285,198984,1,0,0:0:0:0:
27,228,199148,2,0,P|23:190|41:156,1,75,8|0,0:0|0:0,0:0:0:0:
67,57,199478,6,0,P|113:112|186:109,1,150,2|8,0:0|0:0,0:0:0:0:
253,60,199973,2,0,L|347:49,1,75,0|2,0:0|0:0,0:0:0:0:
349,130,200302,2,0,L|305:136,2,37.5,0|0|8,0:0|0:0|0:0,0:0:0:0:
428,107,200632,6,0,B|448:194|448:194|403:246,1,150,0|0,0:0|0:0,0:0:0:0:
383,337,201126,2,0,P|353:316|316:312,1,75,8|0,0:0|0:0,0:0:0:0:
250,261,201456,2,0,P|201:281|180:316,1,75,2|0,0:0|0:0,0:0:0:0:
165,377,201786,1,8,0:0:0:0:
84,356,201951,1,0,0:0:0:0:
84,356,202033,1,0,0:0:0:0:
84,356,202115,5,2,0:0:0:0:
67,275,202280,2,0,L|55:188,1,75,0|8,0:0|0:0,0:0:0:0:
10,131,202610,1,0,0:0:0:0:
82,90,202775,2,0,B|145:69|161:121|228:98,1,150,2|8,0:0|0:0,0:0:0:0:
286,39,203269,1,0,0:0:0:0:
367,26,203434,6,0,P|310:72|315:146,1,150,4|8,0:0|0:0,0:0:0:0:
376,199,203929,1,0,0:0:0:0:
236,255,204093,2,0,L|311:250,1,75,2|0,0:0|0:0,0:0:0:0:
186,167,204423,2,0,L|111:172,1,75,8|0,0:0|0:0,0:0:0:0:
37,100,204753,5,4,0:0:0:0:
96,157,204918,1,0,0:0:0:0:
79,237,205082,1,8,0:0:0:0:
1,265,205247,1,0,0:0:0:0:
61,319,205412,2,0,P|99:321|136:324,1,75,2|0,0:0|0:0,0:0:0:0:
209,283,205742,2,0,L|323:271,1,112.5,8|0,0:0|0:0,0:0:0:0:
342,283,206071,6,0,P|386:225|370:154,1,150,4|8,0:0|0:0,0:0:0:0:
289,94,206566,2,0,B|214:75|214:124|142:103,1,150,4|0,0:0|0:0,0:0:0:0:
177,24,207060,1,8,0:0:0:0:
44,55,207225,6,0,L|58:212,1,150,4|0,0:0|0:0,0:0:0:0:
18,282,207720,1,8,0:0:0:0:
144,287,207885,2,0,P|151:250|160:213,1,75,0|8,0:0|0:0,0:0:0:0:
224,161,208214,1,0,3:0:0:0:
285,216,208379,2,0,L|322:211,4,37.5,0|0|0|0|0,3:0|3:0|3:0|3:0|3:0,3:3:0:0:
425,273,209038,6,0,P|433:217|441:161,1,112.5,4|0,0:0|0:0,0:0:0:0:
452,140,209368,1,2,0:0:0:0:
321,162,209533,2,0,P|274:161|238:133,1,75,0|8,0:0|0:0,0:0:0:0:
193,87,209863,6,0,P|123:108|98:176,1,150,0|0,0:0|0:0,0:0:0:0:
162,301,210357,2,0,P|177:267|169:228,1,75,8|0,0:0|0:0,0:0:0:0:
241,186,210687,1,0,3:0:0:0:
302,241,210852,1,0,3:0:0:0:
302,241,210934,1,0,3:0:0:0:
302,241,211017,2,0,L|351:236,3,37.5,0|0|0|0,3:0|3:0|3:0|3:0,3:3:0:0:
365,250,211346,6,0,P|420:208|400:117,1,150,4|8,0:0|0:0,0:0:0:0:
365,66,211841,2,0,L|312:61,2,37.5,0|0|2,0:0|0:0|0:0,0:0:0:0:
321,148,212170,2,0,P|283:153|246:159,1,75,0|8,0:0|0:0,0:0:0:0:
155,77,212500,6,0,B|128:146|178:150|148:231,1,150,0|0,0:0|0:0,0:0:0:0:
100,290,212995,1,8,0:0:0:0:
167,336,213159,2,0,P|230:302|307:328,1,150,0|0,0:0|0:0,0:0:0:0:
378,292,213654,2,0,B|393:257|393:257|384:221,1,75,8|0,3:2|3:0,0:0:0:0:
273,99,213984,6,0,B|258:134|258:134|266:169,1,75,4|0,0:0|0:0,0:0:0:0:
345,144,214313,2,0,L|432:136,1,75,8|0,0:0|0:0,0:0:0:0:
488,183,214643,1,8,0:0:0:0:
472,264,214808,1,0,0:0:0:0:
396,300,214973,2,0,P|360:305|326:291,1,75,8|0,0:0|0:0,0:0:0:0:
256,213,215302,6,0,P|195:171|124:185,1,150,4|8,0:0|0:0,0:0:0:0:
82,257,215797,1,0,0:0:0:0:
161,346,215962,2,0,P|166:308|170:271,1,75,8|0,0:0|0:0,0:0:0:0:
256,213,216291,2,0,P|260:250|265:287,1,75,8|0,0:0|0:0,0:0:0:0:
349,363,216621,5,4,0:0:0:0:
379,286,216786,1,0,0:0:0:0:
432,349,216951,1,8,0:0:0:0:
460,272,217115,1,0,0:0:0:0:
323,210,217280,6,0,P|360:206|397:203,1,75,8|0,0:0|0:0,0:0:0:0:
426,125,217610,2,0,P|388:121|351:118,1,75,8|0,0:0|0:0,0:0:0:0:
283,70,217940,6,0,B|212:49|204:94|135:67,1,150,4|8,0:0|0:0,0:0:0:0:
99,142,218434,1,0,0:0:0:0:
5,34,218599,2,0,L|18:107,1,75,8|0,0:0|0:0,0:0:0:0:
111,167,218929,2,0,L|97:240,1,75,8|0,0:0|0:0,0:0:0:0:
32,313,219258,5,6,0:0:0:0:
110,337,219423,1,2,0:0:0:0:
183,302,219588,2,0,P|218:288|255:292,1,75,10|2,0:0|0:0,0:0:0:0:
328,359,219918,2,0,B|357:262|357:262|322:220,1,150,10|10,0:0|0:0,0:0:0:0:
255,181,220412,1,2,0:0:0:0:
301,111,220577,6,0,P|263:106|226:100,1,75,6|2,0:0|0:0,0:0:0:0:
101,204,220907,2,0,P|138:208|175:214,1,75,10|2,0:0|0:0,0:0:0:0:
224,280,221236,2,0,B|298:258|301:303|381:281,1,150,10|10,0:0|0:0,0:0:0:0:
426,221,221731,1,2,0:0:0:0:
426,221,221813,1,0,0:0:0:0:
426,221,221896,5,10,0:0:0:0:
340,133,222060,2,0,L|348:90,2,37.5,2|0|10,0:0|0:0|0:0,0:0:0:0:
264,181,222390,2,0,P|199:196|129:138,1,150,2|2,0:0|0:0,0:0:0:0:
152,69,222885,2,0,L|214:58,3,37.5,10|0|2|0,0:0|0:0|0:0|0:0,0:0:0:0:
234,56,223214,5,4,0:0:0:0:
343,304,224038,1,0,0:0:0:0:
300,233,224203,2,0,L|315:154,1,75,0|0,3:0|3:0,0:0:0:0:
376,81,224533,6,0,B|338:85|306:64|306:64|280:94|238:95,1,150,6|2,0:0|0:0,0:0:0:0:
137,39,225027,2,0,P|192:88|190:161,1,150,6|0,0:0|0:0,0:0:0:0:
84,270,225522,2,0,P|81:232|96:199,1,75,2|0,0:0|0:0,0:0:0:0:
165,244,225852,6,0,L|319:228,1,150,6|0,0:0|0:0,0:0:0:0:
389,262,226346,2,0,B|414:163|414:163|377:121,1,150,6|0,0:0|0:0,0:0:0:0:
336,57,226841,2,0,P|297:76|248:65,1,75,4|0,0:0|0:0,0:0:0:0:
171,127,227170,6,0,P|116:78|43:86,1,150,6|2,0:0|0:0,0:0:0:0:
9,193,227665,2,0,P|63:241|136:233,1,150,6|2,0:0|0:0,0:0:0:0:
184,166,228159,1,2,0:0:0:0:
234,294,228324,6,0,P|241:257|249:220,1,75,4|0,0:0|0:0,0:0:0:0:
326,156,228654,2,0,P|334:192|341:229,1,75,0|6,0:0|0:0,0:0:0:0:
433,309,228984,2,0,P|469:245|438:180,1,150,0|0,0:0|0:0,0:0:0:0:
356,89,229478,1,6,0:0:0:0:
288,136,229643,1,0,0:0:0:0:
206,120,229808,6,0,B|112:90|112:90|71:122,1,150,4|0,0:0|0:0,0:0:0:0:
129,185,230302,2,0,B|153:261|104:259|128:331,1,150,4|0,0:0|0:0,0:0:0:0:
216,251,230797,1,4,0:0:0:0:
286,294,230962,1,0,0:0:0:0:
362,263,231126,6,0,P|411:209|400:138,1,150,4|0,0:0|0:0,0:0:0:0:
407,55,231621,2,0,P|360:110|288:105,1,150,4|0,0:0|0:0,0:0:0:0:
230,47,232115,2,0,P|193:36|157:27,1,75,4|0,0:0|0:0,0:0:0:0:
120,145,232445,6,0,P|156:155|192:164,1,75,6|0,0:0|0:0,0:0:0:0:
251,223,232775,1,2,0:0:0:0:
316,174,232940,2,0,P|377:132|448:148,1,150,6|2,0:0|0:0,0:0:0:0:
485,221,233434,1,0,0:0:0:0:
395,336,233599,6,0,L|406:261,1,75,6|0,0:0|0:0,0:0:0:0:
276,209,233929,2,0,L|350:198,1,75,0|0,0:0|0:0,0:0:0:0:
373,111,234258,2,0,B|302:89|293:130|222:101,1,150,2|2,0:0|0:0,0:0:0:0:
211,82,234918,6,0,L|223:237,1,150,4|0,0:0|0:0,0:0:0:0:
185,305,235412,2,0,P|220:315|256:307,1,75,8|0,0:0|0:0,0:0:0:0:
322,257,235742,1,2,0:0:0:0:
403,244,235907,1,0,0:0:0:0:
471,288,236071,2,0,P|476:251|482:214,1,75,8|0,0:0|0:0,0:0:0:0:
472,106,236401,6,0,P|416:154|344:145,1,150,4|8,0:0|0:0,0:0:0:0:
284,85,236896,2,0,P|252:68|209:70,1,75,0|2,0:0|0:0,0:0:0:0:
141,105,237225,1,0,0:0:0:0:
115,183,237390,2,0,P|116:220|139:256,1,75,8|0,0:0|0:0,0:0:0:0:
215,272,237720,6,0,B|291:247|292:294|362:267,1,150,4|8,0:0|0:0,0:0:0:0:
410,200,238214,1,0,0:0:0:0:
484,239,238379,2,0,L|492:164,1,75,2|0,0:0|0:0,0:0:0:0:
449,93,238709,1,8,0:0:0:0:
366,101,238874,6,0,P|303:139|230:127,1,150,4|0,0:0|0:0,0:0:0:0:
187,57,239368,1,8,0:0:0:0:
155,173,239533,5,8,0:0:0:0:
330,121,239863,1,8,0:0:0:0:
241,245,240192,6,0,P|306:211|377:230,1,150,4|0,0:0|3:0,3:3:0:0:
433,292,240687,1,0,3:0:0:0:
487,230,240852,2,0,B|510:134|510:134|465:108,1,150,4|0,0:0|2:0,0:0:0:0:
393,67,241346,2,0,L|307:79,1,75,0|0,3:0|3:0,3:3:0:0:
211,24,241676,5,4,0:0:0:0:
303,61,241841,1,0,3:0:0:0:
189,112,242006,1,0,3:0:0:0:
249,167,242170,6,0,L|251:241,1,75,4|0,0:0|3:0,0:0:0:0:
319,289,242500,2,0,L|359:283,2,37.5,0|0|0,3:0|3:0|3:0,3:3:0:0:
254,341,242830,1,0,3:0:0:0:
254,341,242995,6,0,B|188:313|174:358|107:328,1,150,4|0,0:0|3:0,0:0:0:0:
8,199,243489,2,0,B|74:227|88:182|154:211,1,150,4|0,0:0|3:0,0:0:0:0:
222,164,243984,2,0,P|241:132|241:94,1,75,0|0,3:0|3:0,3:3:0:0:
379,92,244313,6,0,P|327:145|334:219,1,150,4|0,0:0|3:0,0:0:0:0:
400,262,244808,2,0,L|250:250,1,150,4|0,0:0|3:0,3:3:0:0:
171,275,245302,2,0,L|134:281,3,37.5,0|0|0|0,3:0|3:0|3:0|3:0,3:3:0:0:
250,250,245962,5,4,0:0:0:0:
256,192,246044,12,0,250907,0:0:0:0:
