osu file format v14

[General]
AudioFilename: mimi.mp3
AudioLeadIn: 0
PreviewTime: 161120
Countdown: 0
SampleSet: Soft
StackLeniency: 0.7
Mode: 0
LetterboxInBreaks: 0
WidescreenStoryboard: 1

[Editor]
DistanceSpacing: 1
BeatDivisor: 4
GridSize: 32
TimelineZoom: 1.7

[Metadata]
Title:Mr. Darling
TitleUnicode:Mr. Darling
Artist:mimimemeMIMI
ArtistUnicode:みみめめMIMI
Creator:xHappy-
Version:Normal
Source:REFLEC BEAT plus
Tags:bon voyage! タカオユキ ユカ Takaoyuki Yuka ちゃもーい chamooi Mr.Darling mister Kimi no iru machi 君のいる町 GITADORA tri-boost jubeat plus japanese video game full ver p_kung [_lost_] conner c_o_n_n_e_r kittyadventure gokugohan12468
BeatmapID:2077068
BeatmapSetID:992737

[Difficulty]
HPDrainRate:4
CircleSize:3
OverallDifficulty:4
ApproachRate:5.5
SliderMultiplier:0.999999999999999
SliderTickRate:1

[Events]
//Background and Video events
0,0,"BG.jpg",0,0
//Break Periods
2,162684,173269
//Storyboard Layer 0 (Background)
//Storyboard Layer 1 (Fail)
//Storyboard Layer 2 (Pass)
//Storyboard Layer 3 (Foreground)
//Storyboard Layer 4 (Overlay)
//Storyboard Sound Samples

[TimingPoints]
544,368.098159509202,4,2,1,40,1,0
6617,368.098159509202,4,2,1,50,1,0
6617,-100,4,2,1,50,0,0
10850,-105.263157894737,4,2,1,50,0,0
12138,-100,4,2,1,70,0,0
24285,-105.263157894737,4,2,1,50,0,0
29807,-100,4,2,1,60,0,0
30175,-100,4,2,1,60,0,0
33120,-105.263157894737,4,2,1,50,0,0
38641,-100,4,2,1,60,0,0
44898,368.098159509202,3,2,1,50,1,0
44898,-111.111111111111,3,2,1,50,0,0
51523,368.098159509202,4,2,1,70,1,0
53823,-100,4,2,1,50,0,0
53915,-100,4,2,1,60,0,0
54007,-100,4,2,1,70,0,0
54099,-100,4,2,1,80,0,0
54467,-95.2380952380952,4,2,1,80,0,1
77565,-95.2380952380952,4,2,1,60,0,1
77934,-95.2380952380952,4,2,1,60,0,0
78026,-95.2380952380952,4,2,1,80,0,1
97351,-95.2380952380952,4,2,1,80,0,0
99375,-100,4,2,1,70,0,0
111891,-105.263157894737,4,2,1,50,0,0
117780,-100,4,2,1,60,0,0
120725,-105.263157894737,4,2,1,50,0,0
125878,-100,4,2,1,50,0,0
126615,-100,4,2,1,60,0,0
132136,-100,4,2,1,60,0,0
132506,368.098159509202,3,2,1,50,1,0
132506,-111.111111111111,3,2,1,50,0,0
139131,-105.263157894737,3,2,1,60,0,0
153487,-105.263157894737,3,2,1,70,0,0
154591,-105.263157894737,3,2,1,70,0,0
158272,-105.263157894737,3,2,1,60,0,0
158917,-105.263157894737,3,2,1,5,0,0
159009,368.098159509202,5,2,1,60,1,0
159009,-100,5,2,1,60,0,0
162690,368.098159509202,4,2,1,60,1,0
174377,-100,4,2,1,5,0,0
174469,-105.263157894737,4,2,1,60,0,0
180358,368.098159509202,3,2,1,60,1,0
185875,368.098159509202,4,2,1,50,1,0
185875,-100,4,2,1,50,0,0
187347,-95.2380952380952,4,2,1,80,0,1
210445,-95.2380952380952,4,2,1,60,0,1
210813,-95.2380952380952,4,2,1,60,0,0
210905,-95.2380952380952,4,2,1,80,0,1
230230,-95.2380952380952,4,2,1,80,0,0
232807,-100,4,2,1,70,0,1
232899,-100,4,2,1,70,0,0
245506,-100,4,2,1,60,0,0
245874,-100,4,2,1,50,0,0
246243,-100,4,2,1,40,0,0
246611,-100,4,2,1,30,0,0
246979,-100,4,2,1,20,0,0
247347,-100,4,2,1,10,0,0
247715,-100,4,2,1,5,0,0

[Colours]
Combo1 : 66,210,253
Combo2 : 255,170,170
Combo3 : 255,51,51
Combo4 : 128,255,255

[HitObjects]
359,218,10850,5,2,0:2:0:0:
284,277,11218,2,0,L|237:275,1,47.4999987316131,2|2,0:2|0:2,0:0:0:0:
189,272,11586,2,0,P|142:268|101:291,1,94.9999974632263,2|2,0:2|0:0,0:0:0:0:
59,319,12138,1,10,0:2:0:0:
59,319,12322,6,0,P|31:266|33:220,1,99.9999999999999,6|2,1:2|1:2,0:0:0:0:
42,178,12874,1,10,0:2:0:0:
13,82,13242,2,0,P|36:75|63:79,1,50,2|2,1:2|1:2,0:0:0:0:
109,90,13610,1,10,0:2:0:0:
109,90,13794,2,0,L|219:84,1,99.9999999999999,6|2,1:2|1:2,0:0:0:0:
258,81,14347,1,10,0:2:0:0:
355,59,14715,2,0,P|358:88|352:115,1,50,2|2,1:2|1:2,0:0:0:0:
347,157,15083,1,10,0:2:0:0:
347,157,15267,6,0,P|326:208|327:265,1,99.9999999999999,6|0,1:2|1:0,0:0:0:0:
335,301,15819,1,10,0:2:0:0:
421,351,16187,2,0,L|436:301,1,50,2|2,1:2|1:2,0:0:0:0:
460,259,16555,1,10,0:2:0:0:
460,259,16739,2,0,L|452:159,1,99.9999999999999,6|2,1:2|1:2,0:0:0:0:
446,109,17291,1,10,0:2:0:0:
358,60,17659,1,10,0:2:0:0:
261,85,18028,1,10,0:2:0:0:
260,85,18212,6,0,P|211:87|166:66,1,99.9999999999999,6|0,1:2|1:0,0:0:0:0:
122,41,18764,1,10,0:2:0:0:
32,84,19132,2,0,L|35:135,1,50,2|2,1:2|1:2,0:0:0:0:
38,183,19500,1,10,0:2:0:0:
38,183,19684,2,0,P|90:159|144:166,1,99.9999999999999,6|0,1:2|1:0,0:0:0:0:
180,171,20236,1,10,0:2:0:0:
173,270,20604,2,0,L|177:319,1,50,2|2,1:2|1:2,0:0:0:0:
219,346,20972,1,10,0:2:0:0:
219,346,21156,6,0,P|272:329|297:292,1,99.9999999999999,6|0,1:2|1:0,0:0:0:0:
319,249,21709,1,10,0:2:0:0:
418,259,22077,1,2,1:2:0:0:
470,173,22445,2,0,L|455:116,1,50,10|2,0:2|1:2,0:0:0:0:
421,89,22813,2,0,L|317:93,1,99.9999999999999,10|10,0:2|0:2,0:0:0:0:
272,81,23365,1,2,1:2:0:0:
272,81,23549,2,0,L|210:78,1,50,10|8,0:2|3:0,0:0:0:0:
178,102,23917,1,4,3:0:0:0:
83,88,24285,6,0,P|12:145|20:236,1,189.999994926453,6|2,3:2|3:2,0:0:0:0:
113,344,25574,1,2,1:2:0:0:
113,344,25758,2,0,L|305:336,1,189.999994926453,2|2,1:2|3:2,0:0:0:0:
404,235,27046,1,2,1:2:0:0:
404,235,27230,6,0,L|498:240,2,94.9999974632263,2|2|2,1:2|3:2|3:2,0:0:0:0:
412,140,28334,2,0,L|462:143,2,47.4999987316131,2|2|0,3:2|1:2|1:2,0:0:0:0:
317,138,29070,1,2,3:2:0:0:
221,136,29439,1,2,3:2:0:0:
126,131,29807,1,10,0:2:0:0:
77,218,30175,6,0,L|199:216,1,99.9999999999999,6|10,1:2|0:2,0:0:0:0:
267,258,30911,1,2,1:2:0:0:
267,258,31095,2,0,L|389:260,1,99.9999999999999,2|10,1:2|0:0,0:0:0:0:
457,216,31831,1,2,1:2:0:0:
487,311,32199,2,0,P|467:355|424:379,1,99.9999999999999,10|2,0:2|1:2,0:0:0:0:
375,372,32751,2,0,L|306:375,1,50,10|2,0:2|1:2,0:0:0:0:
277,375,33120,6,0,P|187:354|154:266,1,189.999994926453,6|2,1:2|3:2,0:0:0:0:
13,242,34408,1,2,1:2:0:0:
13,242,34592,2,0,P|50:164|148:134,1,189.999994926453,2|2,1:2|3:2,0:0:0:0:
246,34,35880,1,2,1:2:0:0:
246,34,36064,6,0,L|142:32,2,94.9999974632263,2|0|0,1:2|3:2|0:0,0:0:0:0:
283,121,37169,2,0,L|235:121,2,47.4999987316131,0|2|0,0:0|1:2|1:2,0:0:0:0:
322,207,37905,1,2,3:2:0:0:
415,191,38273,2,0,L|408:243,1,47.4999987316131,2|0,3:2|1:0,0:0:0:0:
405,285,38641,1,10,0:2:0:0:
329,350,39009,6,0,L|216:355,1,99.9999999999999,6|10,1:2|0:2,0:0:0:0:
129,359,39745,1,2,1:2:0:0:
129,359,39929,2,0,P|106:318|105:268,1,99.9999999999999,2|10,1:2|0:0,0:0:0:0:
142,172,40666,1,2,1:2:0:0:
76,96,41034,2,0,P|127:71|186:84,1,99.9999999999999,10|2,0:2|1:2,0:0:0:0:
215,93,41586,2,0,L|267:91,1,50,10|0,0:0|0:0,0:0:0:0:
314,87,41954,6,0,P|353:129|356:189,1,99.9999999999999,6|10,1:2|0:2,0:0:0:0:
295,246,42690,1,2,1:2:0:0:
295,246,42874,2,0,L|289:355,1,99.9999999999999,2|10,1:2|0:0,0:0:0:0:
382,382,43610,2,0,L|438:369,1,50,2|8,1:2|0:0,0:0:0:0:
479,359,43978,2,0,P|467:313|469:257,1,99.9999999999999,6|2,1:2|1:2,0:0:0:0:
483,213,44531,2,0,L|447:172,1,50,10|0,0:0|1:0,0:0:0:0:
420,142,44898,5,6,1:2:0:0:
429,52,45266,1,2,0:2:0:0:
344,20,45634,1,2,0:2:0:0:
268,69,46002,2,0,L|287:156,1,89.999997253418,2|2,1:2|0:2,0:0:0:0:
226,223,46738,1,2,0:2:0:0:
155,166,47106,6,0,P|110:163|70:182,1,89.999997253418,6|2,1:2|0:2,0:0:0:0:
32,206,47658,1,8,0:2:0:0:
32,206,47842,2,0,L|43:301,1,89.999997253418,2|10,0:2|0:2,0:0:0:0:
116,344,48578,1,8,3:0:0:0:
205,336,48947,1,4,3:0:0:0:
289,368,49315,6,0,P|294:316|273:275,1,89.999997253418,6|2,1:2|0:0,0:0:0:0:
249,248,49867,1,8,0:0:0:0:
249,248,50051,2,0,L|256:156,1,89.999997253418,2|10,0:0|0:0,0:0:0:0:
201,87,50787,1,2,1:2:0:0:
263,22,51155,1,8,0:0:0:0:
355,56,51523,6,0,P|404:67|454:62,1,99.9999999999999,6|0,1:2|0:0,0:0:0:0:
499,41,52075,1,2,1:2:0:0:
499,41,52259,2,0,L|508:145,1,99.9999999999999,2|8,0:0|0:0,0:0:0:0:
454,225,52995,2,0,P|404:220|355:231,1,99.9999999999999,2|8,1:2|0:2,0:0:0:0:
291,154,53731,2,0,P|275:168|255:198,1,50,8|8,0:0|0:0,0:0:0:0:
223,226,54099,2,0,P|227:246|243:279,1,50,8|8,0:0|0:0,0:0:0:0:
253,323,54467,6,0,L|128:331,1,104.999996795654,6|8,1:2|0:0,0:0:0:0:
96,337,55019,1,2,0:0:0:0:
96,337,55203,2,0,P|82:304|83:277,1,52.4999983978271,2|0,1:2|1:0,0:0:0:0:
82,234,55572,1,8,0:0:0:0:
25,145,55940,2,0,L|99:59,1,104.999996795654,2|8,1:2|0:2,0:0:0:0:
184,110,56676,2,0,L|243:107,1,52.4999983978271,2|0,1:2|1:0,0:0:0:0:
288,104,57044,1,10,0:0:0:0:
359,26,57412,6,0,P|392:65|396:117,1,104.999996795654,6|8,1:2|0:0,0:0:0:0:
395,169,57964,1,2,0:2:0:0:
395,169,58148,1,2,1:2:0:0:
362,255,58516,2,0,L|353:328,1,52.4999983978271,8|2,0:0|0:0,0:0:0:0:
309,333,58884,2,0,P|265:330|205:352,1,104.999996795654,2|8,1:2|0:0,0:0:0:0:
160,371,59437,1,2,0:0:0:0:
160,371,59621,1,2,1:2:0:0:
85,297,59989,1,8,0:0:0:0:
140,207,60357,6,0,P|161:170|164:104,1,104.999996795654,6|8,1:2|0:0,0:0:0:0:
150,58,60909,1,2,0:2:0:0:
150,58,61093,1,2,1:2:0:0:
250,39,61461,2,0,L|306:36,1,52.4999983978271,8|2,0:0|0:0,0:0:0:0:
354,34,61829,2,0,P|404:47|430:106,1,104.999996795654,2|8,1:2|0:0,0:0:0:0:
385,185,62565,2,0,P|382:223|396:254,1,52.4999983978271,2|0,1:2|1:0,0:0:0:0:
402,286,62934,1,10,0:0:0:0:
321,353,63302,6,0,P|275:331|224:337,1,104.999996795654,6|8,1:2|0:0,0:0:0:0:
173,350,63854,1,2,0:0:0:0:
173,350,64038,2,0,L|104:346,1,52.4999983978271,2|0,1:2|1:0,0:0:0:0:
68,344,64406,1,8,0:2:0:0:
0,263,64774,2,0,P|8:206|50:172,1,104.999996795654,2|8,1:2|0:0,0:0:0:0:
146,171,65510,2,0,L|216:171,1,52.4999983978271,2|8,1:2|0:0,0:0:0:0:
244,146,65878,2,0,L|314:146,1,52.4999983978271,10|8,0:0|0:0,0:0:0:0:
345,126,66246,6,0,P|365:164|363:229,1,104.999996795654,6|8,1:2|0:0,0:0:0:0:
340,272,66799,1,2,0:0:0:0:
340,272,66983,1,2,1:2:0:0:
387,357,67351,2,0,L|449:348,1,52.4999983978271,8|2,0:0|1:2,0:0:0:0:
491,343,67719,2,0,P|504:290|500:239,1,104.999996795654,2|8,1:2|0:0,0:0:0:0:
471,196,68271,1,2,0:0:0:0:
471,196,68455,1,2,1:2:0:0:
511,99,68823,2,0,P|489:90|460:90,1,52.4999983978271,8|2,0:0|0:0,0:0:0:0:
408,96,69191,6,0,P|358:95|316:52,1,104.999996795654,6|8,1:2|0:0,0:0:0:0:
290,15,69743,1,2,0:0:0:0:
290,15,69927,2,0,L|229:24,1,52.4999983978271,2|0,1:2|1:0,0:0:0:0:
185,31,70296,1,8,0:0:0:0:
82,9,70664,2,0,P|40:29|6:75,1,104.999996795654,2|8,1:2|0:0,0:0:0:0:
54,164,71400,2,0,P|57:195|50:222,1,52.4999983978271,0|0,1:0|1:0,0:0:0:0:
28,262,71768,2,0,P|25:293|32:320,1,52.4999983978271,8|2,0:0|0:0,0:0:0:0:
62,354,72136,5,6,1:2:0:0:
153,303,72504,2,0,P|209:299|252:325,1,104.999996795654,10|2,0:0|1:2,0:0:0:0:
292,354,73056,1,0,1:0:0:0:
292,354,73240,2,0,L|349:348,1,52.4999983978271,8|2,0:0|0:0,0:0:0:0:
396,345,73608,1,6,1:2:0:0:
454,257,73976,1,10,0:0:0:0:
381,180,74345,2,0,L|324:174,1,52.4999983978271,2|0,1:2|1:0,0:0:0:0:
276,169,74713,1,8,0:0:0:0:
213,84,75081,6,0,P|176:126|171:178,1,104.999996795654,6|8,1:2|0:0,0:0:0:0:
181,224,75633,1,2,0:0:0:0:
181,224,75817,2,0,L|180:286,1,52.4999983978271,10|0,0:0|1:0,0:0:0:0:
180,328,76185,1,8,0:0:0:0:
76,346,76553,1,10,0:0:0:0:
15,259,76921,1,8,0:0:0:0:
79,176,77289,2,0,L|86:122,1,52.4999983978271,10|8,0:0|0:0,0:0:0:0:
40,97,77657,2,0,L|33:43,1,52.4999983978271,10|8,0:0|0:0,0:0:0:0:
72,10,78026,6,0,P|108:27|173:30,1,104.999996795654,6|8,1:2|0:0,0:0:0:0:
221,12,78578,1,2,0:0:0:0:
221,12,78762,2,0,L|273:15,1,52.4999983978271,2|0,1:2|1:0,0:0:0:0:
325,18,79130,1,8,0:0:0:0:
428,11,79498,2,0,P|469:49|475:111,1,104.999996795654,2|8,1:2|0:0,0:0:0:0:
414,179,80234,2,0,L|366:147,1,52.4999983978271,2|0,1:2|1:0,0:0:0:0:
325,122,80602,1,8,0:0:0:0:
225,155,80970,6,0,P|171:154|120:113,1,104.999996795654,6|8,1:2|0:0,0:0:0:0:
88,94,81522,1,2,0:0:0:0:
88,94,81707,1,2,1:2:0:0:
5,143,82075,2,0,L|13:201,1,52.4999983978271,8|2,0:0|0:2,0:0:0:0:
19,247,82443,2,0,P|19:291|59:349,1,104.999996795654,2|8,1:2|0:0,0:0:0:0:
99,358,82995,1,2,0:0:0:0:
99,358,83179,1,2,1:2:0:0:
189,305,83547,1,8,0:0:0:0:
279,358,83915,6,0,L|385:353,1,104.999996795654,6|8,1:2|0:0,0:0:0:0:
436,351,84467,1,2,0:0:0:0:
436,351,84651,2,0,P|444:310|443:286,1,52.4999983978271,2|0,1:2|1:0,0:0:0:0:
430,248,85019,1,8,0:0:0:0:
463,147,85388,2,0,P|425:81|387:73,1,104.999996795654,2|8,1:2|0:0,0:0:0:0:
308,122,86124,2,0,L|315:180,1,52.4999983978271,2|0,1:2|1:0,0:0:0:0:
319,226,86492,1,8,0:0:0:0:
248,303,86860,6,0,P|203:298|144:325,1,104.999996795654,6|8,1:2|0:0,0:0:0:0:
106,351,87412,1,2,0:0:0:0:
106,351,87596,2,0,L|49:348,1,52.4999983978271,2|0,1:2|1:0,0:0:0:0:
1,346,87964,1,8,0:0:0:0:
33,246,88332,2,0,P|9:200|7:145,1,104.999996795654,2|8,1:2|0:0,0:0:0:0:
67,63,89069,2,0,P|107:46|169:46,1,104.999996795654,2|0,1:2|1:2,0:0:0:0:
216,64,89621,1,8,0:0:0:0:
216,64,89805,6,0,L|326:62,1,104.999996795654,6|10,1:2|0:0,0:0:0:0:
367,37,90357,1,2,0:0:0:0:
367,37,90541,2,0,P|417:26|468:37,1,104.999996795654,2|8,1:2|0:0,0:0:0:0:
492,83,91093,2,0,P|491:134|465:179,1,104.999996795654,2|2,0:2|0:0,0:0:0:0:
435,222,91645,1,10,0:0:0:0:
458,324,92013,2,0,L|405:321,1,52.4999983978271,0|0,1:0|1:0,0:0:0:0:
353,320,92381,1,10,0:0:0:0:
255,359,92749,6,0,P|247:309|268:258,1,104.999996795654,6|10,1:2|0:0,0:0:0:0:
304,222,93302,1,0,0:0:0:0:
304,222,93486,2,0,L|298:154,1,52.4999983978271,2|0,1:2|1:0,0:0:0:0:
339,136,93854,1,10,0:0:0:0:
316,32,94222,2,0,P|273:5|221:5,1,104.999996795654,2|8,1:2|0:0,0:0:0:0:
121,37,94958,2,0,L|115:105,1,52.4999983978271,0|0,1:0|1:0,0:0:0:0:
90,134,95326,2,0,L|84:202,1,52.4999983978271,8|2,0:0|1:2,0:0:0:0:
56,230,95694,6,0,P|47:290|70:344,1,104.999996795654,14|0,0:0|1:0,0:0:0:0:
108,353,96246,1,14,0:0:0:0:
210,319,96615,1,0,1:0:0:0:
210,319,96799,2,0,P|265:315|312:337,1,104.999996795654,14|0,0:0|1:0,0:0:0:0:
355,360,97351,1,14,0:0:0:0:
355,360,99375,6,0,L|415:352,1,50,10|2,0:0|1:2,0:0:0:0:
454,350,99743,1,2,1:2:0:0:
454,350,99927,6,0,P|486:312|493:258,1,99.9999999999999,6|0,1:2|1:0,0:0:0:0:
469,219,100480,1,10,0:0:0:0:
370,201,100848,2,0,L|305:209,1,50,0|2,1:0|1:2,0:0:0:0:
271,215,101216,1,10,0:2:0:0:
271,215,101400,2,0,P|227:190|178:188,1,99.9999999999999,6|0,1:2|1:0,0:0:0:0:
129,194,101952,1,10,0:0:0:0:
34,162,102320,2,0,L|42:104,1,50,0|2,1:0|1:2,0:0:0:0:
45,62,102688,1,10,0:2:0:0:
45,62,102872,6,0,L|156:58,1,99.9999999999999,6|0,1:2|1:0,0:0:0:0:
194,57,103424,1,10,0:0:0:0:
287,22,103792,2,0,P|293:56|289:82,1,50,2|0,1:2|1:2,0:0:0:0:
268,115,104161,1,10,0:2:0:0:
268,115,104345,2,0,P|262:177|288:229,1,99.9999999999999,6|0,1:2|1:0,0:0:0:0:
302,253,104897,1,10,0:0:0:0:
286,351,105265,1,10,0:0:0:0:
383,371,105633,1,10,0:0:0:0:
383,371,105817,6,0,P|432:370|475:346,1,99.9999999999999,4|0,1:2|1:0,0:0:0:0:
510,310,106369,1,8,0:0:0:0:
478,215,106737,2,0,L|475:164,1,50,0|2,1:0|1:2,0:0:0:0:
472,116,107105,1,10,0:0:0:0:
472,116,107289,2,0,P|425:111|372:139,1,99.9999999999999,6|0,1:2|1:0,0:0:0:0:
337,161,107842,1,10,0:0:0:0:
240,133,108210,2,0,L|236:182,1,50,0|2,1:0|1:2,0:0:0:0:
231,232,108578,1,10,0:0:0:0:
231,232,108762,6,0,P|201:266|151:285,1,99.9999999999999,6|0,1:2|1:0,0:0:0:0:
101,277,109314,1,10,0:0:0:0:
31,204,109682,1,2,1:2:0:0:
67,111,110050,2,0,L|121:116,1,50,10|2,0:0|1:2,0:0:0:0:
166,110,110418,2,0,L|273:108,1,99.9999999999999,10|10,0:0|0:0,0:0:0:0:
314,94,110970,1,2,1:2:0:0:
314,94,111154,2,0,L|376:97,1,50,10|8,0:0|3:0,0:0:0:0:
413,100,111522,1,4,3:0:0:0:
481,165,111891,5,6,1:2:0:0:
411,229,112259,1,8,0:0:0:0:
450,315,112627,2,0,P|403:324|358:312,1,94.9999974632263,2|8,0:0|0:0,0:0:0:0:
317,287,113179,1,2,0:0:0:0:
317,287,113363,1,2,1:2:0:0:
260,363,113731,1,8,0:0:0:0:
179,311,114099,2,0,L|76:304,1,94.9999974632263,2|8,0:0|0:0,0:0:0:0:
35,305,114651,1,2,0:0:0:0:
35,305,114835,5,2,1:2:0:0:
10,213,115203,1,10,0:0:0:0:
88,159,115572,1,2,0:0:0:0:
173,200,115940,2,0,L|220:199,1,47.4999987316131,10|2,0:2|0:0,0:0:0:0:
263,198,116308,2,0,P|316:195|359:171,1,94.9999974632263,0|10,1:0|0:0,0:0:0:0:
436,221,117044,1,2,0:0:0:0:
484,139,117412,1,10,0:0:0:0:
403,79,117780,6,0,L|281:81,1,99.9999999999999,4|10,1:2|0:0,0:0:0:0:
215,31,118516,1,2,1:2:0:0:
215,31,118700,2,0,L|115:29,1,99.9999999999999,2|10,1:2|0:0,0:0:0:0:
46,102,119437,1,2,1:2:0:0:
115,173,119805,2,0,L|214:171,1,99.9999999999999,2|2,0:0|1:2,0:0:0:0:
264,171,120357,2,0,L|260:235,1,50,10|2,0:0|1:2,0:0:0:0:
261,268,120725,5,6,1:2:0:0:
196,337,121093,1,8,0:0:0:0:
102,321,121461,2,0,P|73:280|70:225,1,94.9999974632263,2|8,0:0|0:0,0:0:0:0:
69,189,122013,1,2,0:0:0:0:
69,189,122197,1,2,1:2:0:0:
30,102,122565,1,8,0:0:0:0:
123,95,122934,2,0,P|168:106|214:97,1,94.9999974632263,2|8,0:2|0:0,0:0:0:0:
261,90,123486,1,0,0:0:0:0:
261,90,123670,5,2,1:2:0:0:
340,37,124038,1,8,0:0:0:0:
340,37,124222,2,0,P|386:40|428:74,1,94.9999974632263,2|2,0:0|1:2,0:0:0:0:
454,104,124774,1,8,0:0:0:0:
411,188,125142,2,0,P|389:230|391:277,1,94.9999974632263,0|10,1:0|0:0,0:0:0:0:
452,354,125878,2,0,L|396:368,1,50,2|0,0:0|1:0,0:0:0:0:
354,375,126246,1,10,0:0:0:0:
264,331,126615,6,0,L|151:336,1,99.9999999999999,6|10,1:2|0:0,0:0:0:0:
64,343,127351,1,2,1:2:0:0:
64,343,127535,2,0,P|41:302|40:252,1,99.9999999999999,2|10,1:2|0:2,0:0:0:0:
112,180,128271,1,2,1:2:0:0:
47,103,128639,2,0,P|98:78|157:91,1,99.9999999999999,2|2,1:2|1:2,0:0:0:0:
189,83,129191,2,0,L|241:81,1,50,10|8,0:0|0:0,0:0:0:0:
288,72,129559,6,0,P|336:82|370:117,1,99.9999999999999,6|10,1:2|0:2,0:0:0:0:
469,104,130296,1,10,0:0:0:0:
469,104,130480,2,0,L|464:175,1,50,2|8,1:2|0:0,0:0:0:0:
469,203,130848,2,0,P|466:252|443:296,1,99.9999999999999,2|2,1:2|1:2,0:0:0:0:
413,336,131400,1,8,0:0:0:0:
413,336,131584,1,6,1:2:0:0:
316,310,131952,2,0,L|262:316,1,50,8|4,3:0|3:0,0:0:0:0:
177,328,132504,5,6,1:2:0:0:
94,291,132874,2,0,L|63:324,2,44.999998626709,2|8|2,0:0|0:0|0:2,0:0:0:0:
46,214,133610,1,10,0:0:0:0:
92,137,133978,2,0,P|136:128|180:136,1,89.999997253418,2|2,0:0|0:0,0:0:0:0:
267,156,134714,6,0,P|311:165|355:157,1,89.999997253418,2|10,1:2|0:0,0:0:0:0:
422,216,135450,1,10,0:0:0:0:
479,146,135818,1,8,3:0:0:0:
445,62,136186,2,0,L|353:67,1,89.999997253418,4|2,3:0|1:2,0:0:0:0:
276,22,136923,6,0,P|225:20|182:46,1,89.999997253418,4|2,1:2|0:0,0:0:0:0:
150,56,137475,1,8,0:0:0:0:
150,56,137659,2,0,L|104:54,1,44.999998626709,2|0,1:2|1:0,0:0:0:0:
60,52,138027,1,10,0:0:0:0:
4,122,138395,1,2,0:0:0:0:
4,122,138579,2,0,L|9:172,1,44.999998626709,8|4,3:0|3:0,0:0:0:0:
89,215,139131,6,0,P|126:192|193:190,1,94.9999974632263,6|0,1:2|0:0,0:0:0:0:
263,148,139867,1,10,0:0:0:0:
349,188,140236,1,4,3:0:0:0:
429,138,140604,2,0,P|441:169|434:232,1,94.9999974632263,8|4,0:0|3:0,0:0:0:0:
426,276,141156,1,2,0:0:0:0:
426,276,141340,5,6,1:2:0:0:
344,324,141708,2,0,L|246:327,1,94.9999974632263,2|2,0:0|1:2,0:0:0:0:
201,331,142260,1,0,0:0:0:0:
201,331,142444,2,0,P|177:296|174:235,1,94.9999974632263,10|2,0:0|0:0,0:0:0:0:
169,149,143180,1,2,1:2:0:0:
75,166,143548,6,0,P|47:123|45:76,1,94.9999974632263,2|0,1:2|0:0,0:0:0:0:
63,36,144101,1,8,0:0:0:0:
63,36,144285,2,0,L|163:31,1,94.9999974632263,0|10,1:2|0:0,0:0:0:0:
241,72,145021,2,0,L|240:122,2,47.4999987316131,2|8|4,0:0|3:0|3:0,0:0:0:0:
326,30,145757,6,0,L|420:36,1,94.9999974632263,4|0,1:2|0:0,0:0:0:0:
468,39,146309,1,8,0:0:0:0:
468,39,146493,1,0,1:2:0:0:
502,127,146861,1,10,0:0:0:0:
432,191,147229,1,2,0:0:0:0:
502,254,147598,1,2,1:2:0:0:
432,318,147966,6,0,P|398:335|340:333,1,94.9999974632263,2|0,1:2|0:0,0:0:0:0:
299,312,148518,1,8,0:0:0:0:
299,312,148702,2,0,L|240:316,1,47.4999987316131,2|2,1:2|0:0,0:0:0:0:
204,317,149070,1,6,1:2:0:0:
119,359,149438,2,0,P|111:336|110:312,1,47.4999987316131,8|2,0:0|0:0,0:0:0:0:
114,265,149806,2,0,P|121:242|122:218,1,47.4999987316131,4|2,3:0|0:0,0:0:0:0:
106,174,150174,6,0,P|141:150|202:149,1,94.9999974632263,6|0,1:2|0:0,0:0:0:0:
239,154,150726,1,8,0:0:0:0:
239,154,150910,1,0,1:0:0:0:
321,202,151279,1,10,0:0:0:0:
397,146,151647,1,2,0:2:0:0:
372,54,152015,1,2,1:2:0:0:
277,54,152383,6,0,L|177:58,1,94.9999974632263,2|0,1:2|0:0,0:0:0:0:
134,62,152935,1,8,0:0:0:0:
134,62,153119,2,0,L|72:58,1,47.4999987316131,2|2,1:2|0:0,0:0:0:0:
39,57,153487,1,10,0:0:0:0:
1,144,153855,1,8,3:0:0:0:
55,221,154223,1,4,3:0:0:0:
146,199,154591,6,0,P|198:195|239:211,1,94.9999974632263,6|0,1:2|0:0,0:0:0:0:
279,235,155144,1,8,0:0:0:0:
279,235,155328,1,0,1:0:0:0:
268,329,155696,1,8,0:0:0:0:
175,349,156064,2,0,L|121:345,1,47.4999987316131,0|2,0:0|0:0,0:0:0:0:
80,343,156432,1,2,1:2:0:0:
6,282,156800,6,0,P|2:228|18:180,1,94.9999974632263,6|10,1:2|0:0,0:0:0:0:
42,151,157352,1,6,1:2:0:0:
8,61,157720,1,2,1:2:0:0:
8,61,157904,1,12,0:0:0:0:
89,12,158272,2,0,L|185:15,1,94.9999974632263,6|0,1:2|0:0,0:0:0:0:
284,20,159009,1,2,0:0:0:0:
256,192,159193,12,2,161217,0:0:0:0:
427,106,174469,6,0,P|450:153|446:198,1,94.9999974632263,6|2,1:2|1:2,0:0:0:0:
433,239,175021,1,2,0:0:0:0:
433,239,175205,1,2,1:2:0:0:
491,313,175573,1,2,1:2:0:0:
410,364,175941,2,0,L|309:358,1,94.9999974632263,2|2,1:2|1:2,0:0:0:0:
267,361,176493,1,8,0:0:0:0:
267,361,176677,1,8,3:0:0:0:
181,319,177045,1,4,3:0:0:0:
102,373,177413,6,0,P|87:321|100:273,1,94.9999974632263,2|2,1:2|1:2,0:0:0:0:
116,239,177966,1,0,0:0:0:0:
116,239,178150,2,0,L|106:136,1,94.9999974632263,2|2,1:2|1:2,0:0:0:0:
100,97,178702,1,8,0:0:0:0:
100,97,178886,1,2,1:2:0:0:
163,25,179254,2,0,P|206:46|253:48,1,94.9999974632263,2|8,1:2|3:0,0:0:0:0:
336,1,179990,2,0,P|347:22|350:52,1,47.4999987316131,4|8,3:0|0:0,0:0:0:0:
337,93,180358,6,0,P|331:148|351:199,1,99.9999999999999,6|8,1:2|0:0,0:0:0:0:
375,229,180910,1,6,1:2:0:0:
467,190,181278,1,2,1:2:0:0:
467,190,181462,2,0,P|481:142|475:93,1,99.9999999999999,14|2,0:0|1:2,0:0:0:0:
456,46,182014,1,14,0:0:0:0:
362,11,182382,1,2,1:2:0:0:
362,11,182566,6,0,L|261:16,1,99.9999999999999,14|8,0:0|0:0,0:0:0:0:
212,21,183118,1,6,1:2:0:0:
212,21,183302,2,0,L|204:78,1,50,8|2,0:0|1:2,0:0:0:0:
239,106,183670,2,0,P|259:145|247:208,1,99.9999999999999,10|10,0:0|0:0,0:0:0:0:
207,222,184223,1,14,0:0:0:0:
207,222,185875,5,2,0:0:0:0:
37,327,186611,2,0,P|8:286|6:237,1,99.9999999999999,8|2,3:0|0:0,0:0:0:0:
43,139,187347,6,0,L|168:131,1,104.999996795654,6|8,1:2|0:0,0:0:0:0:
200,133,187899,1,2,0:0:0:0:
200,133,188083,2,0,P|214:100|213:73,1,52.4999983978271,2|0,1:2|1:0,0:0:0:0:
214,30,188451,1,8,0:0:0:0:
313,63,188819,2,0,L|421:37,1,104.999996795654,2|8,1:2|0:2,0:0:0:0:
511,63,189555,2,0,L|507:116,1,52.4999983978271,2|0,1:2|1:0,0:0:0:0:
505,167,189924,1,10,0:0:0:0:
416,222,190292,6,0,P|383:261|379:313,1,104.999996795654,6|8,1:2|0:0,0:0:0:0:
346,353,190844,1,2,0:2:0:0:
346,353,191028,1,2,1:2:0:0:
241,354,191396,2,0,L|168:345,1,52.4999983978271,8|2,0:0|0:0,0:0:0:0:
150,311,191764,2,0,P|106:308|46:330,1,104.999996795654,2|8,1:2|0:0,0:0:0:0:
1,350,192316,1,2,0:0:0:0:
1,350,192500,1,2,1:2:0:0:
10,245,192868,1,8,0:0:0:0:
0,140,193236,6,0,P|37:161|103:164,1,104.999996795654,6|8,1:2|0:0,0:0:0:0:
146,144,193789,1,2,0:2:0:0:
146,144,193973,1,2,1:2:0:0:
246,125,194341,2,0,L|302:122,1,52.4999983978271,8|2,0:0|0:0,0:0:0:0:
350,121,194709,2,0,P|403:113|435:63,1,104.999996795654,2|8,1:2|0:0,0:0:0:0:
344,17,195445,2,0,L|288:20,1,52.4999983978271,2|0,1:2|1:0,0:0:0:0:
238,21,195813,1,10,0:0:0:0:
133,26,196181,6,0,P|111:72|117:123,1,104.999996795654,6|8,1:2|0:0,0:0:0:0:
131,174,196733,1,2,0:0:0:0:
131,174,196917,2,0,L|127:243,1,52.4999983978271,2|0,1:2|1:0,0:0:0:0:
125,279,197286,1,8,0:2:0:0:
202,350,197654,2,0,P|257:342|291:308,1,104.999996795654,2|8,1:2|0:0,0:0:0:0:
249,211,198390,2,0,L|249:141,1,52.4999983978271,2|8,1:2|0:0,0:0:0:0:
231,108,198758,2,0,L|231:38,1,52.4999983978271,10|10,0:0|0:0,0:0:0:0:
274,25,199126,6,0,P|325:22|372:44,1,104.999996795654,6|8,1:2|0:0,0:0:0:0:
408,82,199678,1,2,0:0:0:0:
408,82,199862,1,2,1:2:0:0:
419,184,200230,2,0,L|428:246,1,52.4999983978271,8|2,0:0|1:2,0:0:0:0:
395,278,200598,2,0,P|342:281|292:268,1,104.999996795654,2|8,1:2|0:0,0:0:0:0:
245,244,201151,1,2,0:0:0:0:
245,244,201335,1,2,1:2:0:0:
283,147,201703,2,0,P|261:138|232:138,1,52.4999983978271,8|2,0:0|0:0,0:0:0:0:
182,154,202071,6,0,P|132:153|90:110,1,104.999996795654,6|8,1:2|0:0,0:0:0:0:
91,64,202623,1,2,0:0:0:0:
91,64,202807,2,0,L|152:55,1,52.4999983978271,2|0,1:2|1:0,0:0:0:0:
195,48,203175,1,8,0:2:0:0:
294,14,203543,2,0,P|346:18|394:69,1,104.999996795654,2|8,1:2|0:0,0:0:0:0:
374,155,204279,2,0,P|371:186|378:213,1,52.4999983978271,0|0,1:0|1:0,0:0:0:0:
413,242,204648,2,0,P|416:273|409:300,1,52.4999983978271,8|2,0:0|0:0,0:0:0:0:
394,343,205016,5,6,1:2:0:0:
294,310,205384,2,0,P|238:306|195:332,1,104.999996795654,10|2,0:2|1:2,0:0:0:0:
151,355,205936,1,0,1:0:0:0:
151,355,206120,2,0,L|94:349,1,52.4999983978271,8|2,0:0|0:0,0:0:0:0:
46,346,206488,1,6,1:2:0:0:
1,250,206856,1,10,0:2:0:0:
46,154,207224,2,0,L|103:148,1,52.4999983978271,2|0,1:2|1:0,0:0:0:0:
150,144,207592,1,8,0:2:0:0:
218,64,207960,6,0,P|255:106|260:158,1,104.999996795654,6|8,1:2|0:0,0:0:0:0:
256,205,208513,1,2,0:0:0:0:
256,205,208697,2,0,L|257:267,1,52.4999983978271,10|0,0:0|1:0,0:0:0:0:
260,309,209065,1,8,0:0:0:0:
341,375,209433,1,10,0:0:0:0:
441,344,209801,1,8,0:0:0:0:
475,244,210169,2,0,L|468:190,1,52.4999983978271,10|8,0:0|0:0,0:0:0:0:
454,141,210537,2,0,L|461:87,1,52.4999983978271,8|8,0:0|0:0,0:0:0:0:
469,36,210905,6,0,P|433:53|368:56,1,104.999996795654,6|8,1:2|0:0,0:0:0:0:
319,36,211457,1,2,0:0:0:0:
319,36,211641,2,0,L|267:39,1,52.4999983978271,2|0,1:2|1:0,0:0:0:0:
215,42,212009,1,8,0:0:0:0:
136,117,212378,2,0,P|102:70|50:59,1,104.999996795654,2|8,1:2|0:0,0:0:0:0:
1,146,213114,2,0,L|8:197,1,52.4999983978271,2|0,1:2|1:0,0:0:0:0:
21,248,213482,1,8,0:0:0:0:
0,350,213850,6,0,P|54:349|105:308,1,104.999996795654,6|8,1:2|0:0,0:0:0:0:
139,293,214402,1,2,0:0:0:0:
139,293,214586,1,2,1:2:0:0:
239,324,214954,2,0,L|291:316,1,52.4999983978271,8|2,0:0|0:2,0:0:0:0:
342,308,215322,2,0,P|342:264|302:206,1,104.999996795654,2|8,1:2|0:0,0:0:0:0:
269,180,215874,1,2,0:0:0:0:
269,180,216059,1,2,1:2:0:0:
264,75,216427,1,8,0:0:0:0:
355,23,216795,6,0,P|412:25|452:56,1,104.999996795654,6|8,1:2|0:0,0:0:0:0:
453,104,217347,1,2,0:0:0:0:
453,104,217531,2,0,P|461:145|460:169,1,52.4999983978271,2|0,1:2|1:0,0:0:0:0:
447,207,217899,1,8,0:0:0:0:
479,304,218267,2,0,P|461:352|418:380,1,104.999996795654,2|8,1:2|0:0,0:0:0:0:
325,333,219003,2,0,L|265:329,1,52.4999983978271,2|0,1:2|1:0,0:0:0:0:
220,327,219371,1,8,0:0:0:0:
123,368,219740,6,0,P|114:316|131:267,1,104.999996795654,6|8,1:2|0:0,0:0:0:0:
156,221,220292,1,2,0:0:0:0:
156,221,220476,2,0,L|99:218,1,52.4999983978271,2|0,1:2|1:0,0:0:0:0:
51,216,220844,1,8,0:0:0:0:
11,118,221212,2,0,P|36:74|102:49,1,104.999996795654,2|8,1:2|0:0,0:0:0:0:
179,93,221948,2,0,P|231:94|279:75,1,104.999996795654,2|0,1:2|1:2,0:0:0:0:
329,59,222500,1,8,0:0:0:0:
329,59,222684,6,0,L|336:170,1,104.999996795654,6|10,1:2|0:0,0:0:0:0:
339,215,223236,1,2,0:0:0:0:
339,215,223421,2,0,P|345:266|333:317,1,104.999996795654,2|8,1:2|0:0,0:0:0:0:
285,338,223973,2,0,P|246:314|184:313,1,104.999996795654,2|2,0:2|0:0,0:0:0:0:
136,320,224525,1,10,0:0:0:0:
63,243,224893,2,0,L|66:190,1,52.4999983978271,0|0,1:2|1:0,0:0:0:0:
70,138,225261,1,10,0:0:0:0:
32,39,225629,6,0,P|82:31|133:52,1,104.999996795654,6|10,1:2|0:0,0:0:0:0:
179,72,226181,1,0,0:0:0:0:
179,72,226365,2,0,L|247:66,1,52.4999983978271,2|0,1:2|1:0,0:0:0:0:
281,52,226733,1,10,0:0:0:0:
385,58,227101,2,0,P|434:71|464:113,1,104.999996795654,2|8,1:2|0:0,0:0:0:0:
408,202,227838,2,0,L|355:197,1,52.4999983978271,0|0,1:0|1:0,0:0:0:0:
304,184,228206,2,0,L|236:190,1,52.4999983978271,8|2,0:0|1:2,0:0:0:0:
205,213,228574,6,0,P|145:222|91:199,1,104.999996795654,14|0,0:0|1:0,0:0:0:0:
56,186,229126,1,14,0:0:0:0:
1,275,229494,1,0,1:0:0:0:
1,275,229678,2,0,P|5:326|35:369,1,104.999996795654,14|0,0:0|1:0,0:0:0:0:
86,369,230230,1,14,0:0:0:0:
86,369,232255,6,0,L|146:362,1,52.4999983978271,2|2,0:0|0:0,0:0:0:0:
190,359,232623,1,2,0:0:0:0:
190,359,232807,6,0,P|180:310|195:263,1,99.9999999999999,6|0,1:2|1:0,0:0:0:0:
228,225,233359,1,10,0:0:0:0:
327,224,233727,2,0,L|392:232,1,50,0|2,1:0|1:2,0:0:0:0:
426,234,234095,1,10,0:2:0:0:
426,234,234279,2,0,P|451:190|453:141,1,99.9999999999999,6|0,1:2|1:0,0:0:0:0:
453,91,234832,1,10,0:0:0:0:
353,98,235200,2,0,L|303:104,1,50,0|2,1:0|1:2,0:0:0:0:
254,112,235568,1,10,0:2:0:0:
254,112,235752,6,0,L|143:108,1,99.9999999999999,6|0,1:2|1:0,0:0:0:0:
104,109,236304,1,10,0:0:0:0:
8,80,236672,2,0,P|2:114|6:140,1,50,2|0,1:2|1:2,0:0:0:0:
26,173,237040,1,10,0:2:0:0:
26,173,237224,2,0,P|33:221|21:271,1,99.9999999999999,6|0,1:2|1:0,0:0:0:0:
3,316,237776,1,10,0:0:0:0:
85,372,238144,1,10,0:0:0:0:
164,311,238513,1,10,0:0:0:0:
164,311,238697,6,0,P|216:308|262:327,1,99.9999999999999,4|0,1:2|1:0,0:0:0:0:
299,356,239249,1,10,0:0:0:0:
385,305,239617,2,0,L|382:254,1,50,0|2,1:0|1:2,0:0:0:0:
383,205,239985,1,10,0:0:0:0:
383,205,240169,2,0,P|378:158|406:105,1,99.9999999999999,6|0,1:2|1:0,0:0:0:0:
439,80,240721,1,10,0:0:0:0:
357,21,241089,2,0,L|308:17,1,50,0|2,1:0|1:2,0:0:0:0:
256,16,241457,1,10,0:0:0:0:
256,16,241641,6,0,P|209:32|155:26,1,99.9999999999999,6|0,1:2|1:0,0:0:0:0:
110,19,242194,1,10,0:0:0:0:
35,86,242562,1,2,1:2:0:0:
57,183,242930,2,0,L|44:238,1,50,10|2,0:0|1:2,0:0:0:0:
34,280,243298,2,0,L|135:283,1,99.9999999999999,10|10,0:0|0:0,0:0:0:0:
184,281,243850,1,2,1:2:0:0:
184,281,244034,2,0,L|246:278,1,50,10|8,0:0|3:0,0:0:0:0:
283,276,244402,1,4,3:0:0:0:
332,188,244770,5,4,1:2:0:0:
256,192,244954,12,0,247715,0:0:0:0:
