osu file format v14

[General]
AudioFilename: mimi.mp3
AudioLeadIn: 0
PreviewTime: 161120
Countdown: 0
SampleSet: Soft
StackLeniency: 0.7
Mode: 0
LetterboxInBreaks: 0
WidescreenStoryboard: 0

[Editor]
DistanceSpacing: 1
BeatDivisor: 4
GridSize: 32
TimelineZoom: 2.5

[Metadata]
Title:Mr. Darling
TitleUnicode:Mr. Darling
Artist:mimimemeMIMI
ArtistUnicode:みみめめMIMI
Creator:xHappy-
Version:Lost's Insane
Source:REFLEC BEAT plus
Tags:bon voyage! タカオユキ ユカ Takaoyuki Yuka ちゃもーい chamooi Mr.Darling mister Kimi no iru machi 君のいる町 GITADORA tri-boost jubeat plus japanese video game full ver p_kung [_lost_] conner c_o_n_n_e_r kittyadventure gokugohan12468
BeatmapID:2076057
BeatmapSetID:992737

[Difficulty]
HPDrainRate:5.7
CircleSize:4
OverallDifficulty:7.5
ApproachRate:8.7
SliderMultiplier:1.74
SliderTickRate:1

[Events]
//Background and Video events
0,0,"BG.jpg",0,0
//Break Periods
2,162684,173824
//Storyboard Layer 0 (Background)
//Storyboard Layer 1 (Fail)
//Storyboard Layer 2 (Pass)
//Storyboard Layer 3 (Foreground)
//Storyboard Layer 4 (Overlay)
//Storyboard Sound Samples

[TimingPoints]
544,368.098159509202,4,2,1,40,1,0
544,-200,4,2,1,40,0,0
636,-200,4,2,1,5,0,0
2016,-200,4,2,1,40,0,0
2108,-200,4,2,1,5,0,0
3488,-200,4,2,1,40,0,0
3580,-200,4,2,1,5,0,0
4961,-200,4,2,1,40,0,0
5053,-200,4,2,1,5,0,0
5881,-200,4,2,1,40,0,0
5973,-200,4,2,1,5,0,0
6433,-142.857142857143,4,2,1,50,0,0
6617,368.098159509202,4,2,1,50,1,0
6617,-142.857142857143,4,2,1,50,0,0
12138,-100,4,2,1,70,0,0
24285,-142.857142857143,4,2,1,50,0,0
29807,-142.857142857143,4,2,1,60,0,0
30175,-100,4,2,1,60,0,0
33120,-142.857142857143,4,2,1,50,0,0
38641,-100,4,2,1,60,0,0
44898,368.098159509202,3,2,1,50,1,0
44898,-142.857142857143,3,2,1,50,0,0
51523,368.098159509202,4,2,1,70,1,0
53823,-100,4,2,1,50,0,0
53915,-100,4,2,1,60,0,0
54007,-100,4,2,1,70,0,0
54099,-100,4,2,1,80,0,0
54467,-90.9090909090909,4,2,1,80,0,1
77565,-90.9090909090909,4,2,1,60,0,1
77934,-90.9090909090909,4,2,1,60,0,0
78026,-90.9090909090909,4,2,1,80,0,1
97351,-90.9090909090909,4,2,1,80,0,0
99375,-100,4,2,1,70,0,0
111891,-125,4,2,1,50,0,0
117780,-100,4,2,1,60,0,0
120725,-125,4,2,1,50,0,0
125878,-100,4,2,1,50,0,0
126615,-100,4,2,1,60,0,0
132136,-125,4,2,1,60,0,0
132506,368.098159509202,3,2,1,50,1,0
132506,-200,3,2,1,50,0,0
139131,-125,3,2,1,60,0,0
153487,-111.111111111111,3,2,1,70,0,0
154591,-125,3,2,1,70,0,0
158272,-200,3,2,1,60,0,0
158917,-200,3,2,1,5,0,0
159009,368.098159509202,5,2,1,60,1,0
159009,-200,5,2,1,60,0,0
162690,368.098159509202,4,2,1,60,1,0
174101,-250,4,2,1,60,0,0
174377,-250,4,2,1,5,0,0
174469,-125,4,2,1,60,0,0
180358,368.098159509202,3,2,1,60,1,0
184223,-200,3,2,1,60,0,0
185875,368.098159509202,4,2,1,50,1,0
185875,-125,4,2,1,50,0,0
186611,-200,4,2,1,50,0,0
187347,-90.9090909090909,4,2,1,80,0,1
210445,-90.9090909090909,4,2,1,60,0,1
210813,-90.9090909090909,4,2,1,60,0,0
210905,-90.9090909090909,4,2,1,80,0,1
230230,-90.9090909090909,4,2,1,80,0,0
232807,-100,4,2,1,70,0,1
232899,-100,4,2,1,70,0,0
245506,-100,4,2,1,60,0,0
245874,-100,4,2,1,50,0,0
246243,-100,4,2,1,40,0,0
246611,-100,4,2,1,30,0,0
246979,-100,4,2,1,20,0,0
247347,-100,4,2,1,10,0,0
247715,-100,4,2,1,5,0,0

[Colours]
Combo1 : 66,210,253
Combo2 : 255,170,170
Combo3 : 255,51,51
Combo4 : 128,255,255

[HitObjects]
27,206,544,6,0,B|238:206|105:86|326:82,1,326.25,2|0,0:2|0:0,0:0:0:0:
333,83,2016,6,0,B|258:167|285:264|351:270|401:261|430:185|376:156,1,326.25,2|0,0:2|0:0,0:0:0:0:
354,154,3488,6,0,B|143:154|276:274|55:278,1,326.25,2|0,0:2|0:0,0:0:0:0:
47,279,4961,6,0,P|110:276|223:355,1,195.75,2|0,0:2|0:0,0:0:0:0:
233,360,5881,6,0,B|227:271,1,87,2|0,0:2|0:0,0:0:0:0:
210,163,6433,6,0,P|180:163|154:178,1,60.8999981414796,2|0,0:0|3:0,0:0:0:0:
224,244,6801,1,2,0:2:0:0:
318,219,6985,2,0,P|369:224|427:184,1,121.799996282959,2|2,3:2|3:2,0:0:0:0:
460,95,7537,2,0,L|451:30,1,60.8999981414796,0|2,0:0|3:2,0:0:0:0:
346,76,7905,6,0,L|355:141,1,60.8999981414796,2|2,0:2|3:2,0:0:0:0:
280,200,8273,1,0,0:0:0:0:
206,136,8457,2,0,P|146:134|72:123,1,121.799996282959,2|2,3:2|3:2,0:0:0:0:
67,29,9009,2,0,P|103:35|121:54,1,60.8999981414796,0|2,0:0|3:2,0:0:0:0:
12,114,9377,5,2,0:2:0:0:
51,203,9561,2,0,L|54:263,1,60.8999981414796,2|0,3:2|0:0,0:0:0:0:
122,333,9929,2,0,B|160:328|160:328|202:340|202:340|264:328,1,121.799996282959,2|2,3:2|3:2,0:0:0:0:
261,248,10482,2,0,L|195:258,1,60.8999981414796,0|2,0:2|3:2,0:0:0:0:
339,279,10850,6,0,L|459:261,1,121.799996282959,2|2,0:2|0:2,0:0:0:0:
512,322,11402,1,2,0:2:0:0:
467,231,11586,6,0,L|326:252,1,121.799996282959,2|2,0:2|0:0,0:0:0:0:
290,354,12138,1,10,0:2:0:0:
188,242,12322,6,0,B|101:233|126:303|28:302,1,174,6|2,1:2|1:2,0:0:0:0:
39,180,12874,2,0,P|49:107|26:33,1,130.5,10|0,0:2|0:0,0:0:0:0:
26,35,13242,2,0,P|74:63|115:66,1,87,2|2,1:2|1:2,0:0:0:0:
211,0,13610,1,10,0:2:0:0:
333,84,13794,6,0,P|400:31|485:37,1,174,6|2,1:2|1:2,0:0:0:0:
509,170,14347,2,0,L|413:177,1,87,10|0,0:2|1:0,0:0:0:0:
379,183,14623,1,0,1:0:0:0:
379,183,14715,1,2,1:2:0:0:
455,300,14899,1,2,1:2:0:0:
509,170,15083,1,10,0:2:0:0:
431,326,15267,6,0,P|361:339|277:275,1,174,6|0,1:2|1:0,0:0:0:0:
228,165,15819,2,0,P|170:155|114:207,1,130.5,10|0,0:2|0:0,0:0:0:0:
102,218,16187,2,0,P|110:163|100:128,1,87,2|2,1:2|1:2,0:0:0:0:
0,179,16555,1,10,0:2:0:0:
46,344,16739,6,0,B|147:343|107:281|224:291,1,174,6|2,1:2|1:2,0:0:0:0:
300,366,17291,2,0,P|286:319|301:270,1,87,10|0,0:2|1:0,0:0:0:0:
364,186,17659,1,10,0:2:0:0:
206,289,17843,1,0,1:2:0:0:
271,95,18028,1,10,0:2:0:0:
443,209,18212,6,0,B|344:215|401:282|281:283,1,174,6|0,1:2|1:0,0:0:0:0:
195,198,18764,2,0,B|173:127|173:127|203:59,1,130.5,10|0,0:2|0:0,0:0:0:0:
204,59,19132,2,0,P|166:79|112:80,1,87,2|2,1:2|1:2,0:0:0:0:
0,73,19500,1,10,0:2:0:0:
36,252,19684,6,0,B|135:260|95:198|194:198,1,174,6|0,1:2|1:0,0:0:0:0:
294,282,20236,1,10,0:2:0:0:
385,194,20420,1,0,1:0:0:0:
400,186,20512,1,0,1:0:0:0:
415,176,20604,2,0,L|405:78,1,87,2|2,1:2|1:2,0:0:0:0:
285,119,20972,1,10,0:2:0:0:
370,284,21156,6,0,P|455:288|512:226,1,174,6|0,1:2|1:0,0:0:0:0:
400,186,21709,2,0,P|336:182|285:224,1,130.5,10|0,0:2|0:0,0:0:0:0:
274,241,22077,2,0,L|285:338,1,87,2|2,1:2|1:2,0:0:0:0:
169,370,22445,1,10,0:2:0:0:
91,216,22629,1,2,1:2:0:0:
91,216,22721,1,2,0:2:0:0:
91,216,22813,5,10,0:2:0:0:
238,136,22997,1,2,1:2:0:0:
185,262,23181,5,10,0:2:0:0:
238,136,23365,1,2,1:2:0:0:
336,230,23549,6,0,P|398:220|430:187,1,87,10|8,0:2|3:0,0:0:0:0:
324,92,23917,2,0,P|261:101|229:134,1,87,4|2,3:0|0:0,0:0:0:0:
199,186,24285,6,0,L|194:51,1,121.799996282959,6|0,3:2|3:0,0:0:0:0:
122,18,24837,1,2,0:2:0:0:
87,95,25021,2,0,L|92:230,1,121.799996282959,2|0,3:2|3:0,0:0:0:0:
146,282,25574,1,2,1:2:0:0:
146,282,25758,6,0,B|206:303|206:303|275:266,1,121.799996282959,2|0,1:2|3:0,0:0:0:0:
308,207,26310,1,2,0:2:0:0:
308,207,26494,1,2,3:2:0:0:
387,236,26678,2,0,L|382:303,1,60.8999981414796,2|0,1:2|3:2,0:0:0:0:
299,194,27046,1,2,1:2:0:0:
465,271,27230,6,0,L|470:204,1,60.8999981414796,2|2,1:2|0:0,0:0:0:0:
388,97,27598,2,0,L|383:164,1,60.8999981414796,2|2,3:2|0:0,0:0:0:0:
459,56,27966,2,0,B|381:68|412:21|318:38,1,121.799996282959,2|2,3:2|3:2,0:0:0:0:
272,87,28518,1,2,1:2:0:0:
272,87,28702,6,0,P|228:99|157:58,1,121.799996282959,0|2,1:2|3:2,0:0:0:0:
92,19,29255,1,0,0:0:0:0:
32,80,29439,2,0,L|44:148,1,60.8999981414796,2|0,3:2|0:0,0:0:0:0:
114,185,29807,6,0,L|101:278,1,91.3499972122193,10|0,0:2|0:0,0:0:0:0:
9,352,30175,6,0,P|57:301|132:318,1,130.5,6|0,1:2|0:0,0:0:0:0:
130,317,30543,2,0,L|218:300,1,87,10|0,0:2|0:0,0:0:0:0:
322,358,30911,1,2,1:2:0:0:
308,173,31095,2,0,L|292:268,1,87,2|0,1:2|0:0,0:0:0:0:
194,187,31463,6,0,B|163:160|145:113|145:113|163:72|194:42,1,174,10|2,0:0|1:2,0:0:0:0:
307,4,32015,1,0,0:0:0:0:
107,30,32199,2,0,P|151:30|192:44,1,87,10|0,0:2|0:0,0:0:0:0:
258,118,32567,1,2,1:2:0:0:
117,139,32751,2,0,P|71:138|18:115,1,87,10|2,0:2|1:2,0:0:0:0:
20,117,33028,1,0,1:0:0:0:
5,107,33120,6,0,B|14:165|14:165|8:183|8:183|16:237,1,121.799996282959,6|0,1:2|3:0,0:0:0:0:
14,312,33672,1,2,0:2:0:0:
84,263,33856,2,0,B|151:255|118:298|212:295,1,121.799996282959,2|2,3:2|0:0,0:0:0:0:
267,245,34408,1,2,1:2:0:0:
267,245,34592,6,0,B|328:234|328:234|370:282,1,121.799996282959,2|0,1:2|3:0,0:0:0:0:
329,355,35144,1,2,0:2:0:0:
329,355,35328,1,2,3:2:0:0:
445,311,35512,2,0,P|448:273|443:243,1,60.8999981414796,2|0,1:2|3:0,0:0:0:0:
309,161,35880,1,2,1:2:0:0:
394,126,36064,5,2,1:2:0:0:
394,126,36248,2,0,B|402:161|402:161|394:184,1,60.8999981414796,2|0,0:0|3:2,0:0:0:0:
323,86,36616,2,0,B|314:62|314:62|286:41,1,60.8999981414796,2|0,0:2|0:0,0:0:0:0:
165,88,36985,2,0,B|200:86|200:86|237:105,1,60.8999981414796,2|0,3:2|0:0,0:0:0:0:
102,136,37353,1,2,1:2:0:0:
102,136,37537,6,0,P|56:131|8:186,2,121.799996282959,0|2|2,1:2|3:2|3:2,0:0:0:0:
154,203,38457,1,0,1:0:0:0:
85,333,38641,6,0,B|77:325|64:283|64:283|81:232,1,87,10|0,0:2|1:0,0:0:0:0:
75,253,38917,1,0,1:0:0:0:
75,253,39009,6,0,B|188:242|123:299|248:291,1,174,6|10,1:2|0:2,0:0:0:0:
332,212,39561,1,0,0:0:0:0:
432,280,39745,2,0,P|443:329|430:366,1,87,2|2,1:2|1:2,0:0:0:0:
319,316,40113,1,0,0:0:0:0:
333,195,40297,6,0,P|374:151|496:178,1,174,10|2,0:0|1:2,0:0:0:0:
427,271,40850,1,0,0:0:0:0:
246,250,41034,2,0,L|251:62,1,174,10|2,0:2|1:2,0:0:0:0:
349,4,41586,2,0,P|401:7|428:38,1,87,10|0,0:0|0:0,0:0:0:0:
362,133,41954,6,0,B|304:132|313:71|240:76,1,130.5,6|0,1:2|0:0,0:0:0:0:
235,85,42322,2,0,P|192:73|139:67,1,87,10|0,0:2|0:0,0:0:0:0:
97,177,42690,1,2,1:2:0:0:
0,34,42874,2,0,P|43:22|96:16,1,87,2|0,1:2|0:0,0:0:0:0:
235,85,43242,6,0,L|230:273,1,174,10|2,0:0|1:2,0:0:0:0:
149,349,43794,1,8,0:0:0:0:
73,201,43978,2,0,B|164:198|122:263|232:258,1,174,6|2,1:2|1:2,0:0:0:0:
330,188,44531,1,10,0:0:0:0:
425,263,44715,1,0,1:0:0:0:
351,384,44898,6,0,P|332:328|349:259,1,121.799996282959,6|2,1:2|0:0,0:0:0:0:
422,174,45634,1,2,0:2:0:0:
329,267,46002,6,0,P|281:251|251:171,1,121.799996282959,2|2,1:2|0:2,0:0:0:0:
321,92,46738,1,2,0:2:0:0:
172,193,47106,6,0,B|111:204|118:147|46:163,1,121.799996282959,6|2,1:2|0:2,0:0:0:0:
18,235,47658,1,8,0:2:0:0:
69,303,47842,2,0,P|94:268|96:241,1,60.8999981414796,2|0,0:2|0:0,0:0:0:0:
9,350,48210,6,0,P|72:343|139:338,2,121.799996282959,10|8|4,0:2|3:0|3:0,0:0:0:0:
382,369,49315,6,0,P|345:342|334:263,1,121.799996282959,6|2,1:2|0:0,0:0:0:0:
385,204,49867,1,8,0:0:0:0:
454,252,50051,2,0,L|451:320,1,60.8999981414796,2|0,0:0|1:0,0:0:0:0:
372,205,50419,2,0,P|351:178|374:88,2,121.799996282959,10|2|8,0:0|1:2|0:0,0:0:0:0:
434,146,51339,1,0,0:0:0:0:
361,79,51523,6,0,B|297:78|241:110|241:110|196:90,1,174,6|0,1:2|0:0,0:0:0:0:
87,35,52075,1,2,1:2:0:0:
31,143,52259,2,0,P|47:189|41:243,1,87,2|0,0:0|1:0,0:0:0:0:
13,344,52627,2,0,P|44:295|135:308,1,130.5,8|0,0:0|0:0,0:0:0:0:
128,302,52995,5,2,1:2:0:0:
255,368,53179,1,0,0:0:0:0:
262,204,53363,2,0,P|213:211|182:239,1,87,8|0,0:2|0:0,0:0:0:0:
328,310,53731,5,8,0:0:0:0:
349,310,53823,1,8,0:0:0:0:
369,304,53915,1,8,0:0:0:0:
387,292,54007,1,8,0:0:0:0:
400,274,54099,6,0,L|390:223,1,43.5,8|8,0:0|0:0,0:0:0:0:
316,308,54283,2,0,L|326:359,1,43.5,8|8,0:0|0:0,0:0:0:0:
320,149,54467,6,0,B|218:139|256:229|133:207,1,191.400005841065,6|8,1:2|0:0,0:0:0:0:
80,93,55019,1,2,1:2:0:0:
80,93,55111,1,0,1:2:0:0:
80,93,55203,1,2,1:2:0:0:
200,32,55388,1,0,1:0:0:0:
25,153,55572,2,0,P|0:112|6:52,1,95.7000029205323,8|0,0:0|0:0,0:0:0:0:
169,135,55940,6,0,B|164:290,1,143.550004380798,2|0,1:2|0:0,0:0:0:0:
87,262,56308,2,0,P|40:264|4:294,1,95.7000029205323,8|0,0:2|0:0,0:0:0:0:
124,364,56676,1,2,1:2:0:0:
238,264,56860,1,0,1:0:0:0:
75,180,57044,1,10,0:0:0:0:
133,72,57228,1,0,1:0:0:0:
133,72,57320,1,0,1:0:0:0:
133,72,57412,6,0,B|240:51|205:144|335:114,1,191.400005841065,6|8,1:2|0:0,0:0:0:0:
377,32,57964,1,2,0:2:0:0:
402,158,58148,1,2,1:2:0:0:
286,42,58332,1,0,1:0:0:0:
443,96,58516,2,0,P|464:49|460:5,1,95.7000029205323,8|2,0:0|0:0,0:0:0:0:
283,132,58884,6,0,B|293:283,1,143.550004380798,2|0,1:2|0:0,0:0:0:0:
366,229,59253,2,0,P|410:233|450:271,1,95.7000029205323,8|2,0:0|0:0,0:0:0:0:
314,374,59621,1,2,1:2:0:0:
375,309,59805,1,0,1:0:0:0:
223,331,59989,2,0,P|161:330|117:297,1,95.7000029205323,8|0,0:0|1:0,0:0:0:0:
54,196,60357,6,0,B|152:175|131:258|243:233,1,191.400005841065,6|8,1:2|0:0,0:0:0:0:
221,93,60909,1,2,1:2:0:0:
221,93,61001,1,0,1:2:0:0:
221,93,61093,2,0,P|165:103|140:139,1,95.7000029205323,2|0,1:2|1:0,0:0:0:0:
305,198,61461,2,0,L|311:93,1,95.7000029205323,8|2,0:0|0:0,0:0:0:0:
137,146,61829,6,0,B|114:185|114:185|129:331,1,191.400005841065,2|8,1:2|0:0,0:0:0:0:
46,374,62381,1,0,0:0:0:0:
209,320,62565,2,0,L|199:224,1,95.7000029205323,2|0,1:2|1:0,0:0:0:0:
41,246,62934,2,0,L|45:149,1,95.7000029205323,10|0,0:0|0:0,0:0:0:0:
120,11,63302,6,0,B|218:-10|197:73|309:48,1,191.400005841065,6|8,1:2|0:0,0:0:0:0:
426,6,63854,1,2,0:0:0:0:
489,124,64038,2,0,P|435:129|404:166,1,95.7000029205323,2|0,1:2|1:0,0:0:0:0:
438,261,64406,2,0,P|463:215|389:159,1,143.550004380798,8|0,0:2|0:0,0:0:0:0:
334,187,64774,6,0,L|329:298,1,95.7000029205323,2|0,1:2|0:0,0:0:0:0:
433,356,65142,2,0,L|438:245,1,95.7000029205323,8|0,0:0|0:0,0:0:0:0:
269,347,65510,1,2,1:2:0:0:
437,260,65694,1,8,0:0:0:0:
269,347,65878,1,10,0:0:0:0:
245,347,65970,1,8,0:0:0:0:
221,340,66062,1,8,0:0:0:0:
199,328,66154,1,8,0:0:0:0:
183,309,66246,6,0,L|187:105,1,191.400005841065,6|8,1:2|0:0,0:0:0:0:
285,26,66799,1,2,1:2:0:0:
300,38,66891,1,0,1:2:0:0:
315,50,66983,2,0,P|316:107|284:146,1,95.7000029205323,2|0,1:2|1:0,0:0:0:0:
203,39,67351,2,0,P|162:15|116:21,1,95.7000029205323,8|2,0:0|1:2,0:0:0:0:
295,137,67719,6,0,P|380:151|443:72,1,191.400005841065,2|8,1:2|0:0,0:0:0:0:
326,8,68271,1,2,0:0:0:0:
275,132,68455,2,0,B|263:184|263:184|281:238,1,95.7000029205323,2|0,1:2|1:0,0:0:0:0:
378,325,68823,2,0,B|390:273|390:273|372:219,1,95.7000029205323,8|2,0:0|0:0,0:0:0:0:
275,132,69191,6,0,B|177:111|198:194|86:169,1,191.400005841065,6|8,1:2|0:0,0:0:0:0:
0,92,69743,1,2,0:0:0:0:
60,241,69927,2,0,P|109:254|163:244,1,95.7000029205323,2|0,1:2|1:0,0:0:0:0:
218,58,70296,2,0,P|171:70|132:102,1,95.7000029205323,8|0,0:0|0:0,0:0:0:0:
252,216,70664,6,0,B|304:206|304:206|343:211|343:211|395:201,1,143.550004380798,2|0,1:2|0:0,0:0:0:0:
457,158,71032,2,0,L|450:268,1,95.7000029205323,8|0,0:0|0:0,0:0:0:0:
362,118,71400,1,0,1:0:0:0:
494,68,71584,1,0,1:0:0:0:
362,118,71768,2,0,B|341:72|341:72|356:28,1,95.7000029205323,8|2,0:0|0:0,0:0:0:0:
226,65,72136,6,0,P|157:72|99:15,1,143.550004380798,6|0,1:2|0:0,0:0:0:0:
40,69,72504,2,0,P|50:116|59:179,1,95.7000029205323,10|0,0:0|0:0,0:0:0:0:
6,282,72872,1,2,1:2:0:0:
161,219,73056,1,0,1:0:0:0:
6,282,73240,2,0,P|45:251|99:244,1,95.7000029205323,8|2,0:0|1:2,0:0:0:0:
155,294,73516,1,0,1:0:0:0:
173,310,73608,6,0,B|216:332|216:332|330:299,1,143.550004380798,6|0,1:2|0:0,0:0:0:0:
364,251,73976,2,0,L|356:358,1,95.7000029205323,10|0,0:0|0:0,0:0:0:0:
282,214,74345,1,2,1:2:0:0:
447,271,74529,1,0,1:0:0:0:
282,214,74713,2,0,B|266:164|266:164|283:112,1,95.7000029205323,8|0,0:0|0:0,0:0:0:0:
390,48,75081,6,0,B|277:81|316:-5|197:27,1,191.400005841065,6|8,1:2|0:0,0:0:0:0:
136,137,75633,1,2,0:0:0:0:
8,96,75817,2,0,L|10:-8,1,95.7000029205323,10|0,0:0|1:0,0:0:0:0:
136,137,76185,2,0,L|134:241,1,95.7000029205323,8|0,0:0|1:0,0:0:0:0:
28,315,76553,6,0,B|9:268|9:268|30:222,1,95.7000029205323,10|0,0:0|1:0,0:0:0:0:
211,284,76921,2,0,B|230:331|230:331|209:377,1,95.7000029205323,8|0,0:0|1:0,0:0:0:0:
119,244,77289,1,10,0:0:0:0:
282,165,77473,1,8,0:0:0:0:
211,371,77657,1,10,0:0:0:0:
187,367,77749,1,8,0:0:0:0:
162,364,77842,1,8,0:0:0:0:
138,361,77934,1,8,0:0:0:0:
114,359,78026,6,0,P|77:270|112:175,1,191.400005841065,6|8,1:2|0:0,0:0:0:0:
185,76,78578,1,2,1:2:0:0:
185,76,78670,1,0,1:2:0:0:
185,76,78762,1,2,1:2:0:0:
61,23,78946,1,0,1:0:0:0:
186,179,79130,2,0,P|241:160|268:120,1,95.7000029205323,8|0,0:0|0:0,0:0:0:0:
389,15,79498,6,0,P|306:11|261:64,1,143.550004380798,2|0,1:2|0:0,0:0:0:0:
263,131,79866,2,0,L|273:244,1,95.7000029205323,8|0,0:0|0:0,0:0:0:0:
350,334,80234,1,2,1:2:0:0:
207,275,80418,1,0,1:0:0:0:
350,334,80602,2,0,P|398:314|422:269,1,95.7000029205323,8|0,0:0|1:0,0:0:0:0:
271,226,80970,6,0,B|166:228|203:295|77:293,1,191.400005841065,6|8,1:2|0:0,0:0:0:0:
88,159,81522,1,2,1:2:0:0:
88,159,81615,1,0,1:2:0:0:
88,159,81707,1,2,1:2:0:0:
209,102,81891,1,0,1:0:0:0:
21,218,82075,2,0,P|3:175|11:125,1,95.7000029205323,8|2,0:0|0:2,0:0:0:0:
117,44,82443,6,0,P|165:98|253:88,1,143.550004380798,2|0,1:2|0:0,0:0:0:0:
286,42,82811,2,0,P|339:24|390:31,1,95.7000029205323,8|2,0:0|0:0,0:0:0:0:
475,118,83179,1,2,1:2:0:0:
352,209,83363,1,0,1:0:0:0:
463,297,83547,2,0,B|475:245|475:245|454:192,1,95.7000029205323,8|0,0:0|1:0,0:0:0:0:
298,340,83915,6,0,P|384:356|466:288,1,191.400005841065,6|8,1:2|0:0,0:0:0:0:
241,265,84467,1,2,1:2:0:0:
224,273,84559,1,0,1:2:0:0:
208,280,84651,2,0,L|219:382,1,95.7000029205323,2|0,1:2|1:0,0:0:0:0:
363,262,85019,2,0,L|352:160,1,95.7000029205323,8|0,0:0|0:0,0:0:0:0:
224,47,85388,6,0,B|148:49|176:122|88:124,1,143.550004380798,2|0,1:2|0:0,0:0:0:0:
35,150,85756,2,0,P|92:157|120:191,1,95.7000029205323,8|0,0:0|0:0,0:0:0:0:
137,315,86124,1,2,1:2:0:0:
47,244,86308,1,0,1:0:0:0:
211,251,86492,2,0,L|203:145,1,95.7000029205323,8|0,0:0|0:0,0:0:0:0:
312,79,86860,6,0,P|376:60|464:146,1,191.400005841065,6|8,1:2|0:0,0:0:0:0:
374,251,87412,1,2,1:2:0:0:
374,251,87504,1,0,1:2:0:0:
374,251,87596,2,0,B|360:204|360:204|376:149,1,95.7000029205323,2|0,1:2|1:0,0:0:0:0:
492,259,87964,2,0,B|506:306|506:306|490:361,1,95.7000029205323,8|0,0:0|1:0,0:0:0:0:
417,366,88240,1,0,1:0:0:0:
404,346,88332,6,0,P|342:300|264:318,1,143.550004380798,2|0,1:2|0:0,0:0:0:0:
214,354,88700,2,0,L|96:340,1,95.7000029205323,8|0,0:0|0:0,0:0:0:0:
137,151,89069,1,2,1:2:0:0:
214,268,89253,2,0,L|140:260,1,47.8500014602662,8|10,0:0|0:0,0:0:0:0:
24,250,89437,1,0,1:2:0:0:
132,69,89621,1,8,0:0:0:0:
132,69,89713,1,8,0:0:0:0:
132,69,89805,6,0,B|218:60|199:146|320:139,1,191.400005841065,6|10,1:2|0:0,0:0:0:0:
455,58,90357,1,2,0:0:0:0:
336,3,90541,2,0,P|358:48|368:92,1,95.7000029205323,2|2,1:2|1:2,0:0:0:0:
411,231,90909,2,0,P|421:184|443:141,1,95.7000029205323,8|2,0:0|0:2,0:0:0:0:
510,273,91277,6,0,B|439:264|439:264|393:286|393:286|303:274,1,191.400005841065,0|10,1:0|0:0,0:0:0:0:
229,231,91829,1,0,0:0:0:0:
229,231,92013,2,0,L|224:335,1,95.7000029205323,0|0,1:0|1:0,0:0:0:0:
119,186,92381,2,0,L|124:82,1,95.7000029205323,10|0,0:0|0:0,0:0:0:0:
140,295,92749,6,0,P|91:296|44:256,1,95.7000029205323,6|0,1:2|0:0,0:0:0:0:
208,149,93118,2,0,P|257:148|304:188,1,95.7000029205323,10|0,0:0|0:0,0:0:0:0:
385,242,93486,1,2,1:2:0:0:
499,163,93670,1,0,1:0:0:0:
385,242,93854,2,0,P|394:173|397:135,1,95.7000029205323,10|0,0:0|0:0,0:0:0:0:
481,299,94222,6,0,P|433:325|408:369,1,95.7000029205323,2|0,1:2|0:0,0:0:0:0:
396,146,94590,2,0,P|442:174|493:174,1,95.7000029205323,8|0,0:0|0:0,0:0:0:0:
302,310,94958,2,0,P|303:255|277:211,1,95.7000029205323,0|0,1:0|1:0,0:0:0:0:
161,169,95326,2,0,P|219:168|271:81,1,143.550004380798,8|0,0:0|0:0,0:0:0:0:
264,23,95694,5,14,0:0:0:0:
285,219,95878,1,0,1:0:0:0:
285,219,96062,1,0,1:0:0:0:
179,78,96246,5,14,0:0:0:0:
395,167,96430,1,0,1:0:0:0:
395,167,96615,1,0,1:0:0:0:
161,169,96799,5,14,0:0:0:0:
388,40,96983,1,0,1:0:0:0:
388,40,97167,1,0,1:0:0:0:
302,310,97351,5,14,0:0:0:0:
50,339,99375,5,10,0:0:0:0:
91,262,99559,1,2,1:2:0:0:
7,236,99743,1,2,1:2:0:0:
4,108,99927,6,0,B|91:99|66:169|164:168,1,174,6|0,1:2|1:0,0:0:0:0:
344,28,100480,2,0,P|272:31|228:87,1,130.5,10|0,0:0|0:0,0:0:0:0:
220,99,100848,2,0,L|213:-6,1,87,0|2,1:0|1:2,0:0:0:0:
91,48,101216,1,10,0:2:0:0:
175,168,101400,6,0,P|233:105|318:116,1,174,6|0,1:2|1:0,0:0:0:0:
410,209,101952,2,0,B|323:216,1,87,10|0,0:0|1:0,0:0:0:0:
280,222,102228,1,0,1:2:0:0:
280,222,102320,1,0,1:2:0:0:
204,363,102504,1,2,1:2:0:0:
346,313,102688,1,10,0:2:0:0:
204,363,102872,6,0,P|131:354|84:255,1,174,6|0,1:2|1:0,0:0:0:0:
38,152,103424,2,0,B|98:138|98:138|152:194,1,130.5,10|0,0:0|0:0,0:0:0:0:
161,193,103792,2,0,P|196:189|246:150,1,87,2|0,1:2|1:2,0:0:0:0:
162,65,104161,1,10,0:2:0:0:
4,230,104345,6,0,B|105:231|65:293|182:283,1,174,6|0,1:2|1:0,0:0:0:0:
247,195,104897,2,0,P|284:192|333:223,1,87,10|0,0:0|1:0,0:0:0:0:
372,328,105265,1,10,0:0:0:0:
456,191,105449,1,0,1:0:0:0:
269,289,105633,1,10,0:0:0:0:
458,384,105817,6,0,P|472:297|448:194,1,174,4|0,1:2|1:0,0:0:0:0:
377,120,106369,2,0,B|420:142|420:142|498:119,1,130.5,8|0,0:0|0:0,0:0:0:0:
510,21,106737,2,0,P|467:29|432:54,1,87,0|2,1:0|1:2,0:0:0:0:
332,202,107105,1,10,0:0:0:0:
218,65,107289,6,0,B|317:57|277:119|376:119,1,174,6|0,1:2|1:0,0:0:0:0:
336,3,107842,1,10,0:0:0:0:
200,71,108026,1,0,1:2:0:0:
185,79,108118,1,0,1:2:0:0:
170,89,108210,2,0,B|159:137|159:137|177:188,1,87,0|2,1:0|1:2,0:0:0:0:
261,263,108578,1,10,0:0:0:0:
171,172,108762,6,0,B|86:169|104:241|-1:249,1,174,6|0,1:2|1:0,0:0:0:0:
143,303,109314,2,0,P|208:294|257:343,1,130.5,10|0,0:0|0:0,0:0:0:0:
268,350,109682,2,0,L|261:250,1,87,2|2,1:2|1:2,0:0:0:0:
143,303,110050,1,10,0:0:0:0:
319,179,110234,1,2,1:2:0:0:
319,179,110326,1,2,0:0:0:0:
319,179,110418,5,10,0:0:0:0:
146,328,110602,1,2,1:2:0:0:
188,83,110786,5,10,0:0:0:0:
261,263,110970,1,2,1:2:0:0:
74,233,111154,6,0,P|62:190|83:128,1,87,10|8,0:0|3:0,0:0:0:0:
261,263,111522,2,0,P|273:306|252:368,1,87,4|2,3:0|0:0,0:0:0:0:
177,310,111891,6,0,B|224:305|224:305|257:319|257:319|329:311,2,139.2,6|8|2,1:2|0:0|0:0,0:0:0:0:
90,356,112811,1,0,1:0:0:0:
3,311,112995,2,0,P|-6:273|4:234,1,69.6,8|2,0:0|0:0,0:0:0:0:
61,168,113363,6,0,B|86:105|86:105|50:24,2,139.2,2|8|2,1:2|0:0|0:0,0:0:0:0:
151,203,114283,1,0,1:0:0:0:
208,124,114467,2,0,P|249:109|279:111,1,69.6,8|2,0:0|0:0,0:0:0:0:
327,209,114835,6,0,B|291:212|291:212|253:195,1,69.6,2|2,1:2|0:0,0:0:0:0:
351,116,115203,2,0,B|387:113|387:113|425:130,1,69.6,10|2,0:0|0:0,0:0:0:0:
482,199,115572,1,2,0:0:0:0:
407,262,115756,1,0,1:0:0:0:
475,350,115940,2,0,B|489:311|489:311|480:269,1,69.6,10|2,0:2|0:0,0:0:0:0:
388,259,116308,6,0,B|320:267|353:318|254:329,1,139.2,0|10,1:0|0:0,0:0:0:0:
192,268,116860,1,0,0:0:0:0:
271,326,117044,1,2,0:0:0:0:
116,277,117228,1,0,1:2:0:0:
257,204,117412,1,10,0:0:0:0:
174,364,117596,1,8,0:0:0:0:
174,364,117688,1,8,0:0:0:0:
174,364,117780,6,0,P|122:333|97:266,1,130.5,4|0,1:2|0:0,0:0:0:0:
179,192,118148,2,0,B|189:235|189:235|179:282,1,87,10|0,0:0|0:0,0:0:0:0:
98,133,118516,1,2,1:2:0:0:
257,204,118700,2,0,P|310:196|345:172,1,87,2|0,1:2|0:0,0:0:0:0:
332,56,119069,6,0,B|246:49|279:118|158:111,1,174,10|2,0:0|1:2,0:0:0:0:
86,53,119621,1,8,0:0:0:0:
17,118,119805,1,2,1:2:0:0:
22,133,119897,1,0,1:2:0:0:
29,150,119989,2,0,P|37:197|26:249,1,87,0|2,1:0|1:2,0:0:0:0:
11,355,120357,2,0,P|51:315|126:315,1,130.5,10|0,0:0|0:0,0:0:0:0:
136,324,120725,6,0,B|190:318|190:318|221:329|221:329|292:319,1,139.2,6|8,1:2|0:0,0:0:0:0:
328,242,121277,1,2,0:0:0:0:
393,350,121461,2,0,P|397:308|403:278,1,69.6,2|0,0:0|1:0,0:0:0:0:
337,173,121829,2,0,P|333:215|327:245,1,69.6,8|2,0:0|1:2,0:0:0:0:
302,253,122105,1,0,1:0:0:0:
275,261,122197,6,0,P|235:222|252:132,1,139.2,2|8,1:2|0:0,0:0:0:0:
317,79,122749,1,2,0:0:0:0:
414,109,122934,2,0,P|460:105|488:86,1,69.6,2|0,0:2|1:0,0:0:0:0:
500,190,123302,2,0,P|485:221|484:255,1,69.6,8|2,0:0|1:2,0:0:0:0:
492,269,123578,1,0,1:0:0:0:
501,286,123670,6,0,P|450:277|419:273,1,69.6,2|2,1:2|0:0,0:0:0:0:
372,375,124038,2,0,L|406:369|440:363,1,69.6,8|2,0:0|0:0,0:0:0:0:
356,282,124406,2,0,P|321:287|287:293,1,69.6,0|2,0:0|1:2,0:0:0:0:
203,357,124774,2,0,P|237:363|271:368,1,69.6,8|2,0:0|0:0,0:0:0:0:
200,251,125142,6,0,B|141:257|161:295|81:301,1,104.4,0|0,1:0|0:0,0:0:0:0:
97,297,125510,2,0,L|90:217,1,69.6,10|0,0:0|0:0,0:0:0:0:
169,103,125878,5,2,1:2:0:0:
156,115,125970,1,0,1:0:0:0:
141,124,126062,1,0,1:0:0:0:
123,127,126154,1,0,1:0:0:0:
106,130,126246,2,0,L|56:122,3,43.5,10|0|0|0,0:2|1:2|1:2|1:2,0:0:0:0:
77,33,126615,6,0,P|126:39|166:126,1,130.5,6|0,1:2|0:0,0:0:0:0:
174,120,126983,2,0,L|180:26,1,87,10|0,0:0|0:0,0:0:0:0:
50,135,127351,1,2,1:2:0:0:
259,81,127535,2,0,L|253:175,1,87,2|0,1:2|0:0,0:0:0:0:
160,246,127903,6,0,B|259:220|241:302|329:278,1,174,10|2,0:2|1:2,0:0:0:0:
403,188,128455,1,8,0:0:0:0:
488,274,128639,1,2,1:2:0:0:
488,274,128731,1,0,1:0:0:0:
488,274,128823,2,0,P|501:323|485:368,1,87,0|2,1:0|1:2,0:0:0:0:
322,279,129191,1,10,0:0:0:0:
368,118,129375,1,8,0:0:0:0:
368,118,129467,1,8,0:0:0:0:
368,118,129559,6,0,P|433:108|480:170,1,130.5,6|0,1:2|0:0,0:0:0:0:
485,166,129927,2,0,B|468:121|468:121|487:71,1,87,10|0,0:2|0:0,0:0:0:0:
404,276,130296,1,10,0:0:0:0:
404,276,130480,1,2,1:2:0:0:
316,191,130664,2,0,P|270:203|242:246,1,87,8|2,0:0|1:2,0:0:0:0:
408,358,131032,6,0,P|454:346|482:303,1,87,8|2,0:0|1:2,0:0:0:0:
322,279,131400,1,8,0:0:0:0:
190,363,131584,2,0,P|172:284|182:180,1,174,6|8,1:2|3:0,0:0:0:0:
233,65,132136,6,0,B|229:61|191:101|121:105,1,104.4,4|0,3:0|0:0,0:0:0:0:
148,114,132506,6,0,P|186:110|233:131,1,87,6|2,1:2|0:0,0:0:0:0:
301,178,133058,1,8,0:0:0:0:
355,110,133242,2,0,L|349:49,1,43.5,2|0,0:2|1:0,0:0:0:0:
430,144,133610,6,0,L|422:235,2,87,10|2|2,0:0|0:0|0:0,0:0:0:0:
466,329,134714,6,0,P|442:313|413:309,1,58,2|8,1:2|0:0,0:0:0:0:
388,318,135082,2,0,L|352:331,2,29,10|8|8,0:0|0:0|0:0,0:0:0:0:
303,271,135450,2,0,L|267:258,2,29,10|8|8,0:0|0:0|0:0,0:0:0:0:
249,335,135818,6,0,L|213:348,2,29,8|8|8,3:0|3:0|3:0,0:0:0:0:
199,267,136186,1,4,3:0:0:0:
176,263,136309,1,4,3:0:0:0:
153,258,136432,1,4,3:0:0:0:
125,250,136555,6,0,L|131:322,1,65.25,2|0,1:2|0:0,0:0:0:0:
134,319,136923,6,0,L|39:311,1,87,4|2,1:2|0:0,0:0:0:0:
13,231,137475,1,8,0:0:0:0:
60,158,137659,2,0,P|83:168|100:185,1,43.5,2|0,1:2|1:0,0:0:0:0:
168,229,138027,6,0,P|211:222|246:178,1,87,10|2,0:0|0:0,0:0:0:0:
268,109,138579,1,8,3:0:0:0:
198,57,138763,2,0,P|171:66|149:76,1,43.5,4|0,3:0|0:0,0:0:0:0:
276,24,139131,6,0,B|343:26|343:70|409:71,1,139.2,6|0,1:2|0:0,0:0:0:0:
480,21,139683,1,0,0:0:0:0:
499,109,139867,2,0,P|432:98|378:171,1,139.2,10|4,0:0|3:0,0:0:0:0:
361,231,140420,1,0,0:0:0:0:
439,276,140604,6,0,P|475:262|512:257,1,69.6,8|8,0:0|3:0,0:0:0:0:
331,329,140972,2,0,P|363:333|403:346,1,69.6,4|2,3:0|0:0,0:0:0:0:
361,231,141340,6,0,P|320:238|211:270,1,139.2,6|0,1:2|0:0,0:0:0:0:
165,332,141892,1,2,0:0:0:0:
103,265,142076,2,0,P|96:215|106:186,1,69.6,2|0,1:2|0:0,0:0:0:0:
153,123,142444,6,0,P|197:133|270:56,2,139.2,10|2|2,0:0|0:0|1:2,0:0:0:0:
153,123,143548,6,0,P|127:88|37:84,1,139.2,2|0,1:2|0:0,0:0:0:0:
10,170,144101,1,8,0:0:0:0:
10,170,144285,2,0,P|19:209|23:239,1,69.6,0|0,1:2|0:0,0:0:0:0:
27,328,144653,6,0,B|80:321|80:321|114:328|114:328|177:317,1,139.2,10|2,0:0|0:0,0:0:0:0:
232,259,145205,1,8,3:0:0:0:
287,323,145389,2,0,P|322:347|384:351,1,104.4,4|0,3:0|0:0,0:0:0:0:
386,355,145757,6,0,L|385:206,1,139.2,4|0,1:2|0:0,0:0:0:0:
448,151,146309,1,0,0:0:0:0:
375,97,146493,2,0,P|333:102|314:124,1,69.6,0|0,1:2|0:0,0:0:0:0:
238,167,146861,6,0,P|206:144|217:45,2,139.2,10|2|2,0:0|0:0|1:2,0:0:0:0:
238,167,147966,6,0,B|165:161|180:215|87:213,1,139.2,2|0,1:2|0:0,0:0:0:0:
37,158,148518,1,8,0:0:0:0:
109,212,148702,2,0,P|119:250|115:285,1,69.6,2|2,1:2|0:0,0:0:0:0:
48,339,149070,6,0,L|-6:327,2,46.4,6|0|8,1:2|0:0|0:0,0:0:0:0:
176,352,149438,2,0,L|122:364,2,46.4,8|8|8,0:0|0:0|0:0,0:0:0:0:
229,286,149806,6,0,P|268:283|321:327,1,104.4,4|0,3:0|0:0,0:0:0:0:
319,320,150174,6,0,P|365:330|431:259,1,139.2,6|0,1:2|0:0,0:0:0:0:
428,181,150726,1,8,0:0:0:0:
337,178,150910,2,0,L|349:249,1,69.6,0|0,1:0|0:0,0:0:0:0:
381,93,151279,6,0,P|337:130|241:131,2,139.2,10|2|2,0:0|0:2|1:2,0:0:0:0:
381,93,152383,6,0,B|447:69|447:69|523:105,1,139.2,2|0,1:2|0:0,0:0:0:0:
445,163,152935,1,8,0:0:0:0:
381,93,153119,2,0,L|383:11,1,69.6,2|2,1:2|0:0,0:0:0:0:
305,57,153487,6,0,P|259:61|202:20,1,104.399996813965,10|0,0:0|0:0,0:0:0:0:
202,22,153855,2,0,P|228:60|218:115,1,104.399996813965,8|0,3:0|0:0,0:0:0:0:
223,128,154223,2,0,P|243:86|303:53,1,104.399996813965,4|4,3:0|3:0,0:0:0:0:
304,55,154591,6,0,L|299:201,1,139.2,6|0,1:2|0:0,0:0:0:0:
229,253,155144,1,8,0:0:0:0:
153,202,155328,2,0,P|117:205|85:230,1,69.6,0|0,1:0|0:0,0:0:0:0:
45,302,155696,6,0,B|111:296|99:352|188:338,1,139.2,8|0,0:0|0:0,0:0:0:0:
241,278,156248,1,2,0:0:0:0:
308,328,156432,2,0,P|359:334|403:297,1,104.4,2|0,1:2|0:0,0:0:0:0:
398,303,156800,6,0,L|392:188,1,104.4,6|0,1:2|0:0,0:0:0:0:
391,186,157168,1,10,0:0:0:0:
241,278,157352,1,6,1:2:0:0:
241,278,157720,1,2,1:2:0:0:
224,190,157904,2,0,P|270:194|295:211,1,69.6,12|0,0:0|0:0,0:0:0:0:
158,253,158272,6,0,P|137:218|171:120,1,152.25,6|0,1:2|0:0,0:0:0:0:
191,111,159009,6,0,B|199:120|201:133|178:148|172:160|172:160|165:150|138:141|136:128|143:120|143:120|138:130|126:136|104:118|90:117|90:117|98:107|100:78|111:72|120:77|120:77|109:76|101:67|110:40|108:27|108:27|120:31|148:22|156:32|157:42|157:42|153:31|159:21|188:21|199:14|199:14|198:27|215:51|210:62|199:65|199:65|208:58|220:61|224:83|239:97|239:97|234:106,1,522,2|2,0:0|0:0,0:0:0:0:
212,115,174469,6,0,L|204:36,1,69.6,6|2,1:2|0:0,0:0:0:0:
292,129,174837,2,0,L|284:208,1,69.6,2|2,1:2|0:0,0:0:0:0:
328,55,175205,2,0,P|371:37|405:44,1,69.6,2|2,1:2|0:0,0:0:0:0:
446,134,175573,2,0,P|411:134|381:118,1,69.6,2|2,1:2|0:0,0:0:0:0:
508,70,175941,6,0,B|531:133|531:133|509:205,1,139.2,2|2,1:2|1:2,0:0:0:0:
457,275,176493,1,8,0:0:0:0:
369,252,176677,2,0,P|324:253|299:275,1,69.6,8|8,3:0|3:0,0:0:0:0:
257,343,177045,1,4,3:0:0:0:
179,199,177229,1,0,1:0:0:0:
179,199,177321,1,0,1:0:0:0:
179,199,177413,6,0,P|224:200|249:222,1,69.6,2|0,1:2|0:0,0:0:0:0:
113,152,177782,2,0,P|148:123|181:124,1,69.6,2|0,1:2|0:0,0:0:0:0:
38,178,178150,2,0,B|26:141|26:141|37:105,1,69.6,2|0,1:2|0:0,0:0:0:0:
105,229,178518,2,0,L|101:308,1,69.6,2|8,1:2|0:0,0:0:0:0:
25,347,178886,6,0,L|168:328,1,139.2,2|2,1:2|1:2,0:0:0:0:
248,357,179438,1,8,0:0:0:0:
296,280,179622,2,0,P|260:264|219:272,1,69.6,8|8,3:0|3:0,0:0:0:0:
346,381,179990,1,4,3:0:0:0:
396,297,180174,1,8,0:0:0:0:
396,297,180266,1,8,0:0:0:0:
396,297,180358,6,0,B|406:249|406:249|385:192,1,87,6|0,1:2|1:0,0:0:0:0:
317,118,180726,1,8,0:0:0:0:
223,196,180910,2,0,B|131:215|167:130|42:161,1,174,6|2,1:2|1:2,0:0:0:0:
98,272,181462,5,14,0:0:0:0:
207,117,181646,1,0,1:0:0:0:
98,272,181830,1,2,1:2:0:0:
60,55,182014,2,0,P|109:55|142:75,1,87,14|0,0:0|0:0,0:0:0:0:
223,196,182382,1,2,1:2:0:0:
223,196,182474,1,0,1:0:0:0:
223,196,182566,5,14,0:0:0:0:
214,31,182750,1,0,1:2:0:0:
86,132,182934,1,8,0:0:0:0:
294,128,183118,5,6,1:2:0:0:
140,73,183302,1,8,0:0:0:0:
181,270,183486,1,2,1:2:0:0:
207,117,183670,5,10,0:0:0:0:
20,204,183854,1,8,0:0:0:0:
107,383,184038,1,10,0:0:0:0:
294,296,184223,6,0,B|160:282|230:363|121:371|121:371|45:358|30:294|52:258,1,348,14|0,0:0|0:0,0:0:0:0:
54,252,185787,1,0,0:0:0:0:
62,239,185875,6,0,B|83:202|68:161|68:161|46:111|57:62|57:62|74:110|105:123,1,243.6,2|0,0:0|0:0,0:0:0:0:
98,126,186611,6,0,B|138:142|177:132|177:132|190:93|181:60,1,152.25,8|0,3:0|0:0,0:0:0:0:
174,43,187347,6,0,B|283:61|259:-10|355:7,1,191.400005841065,6|8,1:2|0:0,0:0:0:0:
438,105,187899,1,2,1:2:0:0:
438,105,187991,1,0,1:2:0:0:
438,105,188083,1,2,1:2:0:0:
317,163,188267,1,0,1:0:0:0:
508,153,188451,2,0,P|524:106|509:60,1,95.7000029205323,8|0,0:0|0:0,0:0:0:0:
317,163,188819,6,0,P|285:221|339:289,1,143.550004380798,2|0,1:2|0:0,0:0:0:0:
393,250,189187,2,0,P|435:252|480:286,1,95.7000029205323,8|0,0:2|0:0,0:0:0:0:
260,356,189555,1,2,1:2:0:0:
393,250,189740,1,0,1:0:0:0:
260,356,189924,1,10,0:0:0:0:
201,203,190108,1,0,1:0:0:0:
201,203,190200,1,0,1:0:0:0:
201,203,190292,6,0,B|102:183|134:282|17:262,1,191.400005841065,6|8,1:2|0:0,0:0:0:0:
93,121,190844,1,2,0:2:0:0:
182,273,191028,1,2,1:2:0:0:
51,187,191212,1,0,1:0:0:0:
49,361,191396,2,0,P|92:353|140:331,1,95.7000029205323,8|2,0:0|0:0,0:0:0:0:
309,357,191764,6,0,B|279:285|279:285|314:203,1,143.550004380798,2|0,1:2|0:0,0:0:0:0:
385,209,192132,2,0,L|371:303,1,95.7000029205323,8|2,0:0|0:0,0:0:0:0:
264,128,192500,1,2,1:2:0:0:
385,209,192684,1,0,1:0:0:0:
264,128,192868,2,0,P|202:129|158:162,1,95.7000029205323,8|0,0:0|1:0,0:0:0:0:
385,209,193236,6,0,P|461:208|483:94,1,191.400005841065,6|8,1:2|0:0,0:0:0:0:
379,19,193789,1,2,1:2:0:0:
379,19,193881,1,0,1:2:0:0:
379,19,193973,2,0,L|374:127,1,95.7000029205323,2|0,1:2|1:0,0:0:0:0:
488,206,194341,2,0,L|493:98,1,95.7000029205323,8|2,0:0|0:0,0:0:0:0:
379,19,194709,6,0,B|318:21|318:21|263:45|263:45|188:42,1,191.400005841065,2|8,1:2|0:0,0:0:0:0:
61,14,195261,1,0,0:0:0:0:
148,113,195445,2,0,B|166:160|166:160|144:212,1,95.7000029205323,2|0,1:2|1:0,0:0:0:0:
23,274,195813,2,0,B|5:227|5:227|27:175,1,95.7000029205323,10|0,0:0|0:0,0:0:0:0:
181,329,196181,6,0,B|83:308|104:391|-8:366,1,191.400005841065,6|8,1:2|0:0,0:0:0:0:
128,249,196733,1,2,0:0:0:0:
258,364,196917,2,0,P|312:359|343:322,1,95.7000029205323,2|0,1:2|1:0,0:0:0:0:
370,200,197286,2,0,P|324:175|268:249,1,143.550004380798,8|0,0:2|0:0,0:0:0:0:
257,245,197654,6,0,L|252:148,1,95.7000029205323,2|0,1:2|0:0,0:0:0:0:
430,281,198022,2,0,L|427:384,1,95.7000029205323,8|0,0:0|0:0,0:0:0:0:
257,245,198390,1,2,1:2:0:0:
430,281,198574,1,8,0:0:0:0:
258,364,198758,1,10,0:0:0:0:
234,364,198850,1,8,0:0:0:0:
210,357,198942,1,8,0:0:0:0:
188,345,199034,1,8,0:0:0:0:
172,326,199126,6,0,B|137:240|137:240|179:128,1,191.400005841065,6|8,1:2|0:0,0:0:0:0:
251,37,199678,1,2,1:2:0:0:
266,49,199770,1,0,1:2:0:0:
281,61,199862,2,0,B|292:109|292:109|279:164,1,95.7000029205323,2|0,1:2|1:0,0:0:0:0:
163,125,200230,2,0,B|152:77|152:77|165:22,1,95.7000029205323,8|2,0:0|1:2,0:0:0:0:
292,68,200598,6,0,B|397:59|349:139|467:132,1,191.400005841065,2|8,1:2|0:0,0:0:0:0:
443,42,201151,1,2,0:0:0:0:
392,200,201335,2,0,P|442:209|494:202,1,95.7000029205323,2|0,1:2|1:0,0:0:0:0:
312,144,201703,2,0,B|298:191|298:191|319:243,1,95.7000029205323,8|2,0:0|0:0,0:0:0:0:
458,317,202071,6,0,B|360:296|381:379|269:354,1,191.400005841065,6|8,1:2|0:0,0:0:0:0:
174,279,202623,1,2,0:0:0:0:
68,355,202807,2,0,B|46:308|46:308|70:255,1,95.7000029205323,2|0,1:2|1:0,0:0:0:0:
178,183,203175,2,0,L|173:285,1,95.7000029205323,8|0,0:2|0:0,0:0:0:0:
152,94,203543,6,0,P|188:150|269:164,1,143.550004380798,2|0,1:2|0:0,0:0:0:0:
328,74,203911,2,0,P|273:68|224:93,1,95.7000029205323,8|0,0:0|0:0,0:0:0:0:
390,174,204279,1,0,1:0:0:0:
494,57,204463,1,0,1:0:0:0:
390,174,204648,2,0,B|397:275,1,95.7000029205323,8|2,0:0|0:0,0:0:0:0:
430,93,205016,6,0,P|361:86|303:143,1,143.550004380798,6|0,1:2|0:0,0:0:0:0:
260,189,205384,2,0,P|212:183|174:140,1,95.7000029205323,10|0,0:2|0:0,0:0:0:0:
42,58,205752,1,2,1:2:0:0:
12,207,205936,1,0,1:0:0:0:
42,58,206120,2,0,P|90:64|128:107,1,95.7000029205323,8|2,0:0|1:2,0:0:0:0:
179,151,206396,1,0,1:0:0:0:
198,161,206488,6,0,P|256:161|306:88,1,143.550004380798,6|0,1:2|0:0,0:0:0:0:
367,54,206856,2,0,P|411:51|455:90,1,95.7000029205323,10|0,0:2|0:0,0:0:0:0:
369,179,207224,1,2,1:2:0:0:
510,145,207408,1,0,1:0:0:0:
369,179,207592,2,0,B|360:230|360:230|376:283,1,95.7000029205323,8|0,0:2|0:0,0:0:0:0:
499,325,207960,6,0,B|391:295|430:381|317:348,1,191.400005841065,6|8,1:2|0:0,0:0:0:0:
225,252,208513,1,2,0:0:0:0:
122,338,208697,2,0,P|68:339|26:310,1,95.7000029205323,10|0,0:0|1:0,0:0:0:0:
220,271,209065,2,0,B|236:318|236:318|218:375,1,95.7000029205323,8|0,0:0|1:0,0:0:0:0:
83,235,209433,6,0,B|75:133,1,95.7000029205323,10|0,0:0|1:0,0:0:0:0:
191,59,209801,2,0,B|199:161,1,95.7000029205323,8|0,0:0|1:0,0:0:0:0:
78,16,210169,1,10,0:0:0:0:
277,116,210353,1,8,0:0:0:0:
83,235,210537,1,10,0:0:0:0:
104,224,210629,1,8,0:0:0:0:
127,218,210721,1,8,0:0:0:0:
150,218,210813,1,8,0:0:0:0:
173,223,210905,6,0,B|270:218|236:295|350:289,1,191.400005841065,6|8,1:2|0:0,0:0:0:0:
413,165,211457,1,2,1:2:0:0:
413,165,211549,1,0,1:2:0:0:
413,165,211641,1,2,1:2:0:0:
492,309,211825,1,0,1:0:0:0:
320,209,212009,2,0,B|305:159|305:159|322:101,1,95.7000029205323,8|0,0:0|0:0,0:0:0:0:
500,165,212378,6,0,L|491:320,1,143.550004380798,2|0,1:2|0:0,0:0:0:0:
428,356,212746,2,0,P|380:331|316:332,1,95.7000029205323,8|0,0:0|0:0,0:0:0:0:
209,362,213114,1,2,1:2:0:0:
320,209,213298,1,0,1:0:0:0:
209,362,213482,2,0,P|151:355|114:315,1,95.7000029205323,8|0,0:0|1:0,0:0:0:0:
59,214,213850,6,0,B|164:216|127:283|253:281,1,191.400005841065,6|8,1:2|0:0,0:0:0:0:
219,190,214402,1,2,1:2:0:0:
219,190,214494,1,0,1:2:0:0:
219,190,214586,1,2,1:2:0:0:
87,294,214770,1,0,1:0:0:0:
43,138,214954,2,0,P|86:120|136:128,1,95.7000029205323,8|2,0:0|0:2,0:0:0:0:
233,280,215322,6,0,P|189:224|217:145,1,143.550004380798,2|0,1:2|0:0,0:0:0:0:
275,115,215690,2,0,L|376:130,1,95.7000029205323,8|2,0:0|0:0,0:0:0:0:
482,200,216059,1,2,1:2:0:0:
395,53,216243,1,0,1:0:0:0:
482,200,216427,2,0,B|495:149|495:149|472:84,1,95.7000029205323,8|0,0:0|1:0,0:0:0:0:
315,276,216795,6,0,B|433:278|370:202|495:199,1,191.400005841065,6|8,1:2|0:0,0:0:0:0:
420,346,217347,1,2,1:2:0:0:
412,363,217439,1,0,1:2:0:0:
405,379,217531,2,0,L|303:368,1,95.7000029205323,2|0,1:2|1:0,0:0:0:0:
241,183,217899,2,0,L|343:194,1,95.7000029205323,8|0,0:0|0:0,0:0:0:0:
221,337,218267,6,0,P|147:334|96:269,1,143.550004380798,2|0,1:2|0:0,0:0:0:0:
73,200,218635,2,0,P|100:240|95:302,1,95.7000029205323,8|0,0:0|0:0,0:0:0:0:
0,166,219003,1,2,1:2:0:0:
130,91,219187,1,0,1:0:0:0:
101,286,219371,2,0,P|49:288|7:256,1,95.7000029205323,8|0,0:0|0:0,0:0:0:0:
40,79,219740,6,0,B|145:72|101:155|220:148,1,191.400005841065,6|8,1:2|0:0,0:0:0:0:
291,42,220292,1,2,1:2:0:0:
291,42,220384,1,0,1:2:0:0:
291,42,220476,2,0,P|343:38|385:64,1,95.7000029205323,2|0,1:2|1:0,0:0:0:0:
411,189,220844,2,0,P|358:192|317:167,1,95.7000029205323,8|0,0:0|1:0,0:0:0:0:
256,126,221120,1,0,1:2:0:0:
242,113,221212,6,0,B|248:264,1,143.550004380798,2|0,1:2|0:0,0:0:0:0:
172,227,221580,2,0,P|126:235|91:267,1,95.7000029205323,8|0,0:0|0:0,0:0:0:0:
215,341,221948,1,2,1:2:0:0:
75,270,222132,2,0,L|89:201,1,47.8500014602662,8|10,0:0|0:0,0:0:0:0:
107,136,222316,1,0,1:2:0:0:
247,256,222500,1,8,0:0:0:0:
247,256,222592,1,8,0:0:0:0:
247,256,222684,6,0,P|187:338|97:338,1,191.400005841065,6|10,1:2|0:0,0:0:0:0:
0,240,223236,1,2,0:0:0:0:
83,104,223421,2,0,P|127:104|181:140,1,95.7000029205323,2|2,1:2|1:2,0:0:0:0:
0,239,223789,2,0,B|-4:129,1,95.7000029205323,8|2,0:0|0:2,0:0:0:0:
54,26,224157,6,0,B|125:17|125:17|171:39|171:39|261:27,1,191.400005841065,0|10,1:0|0:0,0:0:0:0:
349,106,224709,1,0,0:0:0:0:
349,106,224893,2,0,L|344:210,1,95.7000029205323,0|0,1:2|1:0,0:0:0:0:
234,125,225261,2,0,L|239:21,1,95.7000029205323,10|0,0:0|0:0,0:0:0:0:
232,259,225629,6,0,P|183:260|136:220,1,95.7000029205323,6|0,1:2|0:0,0:0:0:0:
344,201,225997,2,0,P|369:242|358:303,1,95.7000029205323,10|0,0:0|0:0,0:0:0:0:
234,125,226365,2,0,P|257:82|315:61,1,95.7000029205323,2|0,1:2|1:0,0:0:0:0:
344,201,226733,1,10,0:0:0:0:
164,81,226917,1,0,0:0:0:0:
344,201,227101,6,0,P|392:175|417:131,1,95.7000029205323,2|0,1:2|0:0,0:0:0:0:
249,272,227470,2,0,P|247:326|273:370,1,95.7000029205323,8|0,0:0|0:0,0:0:0:0:
230,151,227838,2,0,P|183:122|132:122,1,95.7000029205323,0|0,1:0|1:0,0:0:0:0:
64,218,228206,2,0,P|127:186|138:105,1,143.550004380798,8|0,0:0|0:0,0:0:0:0:
106,54,228574,5,14,0:0:0:0:
230,151,228758,1,0,1:0:0:0:
230,151,228942,1,0,1:0:0:0:
45,121,229126,5,14,0:0:0:0:
251,53,229310,1,0,1:0:0:0:
251,53,229494,1,0,1:0:0:0:
153,238,229678,5,14,0:0:0:0:
180,0,229862,1,0,1:0:0:0:
180,0,230046,1,0,1:0:0:0:
427,102,230230,5,14,0:0:0:0:
112,167,232255,5,2,0:0:0:0:
57,234,232439,1,2,0:0:0:0:
81,317,232623,1,2,0:0:0:0:
232,351,232807,6,0,P|310:349|363:267,1,174,6|0,1:2|1:0,0:0:0:0:
256,141,233359,2,0,B|236:204|236:204|269:282,1,130.5,10|0,0:0|0:0,0:0:0:0:
270,273,233727,2,0,P|230:241|182:237,1,87,0|2,1:0|1:2,0:0:0:0:
57,234,234095,1,10,0:2:0:0:
92,71,234279,6,0,B|181:64|142:121|260:117,1,174,6|0,1:2|1:0,0:0:0:0:
442,35,234832,2,0,P|399:38|361:68,1,87,10|0,0:0|1:0,0:0:0:0:
353,83,235108,1,0,1:0:0:0:
353,83,235200,1,0,1:0:0:0:
341,242,235384,1,2,1:2:0:0:
440,143,235568,1,10,0:2:0:0:
244,8,235752,6,0,P|252:96|258:195,1,174,6|0,1:2|1:0,0:0:0:0:
205,301,236304,2,0,P|262:279|325:330,1,130.5,10|0,0:0|0:0,0:0:0:0:
331,327,236672,2,0,P|384:318|407:297,1,87,2|0,1:2|1:2,0:0:0:0:
330,146,237040,1,10,0:2:0:0:
217,216,237224,6,0,B|116:217|156:279|39:269,1,174,6|0,1:2|1:0,0:0:0:0:
4,160,237776,2,0,P|51:162|88:191,1,87,10|0,0:0|1:0,0:0:0:0:
205,301,238144,1,10,0:0:0:0:
186,136,238328,1,0,1:0:0:0:
56,270,238513,1,10,0:0:0:0:
278,360,238697,6,0,P|373:343|392:268,1,174,4|0,1:2|1:0,0:0:0:0:
304,155,239249,2,0,B|315:303,1,130.5,10|0,0:0|0:0,0:0:0:0:
296,271,239617,2,0,P|260:246|218:238,1,87,0|2,1:0|1:2,0:0:0:0:
115,302,239985,1,10,0:0:0:0:
91,108,240169,6,0,B|190:100|150:162|249:162,1,174,6|0,1:2|1:0,0:0:0:0:
343,83,240721,1,10,0:0:0:0:
452,136,240905,1,0,1:0:0:0:
452,136,240997,1,0,1:0:0:0:
452,136,241089,2,0,B|463:184|463:184|456:236,1,87,0|2,1:0|1:2,0:0:0:0:
399,328,241457,1,10,0:0:0:0:
326,217,241641,6,0,P|219:218|177:267,1,174,6|0,1:2|1:0,0:0:0:0:
58,266,242194,2,0,B|121:239|121:239|180:264,1,130.5,10|0,0:0|0:0,0:0:0:0:
186,274,242562,2,0,L|177:171,1,87,2|2,1:2|1:2,0:0:0:0:
131,360,242930,1,10,0:0:0:0:
312,297,243114,1,2,1:2:0:0:
312,297,243206,1,2,1:2:0:0:
312,297,243298,5,10,0:0:0:0:
240,121,243482,1,2,1:2:0:0:
234,331,243666,5,10,0:0:0:0:
339,174,243850,1,2,1:2:0:0:
178,187,244034,5,10,0:0:0:0:
312,297,244218,1,8,3:0:0:0:
312,96,244402,6,0,L|285:207,1,87,4|0,3:0|1:0,0:0:0:0:
286,223,244678,1,0,1:2:0:0:
286,223,244770,1,4,1:2:0:0:
256,192,244862,12,0,247715,0:0:0:0:
