osu file format v14

[General]
AudioFilename: mimi.mp3
AudioLeadIn: 0
PreviewTime: 161120
Countdown: 0
SampleSet: Soft
StackLeniency: 0.7
Mode: 0
LetterboxInBreaks: 0
WidescreenStoryboard: 0

[Editor]
Bookmarks: 112557,161881,233474
DistanceSpacing: 1.6
BeatDivisor: 4
GridSize: 32
TimelineZoom: 2

[Metadata]
Title:Mr. Darling
TitleUnicode:Mr. Darling
Artist:mimimemeMIMI
ArtistUnicode:みみめめMIMI
Creator:xHappy-
Version:KittyHappy's Hard
Source:REFLEC BEAT plus
Tags:bon voyage! タカオユキ ユカ Takaoyuki Yuka ちゃもーい chamooi Mr.Darling mister Kimi no iru machi 君のいる町 GITADORA tri-boost jubeat plus japanese video game full ver p_kung [_lost_] conner c_o_n_n_e_r kittyadventure gokugohan12468
BeatmapID:2087820
BeatmapSetID:992737

[Difficulty]
HPDrainRate:5
CircleSize:3.8
OverallDifficulty:6
ApproachRate:7.6
SliderMultiplier:1.30000000596046
SliderTickRate:1

[Events]
//Background and Video events
0,0,"BG.jpg",0,0
//Break Periods
2,162684,172186
//Storyboard Layer 0 (Background)
//Storyboard Layer 1 (Fail)
//Storyboard Layer 2 (Pass)
//Storyboard Layer 3 (Foreground)
//Storyboard Layer 4 (Overlay)
//Storyboard Sound Samples

[TimingPoints]
544,368.098159509202,4,2,1,40,1,0
544,-200,4,2,1,40,0,0
636,-200,4,2,1,5,0,0
2016,-200,4,2,1,40,0,0
2108,-200,4,2,1,5,0,0
3488,-200,4,2,1,40,0,0
3580,-200,4,2,1,5,0,0
4961,-200,4,2,1,40,0,0
5053,-200,4,2,1,5,0,0
5881,-200,4,2,1,40,0,0
6433,-142.857142857143,4,2,1,50,0,0
6617,368.098159509202,4,2,1,50,1,0
6617,-142.857142857143,4,2,1,50,0,0
12138,-100,4,2,1,70,0,0
24285,-142.857142857143,4,2,1,50,0,0
29807,-142.857142857143,4,2,1,60,0,0
30175,-100,4,2,1,60,0,0
33120,-142.857142857143,4,2,1,50,0,0
38641,-100,4,2,1,60,0,0
44898,368.098159509202,3,2,1,50,1,0
44898,-142.857142857143,3,2,1,50,0,0
51523,368.098159509202,4,2,1,70,1,0
53823,-100,4,2,1,50,0,0
53915,-100,4,2,1,60,0,0
54007,-100,4,2,1,70,0,0
54099,-100,4,2,1,80,0,0
54467,-100,4,2,1,80,0,1
77565,-100,4,2,1,60,0,1
77934,-100,4,2,1,60,0,0
78026,-100,4,2,1,80,0,1
97351,-100,4,2,1,80,0,0
99375,-100,4,2,1,70,0,0
111891,-133.333333333333,4,2,1,50,0,0
117780,-100,4,2,1,60,0,0
120725,-133.333333333333,4,2,1,50,0,0
125878,-100,4,2,1,50,0,0
126615,-100,4,2,1,60,0,0
132136,-125,4,2,1,60,0,0
132506,368.098159509202,3,2,1,50,1,0
132506,-142.857142857143,3,2,1,50,0,0
139131,-133.333333333333,3,2,1,60,0,0
153487,-133.333333333333,3,2,1,70,0,0
154591,-133.333333333333,3,2,1,70,0,0
158272,-200,3,2,1,60,0,0
158917,-200,3,2,1,5,0,0
159009,368.098159509202,5,2,1,60,1,0
159009,-200,5,2,1,60,0,0
162690,368.098159509202,4,2,1,60,1,0
174101,-133.333333333333,4,2,1,60,0,0
174377,-133.333333333333,4,2,1,5,0,0
174469,-133.333333333333,4,2,1,60,0,0
180358,368.098159509202,3,2,1,60,1,0
185875,368.098159509202,4,2,1,50,1,0
185875,-200,4,2,1,50,0,0
187347,-100,4,2,1,80,0,1
210445,-100,4,2,1,60,0,1
210813,-100,4,2,1,60,0,0
210905,-100,4,2,1,80,0,1
230230,-100,4,2,1,80,0,0
232807,-100,4,2,1,70,0,1
232899,-100,4,2,1,70,0,0
244770,-133.333333333333,4,2,1,70,0,0
245506,-133.333333333333,4,2,1,60,0,0
245874,-133.333333333333,4,2,1,50,0,0
246243,-133.333333333333,4,2,1,40,0,0
246611,-133.333333333333,4,2,1,30,0,0
246979,-133.333333333333,4,2,1,20,0,0
247347,-133.333333333333,4,2,1,10,0,0
247715,-133.333333333333,4,2,1,5,0,0

[Colours]
Combo1 : 66,210,253
Combo2 : 255,170,170
Combo3 : 255,51,51
Combo4 : 128,255,255

[HitObjects]
319,205,544,6,0,P|336:168|321:215,1,243.750001117586,2|0,0:2|0:0,0:0:0:0:
313,211,2016,6,0,B|236:158|198:251|123:208|123:208|147:211|173:192,1,243.750001117586,2|0,0:2|0:0,0:0:0:0:
179,190,3488,6,0,B|239:119|221:13|221:13|204:50|184:63,1,243.750001117586,2|0,0:2|0:0,0:0:0:0:
183,73,4961,6,0,L|331:70,1,146.250000670552,2|0,0:2|0:0,0:0:0:0:
345,70,5881,5,2,0:2:0:0:
486,31,6433,5,2,0:0:0:0:
443,106,6617,2,0,L|450:163,1,45.4999988200663,0|2,3:0|0:2,0:0:0:0:
367,180,6985,2,0,L|361:225,1,45.4999988200663,2|0,3:2|0:0,0:0:0:0:
274,228,7353,2,0,L|281:285,2,45.4999988200663,2|0|2,3:2|0:0|3:2,0:0:0:0:
202,180,7905,6,0,L|207:134,2,45.4999988200663,2|2|0,0:2|3:2|0:0,0:0:0:0:
141,241,8457,2,0,L|86:231,1,45.4999988200663,2|0,3:2|0:0,0:0:0:0:
111,147,8825,2,0,L|56:137,2,45.4999988200663,2|0|2,3:2|0:0|3:2,0:0:0:0:
145,67,9377,6,0,L|200:57,1,45.4999988200663,2|2,0:2|3:2,0:0:0:0:
264,16,9745,2,0,L|308:24,1,45.4999988200663,0|2,0:0|3:2,0:0:0:0:
355,96,10113,2,0,L|399:87,1,45.4999988200663,0|2,0:0|3:2,0:0:0:0:
450,16,10482,2,0,L|494:24,1,45.4999988200663,0|2,0:2|3:2,0:0:0:0:
498,110,10850,5,2,0:2:0:0:
498,110,11218,1,2,0:2:0:0:
437,177,11402,1,2,0:2:0:0:
497,244,11586,2,0,L|483:341,1,90.9999976401327,2|2,0:2|0:0,0:0:0:0:
399,366,12138,1,10,0:2:0:0:
334,302,12322,6,0,B|275:277|275:277|229:323,1,130.000000596046,6|2,1:2|1:2,0:0:0:0:
151,372,12874,2,0,P|103:357|63:291,1,130.000000596046,10|2,0:2|1:2,0:0:0:0:
128,228,13426,1,2,1:2:0:0:
128,228,13610,1,10,0:2:0:0:
45,189,13794,6,0,B|37:139|37:139|48:111|48:111|39:57,1,130.000000596046,6|2,1:2|1:2,0:0:0:0:
121,20,14347,2,0,B|169:28|169:28|197:17|197:17|247:25,1,130.000000596046,10|2,0:2|1:2,0:0:0:0:
337,38,14899,1,2,1:2:0:0:
337,38,15083,1,10,0:2:0:0:
338,122,15267,6,0,P|384:134|458:96,1,130.000000596046,6|0,1:2|1:0,0:0:0:0:
497,186,15819,2,0,B|475:227|475:227|486:324,1,130.000000596046,10|2,0:2|1:2,0:0:0:0:
408,359,16371,1,2,1:2:0:0:
408,359,16555,1,10,0:2:0:0:
331,309,16739,6,0,P|281:349|216:350,1,130.000000596046,6|2,1:2|1:2,0:0:0:0:
167,274,17291,2,0,P|192:217|173:142,1,130.000000596046,10|10,0:2|0:2,0:0:0:0:
87,121,17843,1,0,1:2:0:0:
87,121,18028,1,10,0:2:0:0:
56,212,18212,6,0,L|41:350,1,130.000000596046,6|0,1:2|1:0,0:0:0:0:
132,352,18764,2,0,L|146:222,1,130.000000596046,10|2,0:2|1:2,0:0:0:0:
228,184,19316,1,2,1:2:0:0:
228,184,19500,1,10,0:2:0:0:
267,265,19684,6,0,P|311:250|351:173,1,130.000000596046,6|0,1:2|1:0,0:0:0:0:
340,90,20236,2,0,B|289:54|266:112|213:73,1,130.000000596046,10|2,0:2|1:2,0:0:0:0:
125,65,20788,1,2,1:2:0:0:
125,65,20972,1,10,0:2:0:0:
123,166,21156,6,0,B|148:203|148:203|134:295,1,130.000000596046,6|0,1:2|1:0,0:0:0:0:
202,349,21709,2,0,B|251:342|251:342|282:358|282:358|336:352,1,130.000000596046,10|2,0:2|1:2,0:0:0:0:
409,313,22261,1,2,1:2:0:0:
409,313,22445,1,10,0:2:0:0:
388,221,22629,1,2,1:2:0:0:
388,221,22721,1,2,1:2:0:0:
388,221,22813,6,0,L|315:225,2,65.000000298023,10|2|10,0:2|1:2|0:2,0:0:0:0:
458,164,23365,1,2,1:2:0:0:
452,73,23549,2,0,P|426:53|394:47,1,65.000000298023,10|8,0:2|3:0,0:0:0:0:
305,28,23917,1,4,3:0:0:0:
305,28,24101,1,2,0:0:0:0:
236,98,24285,6,0,L|137:94,1,90.9999976401327,6|0,3:2|3:0,0:0:0:0:
60,127,24837,1,2,0:2:0:0:
60,127,25021,2,0,L|81:217,1,90.9999976401327,2|0,3:2|3:0,0:0:0:0:
175,227,25574,1,2,1:2:0:0:
175,227,25758,6,0,B|156:273|156:273|164:316,1,90.9999976401327,2|0,1:2|3:0,0:0:0:0:
250,285,26310,1,2,0:2:0:0:
250,285,26494,2,0,B|285:313|285:313|336:304,1,90.9999976401327,2|0,3:2|3:2,0:0:0:0:
411,346,27046,1,2,1:2:0:0:
405,255,27230,6,0,L|398:197,2,45.4999988200663,2|2|2,1:2|0:0|3:2,0:0:0:0:
491,226,27782,1,2,0:0:0:0:
491,226,27966,2,0,L|481:117,1,90.9999976401327,2|2,3:2|3:2,0:0:0:0:
411,78,28518,1,2,1:2:0:0:
411,78,28702,2,0,P|361:77|331:103,1,90.9999976401327,0|2,1:2|3:2,0:0:0:0:
226,251,29439,2,0,L|132:241,1,90.9999976401327,2|10,3:2|0:2,0:0:0:0:
45,83,30175,6,0,B|88:133|88:133|154:118,1,130.000000596046,6|10,1:2|0:2,0:0:0:0:
210,50,30727,1,0,0:0:0:0:
285,100,30911,1,2,1:2:0:0:
285,100,31095,2,0,L|368:91,1,65.000000298023,2|0,1:2|0:0,0:0:0:0:
433,56,31463,6,0,B|464:95|464:95|466:190,1,130.000000596046,10|2,0:0|1:2,0:0:0:0:
397,235,32015,1,0,0:0:0:0:
476,278,32199,2,0,P|435:321|363:325,1,130.000000596046,10|2,0:2|1:2,0:0:0:0:
281,357,32751,2,0,L|277:293,1,65.000000298023,10|2,0:2|1:2,0:0:0:0:
205,235,33120,6,0,B|169:261|169:261|120:261,1,90.9999976401327,6|0,1:2|3:0,0:0:0:0:
40,301,33672,1,2,0:2:0:0:
40,301,33856,2,0,P|32:251|56:203,1,90.9999976401327,2|2,3:2|0:0,0:0:0:0:
25,125,34408,1,2,1:2:0:0:
25,125,34592,6,0,P|76:126|111:149,1,90.9999976401327,2|0,1:2|3:0,0:0:0:0:
181,92,35144,1,2,0:2:0:0:
181,92,35328,2,0,B|219:115|219:115|263:92,1,90.9999976401327,2|0,3:2|3:0,0:0:0:0:
348,72,35880,1,2,1:2:0:0:
348,72,36064,5,2,1:2:0:0:
366,161,36248,2,0,L|461:153,2,90.9999976401327,2|2|2,0:0|0:2|3:2,0:0:0:0:
293,216,37169,1,0,0:0:0:0:
293,216,37353,1,2,1:2:0:0:
376,253,37537,6,0,L|384:348,1,90.9999976401327,0|2,1:2|3:2,0:0:0:0:
290,365,38089,1,0,0:0:0:0:
290,364,38273,2,0,P|267:368|244:368,1,45.4999988200663,2|0,3:2|1:0,0:0:0:0:
166,314,38641,2,0,P|118:320|101:335,1,65.000000298023,10|0,0:2|0:0,0:0:0:0:
34,269,39009,6,0,B|65:234|65:234|58:147,1,130.000000596046,6|10,1:2|0:2,0:0:0:0:
75,55,39561,1,0,0:0:0:0:
165,95,39745,1,2,1:2:0:0:
165,95,39929,2,0,L|235:91,1,65.000000298023,2|0,1:2|0:0,0:0:0:0:
314,56,40297,6,0,P|329:104|294:180,1,130.000000596046,10|2,0:0|1:2,0:0:0:0:
232,236,40850,1,0,0:0:0:0:
313,278,41034,2,0,B|367:245|367:245|427:281,1,130.000000596046,10|2,0:2|1:2,0:0:0:0:
369,351,41586,1,10,0:0:0:0:
369,351,41770,1,0,0:0:0:0:
279,366,41954,6,0,B|231:369|231:369|201:346|201:346|147:350,1,130.000000596046,6|10,1:2|0:2,0:0:0:0:
71,317,42506,1,0,0:0:0:0:
62,226,42690,1,2,1:2:0:0:
62,226,42874,2,0,L|130:230,1,65.000000298023,2|0,1:2|0:0,0:0:0:0:
166,147,43242,6,0,P|207:182|212:259,1,130.000000596046,10|2,0:0|1:2,0:0:0:0:
305,286,43794,1,8,0:0:0:0:
335,193,43978,2,0,B|405:163|390:224|462:198,1,130.000000596046,6|2,1:2|1:2,0:0:0:0:
460,94,44531,2,0,P|446:62|446:30,1,65.000000298023,10|0,0:0|1:0,0:0:0:0:
342,21,44898,6,0,B|306:49|306:49|250:53,1,90.9999976401327,6|0,1:2|0:0,0:0:0:0:
80,58,45634,1,2,0:2:0:0:
200,194,46002,2,0,B|212:239|212:239|194:290,1,90.9999976401327,2|2,1:2|0:2,0:0:0:0:
35,363,46738,1,2,0:2:0:0:
9,182,47106,6,0,L|102:189,1,90.9999976401327,6|2,1:2|0:2,0:0:0:0:
118,99,47658,1,8,0:2:0:0:
118,99,47842,1,2,0:2:0:0:
286,29,48210,2,0,P|307:77|298:122,1,90.9999976401327,10|8,0:2|3:0,0:0:0:0:
463,198,48947,1,4,3:0:0:0:
323,314,49315,6,0,P|291:287|237:283,1,90.9999976401327,6|2,1:2|0:0,0:0:0:0:
167,331,49867,1,8,0:0:0:0:
125,250,50051,2,0,L|129:194,1,45.4999988200663,2|0,0:0|1:0,0:0:0:0:
79,128,50419,2,0,P|36:121|-13:154,2,90.9999976401327,10|2|8,0:0|1:2|0:0,0:0:0:0:
155,79,51339,1,0,0:0:0:0:
220,142,51523,6,0,L|351:138,1,130.000000596046,6|0,1:2|0:0,0:0:0:0:
428,91,52075,1,2,1:2:0:0:
480,165,52259,2,0,P|497:212|479:294,1,130.000000596046,2|8,0:0|0:0,0:0:0:0:
420,355,52811,1,0,0:0:0:0:
317,365,52995,6,0,P|291:307|225:285,1,130.000000596046,2|8,1:2|0:2,0:0:0:0:
148,321,53547,1,0,0:0:0:0:
90,250,53731,2,0,L|95:208,3,32.5000001490115,8|8|8|8,0:0|0:0|0:0|0:0,0:0:0:0:
65,182,54099,2,0,L|70:140,3,32.5000001490115,8|8|8|8,0:0|0:0|0:0|0:0,0:0:0:0:
47,109,54467,6,0,P|98:127|171:92,1,130.000000596046,6|8,1:2|0:0,0:0:0:0:
246,58,55019,1,2,0:0:0:0:
265,146,55203,2,0,L|332:140,1,65.000000298023,2|0,1:2|1:0,0:0:0:0:
421,135,55572,1,8,0:0:0:0:
475,301,55940,6,0,L|345:293,1,130.000000596046,2|8,1:2|0:2,0:0:0:0:
264,334,56492,1,0,0:0:0:0:
189,281,56676,2,0,B|161:295|161:295|115:286,1,65.000000298023,2|0,1:2|1:0,0:0:0:0:
81,210,57044,1,10,0:0:0:0:
81,210,57228,1,0,1:0:0:0:
11,121,57412,6,0,B|68:149|81:94|138:123,1,130.000000596046,6|8,1:2|0:0,0:0:0:0:
192,50,57964,1,2,0:2:0:0:
230,132,58148,2,0,B|228:195|284:184|281:247,1,130.000000596046,2|8,1:2|0:0,0:0:0:0:
192,261,58700,1,2,0:0:0:0:
248,332,58884,6,0,P|317:331|362:285,1,130.000000596046,2|8,1:2|0:0,0:0:0:0:
368,200,59437,1,2,0:0:0:0:
457,213,59621,2,0,B|449:143,1,65.000000298023,2|0,1:2|1:0,0:0:0:0:
429,60,59989,1,8,0:0:0:0:
429,60,60173,1,0,1:0:0:0:
314,56,60357,6,0,B|268:41|231:62|231:62|203:43|169:47,1,130.000000596046,6|8,1:2|0:0,0:0:0:0:
170,135,60909,1,2,0:2:0:0:
92,87,61093,2,0,P|80:117|83:160,1,65.000000298023,2|0,1:2|1:0,0:0:0:0:
90,239,61461,1,8,0:0:0:0:
90,239,61645,1,2,0:0:0:0:
15,304,61829,6,0,P|65:338|132:331,1,130.000000596046,2|8,1:2|0:0,0:0:0:0:
268,211,62565,2,0,P|200:206|152:250,1,130.000000596046,2|10,1:2|0:0,0:0:0:0:
232,292,63118,1,0,0:0:0:0:
322,294,63302,6,0,B|358:255|358:255|358:173,1,130.000000596046,6|8,1:2|0:0,0:0:0:0:
393,94,63854,1,2,0:0:0:0:
318,41,64038,2,0,P|289:58|257:63,1,65.000000298023,2|0,1:2|1:0,0:0:0:0:
183,11,64406,1,8,0:2:0:0:
183,11,64590,1,0,0:0:0:0:
71,22,64774,6,0,L|76:154,1,130.000000596046,2|8,1:2|0:0,0:0:0:0:
81,333,65510,1,2,1:2:0:0:
108,246,65694,2,0,L|180:250,2,65.000000298023,8|8|8,0:0|0:0|0:0,0:0:0:0:
81,333,66246,6,0,L|216:339,1,130.000000596046,6|8,1:2|0:0,0:0:0:0:
295,373,66799,1,2,0:0:0:0:
380,341,66983,2,0,L|384:262,1,65.000000298023,2|0,1:2|1:0,0:0:0:0:
331,200,67351,2,0,L|327:121,1,65.000000298023,8|2,0:0|1:2,0:0:0:0:
357,49,67719,6,0,B|323:72|323:72|234:66,1,130.000000596046,2|8,1:2|0:0,0:0:0:0:
152,25,68271,1,2,0:0:0:0:
130,113,68455,2,0,B|134:190,1,65.000000298023,2|0,1:2|1:0,0:0:0:0:
89,257,68823,1,8,0:0:0:0:
89,257,69007,1,2,0:0:0:0:
141,337,69191,6,0,B|203:367|203:299|270:334,1,130.000000596046,6|8,1:2|0:0,0:0:0:0:
351,358,69743,1,2,0:0:0:0:
390,276,69927,2,0,B|402:202,1,65.000000298023,2|0,1:2|1:0,0:0:0:0:
370,125,70296,1,8,0:0:0:0:
370,125,70480,1,0,0:0:0:0:
416,45,70664,6,0,P|364:78|292:59,1,130.000000596046,2|8,1:2|0:0,0:0:0:0:
214,32,71216,1,0,0:0:0:0:
123,32,71400,1,0,1:0:0:0:
123,32,71584,1,0,1:0:0:0:
139,121,71768,2,0,L|130:188,1,65.000000298023,8|2,0:0|0:0,0:0:0:0:
70,259,72136,6,0,P|130:279|191:251,1,130.000000596046,6|10,1:2|0:0,0:0:0:0:
346,343,72872,1,2,1:2:0:0:
305,261,73056,1,0,1:0:0:0:
395,261,73240,2,0,P|405:224|399:192,1,65.000000298023,8|2,0:0|0:0,0:0:0:0:
355,119,73608,6,0,L|221:127,2,130.000000596046,6|10|2,1:2|0:0|1:2,0:0:0:0:
420,55,74529,1,0,1:0:0:0:
485,117,74713,2,0,L|487:186,1,65.000000298023,8|0,0:0|0:0,0:0:0:0:
460,269,75081,6,0,B|425:258|413:238|413:238|339:249,1,130.000000596046,6|8,1:2|0:0,0:0:0:0:
268,303,75633,1,2,0:0:0:0:
188,258,75817,2,0,L|121:256,1,65.000000298023,10|0,0:0|1:0,0:0:0:0:
33,239,76185,2,0,L|14:177,1,65.000000298023,8|0,0:0|1:0,0:0:0:0:
14,82,76553,6,0,B|53:30|53:30|112:60,1,130.000000596046,10|8,0:0|0:0,0:0:0:0:
182,3,77105,1,0,1:0:0:0:
272,5,77289,1,10,0:0:0:0:
315,91,77473,1,8,0:0:0:0:
315,91,77565,1,8,0:0:0:0:
315,91,77657,2,0,L|321:133,3,32.5000001490115,10|8|8|8,0:0|0:0|0:0|0:0,0:0:0:0:
313,168,78026,6,0,P|370:139|436:162,1,130.000000596046,6|8,1:2|0:0,0:0:0:0:
497,218,78578,1,2,0:0:0:0:
506,312,78762,2,0,L|446:377,1,65.000000298023,2|0,1:2|1:0,0:0:0:0:
390,302,79130,2,0,L|324:305,1,65.000000298023,8|0,0:0|0:0,0:0:0:0:
247,352,79498,6,0,B|187:383|187:383|130:352,1,130.000000596046,2|8,1:2|0:0,0:0:0:0:
31,201,80234,1,2,1:2:0:0:
57,113,80418,1,0,1:0:0:0:
130,167,80602,2,0,L|198:163,1,65.000000298023,8|0,0:0|1:0,0:0:0:0:
261,101,80970,6,0,B|319:71|319:71|376:107,1,130.000000596046,6|8,1:2|0:0,0:0:0:0:
464,115,81522,1,2,0:0:0:0:
465,206,81707,2,0,P|459:237|442:265,1,65.000000298023,2|0,1:2|1:0,0:0:0:0:
397,344,82075,2,0,P|369:325|353:290,1,65.000000298023,8|2,0:0|0:2,0:0:0:0:
276,251,82443,6,0,B|209:224|209:278|151:258,1,130.000000596046,2|8,1:2|0:0,0:0:0:0:
65,228,82995,1,2,0:0:0:0:
113,151,83179,2,0,B|124:73|124:73,1,65.000000298023,2|0,1:2|1:0,0:0:0:0:
205,50,83547,1,8,0:0:0:0:
205,50,83731,1,0,1:0:0:0:
288,86,83915,6,0,B|345:118|356:57|414:90,1,130.000000596046,6|8,1:2|0:0,0:0:0:0:
489,137,84467,1,2,0:0:0:0:
488,227,84651,2,0,L|481:321,1,65.000000298023,2|0,1:2|1:0,0:0:0:0:
428,364,85019,1,8,0:0:0:0:
428,364,85203,1,0,0:0:0:0:
331,359,85388,6,0,P|299:320|221:310,1,130.000000596046,2|8,1:2|0:0,0:0:0:0:
42,290,86124,1,2,1:2:0:0:
114,235,86308,1,0,1:0:0:0:
31,196,86492,2,0,P|40:138|52:123,1,65.000000298023,8|0,0:0|0:0,0:0:0:0:
33,43,86860,6,0,P|78:102|137:109,1,130.000000596046,6|8,1:2|0:0,0:0:0:0:
202,55,87412,1,2,0:0:0:0:
273,110,87596,2,0,P|334:95|369:42,1,130.000000596046,2|8,1:2|0:0,0:0:0:0:
448,85,88148,1,0,0:0:0:0:
483,168,88332,6,0,B|447:202|447:202|464:283,1,130.000000596046,2|8,1:2|0:0,0:0:0:0:
300,362,89069,1,2,1:2:0:0:
228,304,89253,2,0,L|163:310,2,65.000000298023,8|0|8,0:0|1:2|0:0,0:0:0:0:
287,234,89805,6,0,L|293:168,1,65.000000298023,6|2,1:2|0:0,0:0:0:0:
293,78,90173,1,10,0:0:0:0:
221,21,90357,1,2,0:0:0:0:
154,82,90541,1,2,1:2:0:0:
63,73,90725,2,0,B|70:145,1,65.000000298023,2|8,1:2|0:0,0:0:0:0:
87,231,91093,1,2,0:2:0:0:
87,231,91277,6,0,B|115:291|115:291|183:303,1,130.000000596046,0|10,1:0|0:0,0:0:0:0:
349,361,92013,1,0,1:0:0:0:
323,273,92197,1,0,1:0:0:0:
412,290,92381,2,0,P|444:286|476:265,1,65.000000298023,10|0,0:0|0:0,0:0:0:0:
413,199,92749,6,0,P|435:158|411:65,1,130.000000596046,6|10,1:2|0:0,0:0:0:0:
350,20,93302,1,0,0:0:0:0:
259,31,93486,1,2,1:2:0:0:
199,100,93670,1,0,1:0:0:0:
152,22,93854,2,0,L|69:30,1,65.000000298023,10|0,0:0|0:0,0:0:0:0:
26,95,94222,6,0,B|57:131|57:131|50:216,1,130.000000596046,2|8,1:2|0:0,0:0:0:0:
161,357,94958,1,0,1:0:0:0:
211,281,95142,1,0,1:0:0:0:
271,349,95326,2,0,P|312:348|340:335,1,65.000000298023,8|2,0:0|1:2,0:0:0:0:
443,365,95694,6,0,P|460:336|466:305,1,65.000000298023,14|0,0:0|1:0,0:0:0:0:
407,228,96062,1,0,1:0:0:0:
497,126,96246,2,0,B|443:95|443:95|372:113,1,130.000000596046,14|0,0:0|1:0,0:0:0:0:
264,163,96799,2,0,L|116:147,1,130.000000596046,14|0,0:0|1:0,0:0:0:0:
8,131,97351,1,14,0:0:0:0:
69,256,99375,5,10,0:0:0:0:
136,188,99559,1,2,1:2:0:0:
136,188,99743,1,2,1:2:0:0:
62,133,99927,6,0,P|101:87|166:86,1,130.000000596046,6|0,1:2|1:0,0:0:0:0:
254,59,100480,2,0,L|250:206,1,130.000000596046,10|0,0:0|1:0,0:0:0:0:
197,262,101032,1,2,1:2:0:0:
286,275,101216,1,10,0:2:0:0:
340,202,101400,6,0,P|389:181|466:213,1,130.000000596046,6|0,1:2|1:0,0:0:0:0:
503,283,101952,2,0,P|456:316|434:382,1,130.000000596046,10|0,0:0|1:0,0:0:0:0:
343,373,102504,1,2,1:2:0:0:
252,362,102688,1,10,0:2:0:0:
161,348,102872,6,0,L|175:213,1,130.000000596046,6|0,1:2|1:0,0:0:0:0:
84,206,103424,2,0,L|65:63,1,130.000000596046,10|2,0:0|1:2,0:0:0:0:
157,84,103976,1,0,1:2:0:0:
247,94,104161,1,10,0:2:0:0:
337,104,104345,6,0,P|380:61|472:71,1,130.000000596046,6|0,1:2|1:0,0:0:0:0:
498,131,104897,2,0,L|487:202,1,65.000000298023,10|0,0:0|1:0,0:0:0:0:
397,204,105265,1,10,0:0:0:0:
356,285,105449,1,0,1:0:0:0:
356,285,105633,1,10,0:0:0:0:
308,209,105817,6,0,B|250:241|250:241|180:225,1,130.000000596046,4|0,1:2|1:0,0:0:0:0:
152,310,106369,2,0,B|89:324|89:324|31:292,1,130.000000596046,8|0,0:0|1:0,0:0:0:0:
79,214,106921,1,2,1:2:0:0:
28,138,107105,1,10,0:0:0:0:
101,84,107289,6,0,B|164:104|160:38|224:63,1,130.000000596046,6|0,1:2|1:0,0:0:0:0:
305,23,107842,2,0,B|367:-1|363:64|426:44,1,130.000000596046,10|0,0:0|1:0,0:0:0:0:
488,111,108394,1,2,1:2:0:0:
411,161,108578,1,10,0:0:0:0:
478,221,108762,6,0,B|501:286|501:286|478:350,1,130.000000596046,6|0,1:2|1:0,0:0:0:0:
392,368,109314,2,0,B|355:318|355:318|284:332,1,130.000000596046,10|2,0:0|1:2,0:0:0:0:
204,365,109866,1,2,1:2:0:0:
213,274,110050,1,10,0:0:0:0:
128,230,110234,1,2,1:2:0:0:
128,230,110326,1,2,1:2:0:0:
128,230,110418,6,0,P|74:237|37:222,2,65.000000298023,10|2|10,0:0|1:2|0:0,0:0:0:0:
85,149,110970,1,2,1:2:0:0:
15,90,111154,2,0,P|1:62|3:27,1,65.000000298023,10|8,0:0|3:0,0:0:0:0:
92,38,111522,1,4,3:0:0:0:
92,38,111707,1,2,0:0:0:0:
173,98,111891,6,0,L|273:93,1,97.5000041663645,6|8,1:2|0:0,0:0:0:0:
354,44,112443,1,2,0:0:0:0:
354,44,112627,2,0,P|367:101|354:143,1,97.5000041663645,2|8,0:0|0:0,0:0:0:0:
444,179,113179,1,2,0:0:0:0:
443,179,113363,6,0,P|414:216|369:233,1,97.5000041663645,2|8,1:2|0:0,0:0:0:0:
272,213,113915,1,2,0:0:0:0:
272,213,114099,2,0,L|166:222,1,97.5000041663645,2|8,0:0|0:0,0:0:0:0:
88,176,114651,1,2,0:0:0:0:
88,176,114835,6,0,L|91:122,2,48.7500020831822,2|2|10,1:2|0:0|0:0,0:0:0:0:
15,241,115388,1,2,0:0:0:0:
14,241,115572,2,0,P|12:287|41:331,1,97.5000041663645,2|10,0:0|0:2,0:0:0:0:
136,329,116124,1,2,0:0:0:0:
136,329,116308,1,0,1:0:0:0:
252,173,116676,6,0,L|247:280,1,97.5000041663645,10|2,0:0|0:0,0:0:0:0:
296,355,117228,2,0,L|354:356,1,48.7500020831822,0|10,0:0|0:0,0:0:0:0:
441,362,117596,1,8,0:0:0:0:
441,362,117688,1,8,0:0:0:0:
441,362,117780,6,0,P|431:300|381:260,1,130.000000596046,4|10,1:2|0:0,0:0:0:0:
284,241,118332,1,0,0:0:0:0:
228,168,118516,1,2,1:2:0:0:
228,168,118700,2,0,L|305:156,1,65.000000298023,2|0,1:2|0:0,0:0:0:0:
325,52,119069,6,0,P|350:100|418:125,1,130.000000596046,10|2,0:0|1:2,0:0:0:0:
504,79,119621,1,8,0:0:0:0:
511,176,119805,2,0,P|458:199|419:267,1,130.000000596046,2|2,0:0|1:2,0:0:0:0:
405,354,120357,1,10,0:0:0:0:
405,354,120541,1,2,1:2:0:0:
315,315,120725,6,0,L|216:312,1,97.5000041663645,6|8,1:2|0:0,0:0:0:0:
120,308,121277,1,2,0:0:0:0:
120,308,121461,2,0,P|147:259|146:209,1,97.5000041663645,2|8,0:0|0:0,0:0:0:0:
218,150,122013,1,2,0:0:0:0:
218,150,122197,6,0,P|169:123|119:124,1,97.5000041663645,2|8,1:2|0:0,0:0:0:0:
39,162,122749,1,2,0:0:0:0:
39,162,122934,2,0,B|25:125|25:125|30:65,1,97.5000041663645,2|8,0:2|0:0,0:0:0:0:
118,26,123486,1,0,0:0:0:0:
118,26,123670,6,0,L|179:31,1,48.7500020831822,2|2,1:2|0:0,0:0:0:0:
261,5,124038,1,8,0:0:0:0:
351,41,124222,2,0,P|378:80|382:128,2,97.5000041663645,2|2|2,0:0|1:2|0:0,0:0:0:0:
295,121,125142,6,0,L|294:230,1,97.5000041663645,0|10,1:0|0:0,0:0:0:0:
374,273,125694,1,0,0:0:0:0:
374,273,125878,2,0,P|317:314|245:302,1,130.000000596046,2|10,0:0|0:0,0:0:0:0:
65,328,126615,6,0,P|62:260|101:213,1,130.000000596046,6|10,1:2|0:0,0:0:0:0:
37,138,127167,1,0,0:0:0:0:
7,42,127351,1,2,1:2:0:0:
7,42,127535,2,0,L|76:49,1,65.000000298023,2|0,1:2|0:0,0:0:0:0:
162,14,127903,6,0,P|168:57|120:129,1,130.000000596046,10|2,0:2|1:2,0:0:0:0:
62,202,128455,1,8,0:0:0:0:
122,278,128639,2,0,B|153:251|153:251|241:255,1,130.000000596046,2|2,1:2|1:2,0:0:0:0:
322,310,129191,1,10,0:0:0:0:
410,269,129375,1,8,0:0:0:0:
410,269,129467,1,8,0:0:0:0:
410,269,129559,6,0,P|442:213|442:149,1,130.000000596046,6|10,1:2|0:2,0:0:0:0:
371,82,130111,1,0,0:0:0:0:
283,126,130296,1,10,0:0:0:0:
283,126,130480,2,0,L|209:123,1,65.000000298023,2|8,1:2|0:0,0:0:0:0:
136,49,130848,6,0,P|115:72|105:108,1,65.000000298023,2|8,1:2|0:0,0:0:0:0:
0,138,131216,2,0,P|9:167|35:194,1,65.000000298023,2|8,1:2|0:0,0:0:0:0:
40,302,131584,2,0,B|115:302|96:262|162:265,1,130.000000596046,6|8,1:2|3:0,0:0:0:0:
262,281,132136,1,4,3:0:0:0:
395,93,132506,6,0,L|399:185,1,90.9999976401327,6|2,1:2|0:0,0:0:0:0:
326,222,133058,1,8,0:0:0:0:
326,222,133242,1,2,0:2:0:0:
183,140,133610,2,0,L|187:50,2,90.9999976401327,10|2|2,0:0|0:0|0:0,0:0:0:0:
231,296,134714,6,0,P|275:292|308:270,1,60.6666650934218,2|8,1:2|0:0,0:0:0:0:
332,268,135082,2,0,L|376:270,2,30.3333325467109,10|8|8,0:0|0:0|0:0,0:0:0:0:
308,228,135450,2,0,L|264:226,2,30.3333325467109,10|8|8,0:0|0:0|0:0,0:0:0:0:
337,192,135818,2,0,L|381:194,2,30.3333325467109,8|8|8,3:0|3:0|3:0,0:0:0:0:
313,152,136186,2,0,L|269:150,2,30.3333325467109,4|4|4,3:0|3:0|3:0,0:0:0:0:
330,109,136555,1,2,1:2:0:0:
51,181,136923,6,0,P|91:161|136:162,1,90.9999976401327,4|2,1:2|0:0,0:0:0:0:
203,208,137475,1,8,0:0:0:0:
203,208,137659,1,2,1:2:0:0:
102,337,138027,2,0,L|108:242,2,90.9999976401327,10|2|4,0:0|0:0|3:0,0:0:0:0:
274,369,139131,6,0,P|313:330|410:322,1,146.250006249547,6|0,1:2|0:0,0:0:0:0:
485,338,139867,2,0,B|512:301|512:301|498:192,1,146.250006249547,10|0,0:0|0:0,0:0:0:0:
458,123,140604,2,0,P|433:137|395:141,1,48.7500020831822,8|8,0:0|3:0,0:0:0:0:
343,73,140972,1,4,3:0:0:0:
343,73,141156,1,2,0:0:0:0:
227,64,141340,6,0,L|121:57,1,97.5000041663645,6|0,1:2|0:0,0:0:0:0:
41,56,141892,1,2,0:0:0:0:
41,56,142076,1,2,1:2:0:0:
0,226,142444,2,0,L|106:219,2,97.5000041663645,10|2|2,0:0|0:0|1:2,0:0:0:0:
162,158,143548,6,0,P|182:204|177:256,1,97.5000041663645,2|0,1:2|0:0,0:0:0:0:
152,334,144101,1,8,0:0:0:0:
152,334,144285,1,0,1:2:0:0:
327,337,144653,2,0,L|304:225,1,97.5000041663645,10|2,0:0|0:0,0:0:0:0:
394,254,145205,1,8,3:0:0:0:
394,254,145389,1,4,3:0:0:0:
238,172,145757,6,0,P|281:148|345:159,1,97.5000041663645,4|0,1:2|0:0,0:0:0:0:
412,175,146309,1,0,0:0:0:0:
412,175,146493,1,0,1:2:0:0:
492,330,146861,2,0,P|512:284|507:232,2,97.5000041663645,10|2|2,0:0|0:0|1:2,0:0:0:0:
412,175,147966,6,0,B|370:196|370:196|306:190,1,97.5000041663645,2|0,1:2|0:0,0:0:0:0:
234,171,148518,1,8,0:0:0:0:
234,171,148702,2,0,L|170:176,1,48.7500020831822,2|2,1:2|0:0,0:0:0:0:
114,228,149070,5,6,1:2:0:0:
44,174,149254,1,2,0:0:0:0:
44,174,149438,2,0,L|28:224,2,32.5000013887882,8|8|8,0:0|0:0|0:0,0:0:0:0:
31,116,149806,2,0,L|15:66,2,32.5000013887882,4|4|4,3:0|3:0|3:0,0:0:0:0:
79,83,150174,6,0,B|130:80|123:110|179:107,1,97.5000041663645,6|0,1:2|0:0,0:0:0:0:
260,81,150726,1,8,0:0:0:0:
260,81,150910,1,0,1:0:0:0:
426,137,151279,2,0,L|431:39,2,97.5000041663645,10|2|2,0:0|0:2|1:2,0:0:0:0:
396,310,152383,6,0,L|391:212,1,97.5000041663645,2|0,1:2|0:0,0:0:0:0:
329,149,152935,1,8,0:0:0:0:
329,149,153119,2,0,P|305:149|282:156,1,48.7500020831822,2|2,1:2|0:0,0:0:0:0:
204,198,153487,1,10,0:0:0:0:
46,120,153855,2,0,P|23:163|23:211,1,97.5000041663645,8|4,3:0|3:0,0:0:0:0:
184,281,154591,6,0,P|139:297|115:356,1,97.5000041663645,6|0,1:2|0:0,0:0:0:0:
200,362,155144,1,8,0:0:0:0:
200,362,155328,1,0,1:0:0:0:
287,210,155696,1,8,0:0:0:0:
139,115,156064,2,0,L|145:184,2,48.7500020831822,0|2|2,0:0|0:0|1:2,0:0:0:0:
293,31,156800,6,0,B|321:50|321:50|396:44,1,97.5000041663645,6|10,1:2|0:0,0:0:0:0:
467,16,157352,2,0,B|448:44|448:44|454:119,1,97.5000041663645,6|2,1:2|1:2,0:0:0:0:
461,194,157904,1,12,0:0:0:0:
348,160,158272,6,0,P|311:163|227:159,1,113.75000052154,6|0,1:2|0:0,0:0:0:0:
204,159,159009,6,0,B|159:120|175:60|175:60|129:107|109:173|121:218|171:207|171:272|140:329,1,390.000001788138,2|2,0:0|0:0,0:0:0:0:
144,320,172996,5,2,0:0:0:0:
241,323,173364,1,2,0:0:0:0:
338,327,173732,1,2,0:0:0:0:
436,331,174101,2,0,P|448:297|446:261,1,73.1250031247734,4|0,3:0|0:0,0:0:0:0:
440,237,174469,6,0,L|370:230,1,48.7500020831822,6|2,1:2|0:0,0:0:0:0:
357,167,174837,2,0,L|292:195,1,48.7500020831822,2|2,1:2|0:0,0:0:0:0:
243,161,175205,2,0,L|236:231,1,48.7500020831822,2|2,1:2|0:0,0:0:0:0:
167,226,175573,2,0,L|160:155,1,48.7500020831822,2|2,1:2|0:0,0:0:0:0:
102,134,175941,5,2,1:2:0:0:
102,134,176125,1,2,0:0:0:0:
122,63,176309,2,0,P|143:52|167:49,1,48.7500020831822,2|8,1:2|0:0,0:0:0:0:
240,48,176677,2,0,L|296:52,1,48.7500020831822,8|8,3:0|3:0,0:0:0:0:
361,54,177045,1,4,3:0:0:0:
440,28,177229,1,0,1:0:0:0:
440,28,177321,1,0,1:0:0:0:
440,28,177413,6,0,P|447:56|443:87,1,48.7500020831822,2|0,1:2|0:0,0:0:0:0:
498,131,177782,2,0,P|472:145|440:150,1,48.7500020831822,2|0,1:2|0:0,0:0:0:0:
380,153,178150,2,0,L|265:147,1,97.5000041663645,2|2,1:2|1:2,0:0:0:0:
215,118,178702,1,8,0:0:0:0:
147,145,178886,6,0,P|139:167|139:191,1,48.7500020831822,2|0,1:2|0:0,0:0:0:0:
76,229,179254,2,0,P|91:247|112:260,1,48.7500020831822,2|8,1:2|0:0,0:0:0:0:
189,259,179622,1,8,3:0:0:0:
189,259,179806,1,8,3:0:0:0:
244,306,179990,2,0,L|304:306,1,48.7500020831822,4|8,3:0|0:0,0:0:0:0:
345,308,180266,1,8,0:0:0:0:
345,308,180358,6,0,B|371:271|371:271|368:186,1,130.000000596046,6|8,1:2|0:0,0:0:0:0:
418,102,180910,2,0,P|375:135|300:133,1,130.000000596046,6|2,1:2|1:2,0:0:0:0:
221,59,181462,6,0,P|169:54|143:68,1,65.000000298023,14|0,0:0|1:0,0:0:0:0:
79,115,181830,1,2,1:2:0:0:
0,57,182014,2,0,L|7:186,1,130.000000596046,14|2,0:0|1:2,0:0:0:0:
28,298,182566,6,0,P|60:294|85:273,1,65.000000298023,14|0,0:0|1:2,0:0:0:0:
150,172,182934,1,8,0:0:0:0:
230,227,183118,2,0,L|304:230,1,65.000000298023,6|8,1:2|0:0,0:0:0:0:
392,237,183486,1,2,1:2:0:0:
472,161,183670,5,10,0:0:0:0:
414,90,183854,1,8,0:0:0:0:
331,142,184038,1,10,0:0:0:0:
252,72,184223,1,14,0:0:0:0:
150,172,185695,5,0,0:0:0:0:
150,172,185787,1,0,0:0:0:0:
150,172,185875,2,0,L|153:308,1,130.000000596046,2|8,0:0|3:0,0:0:0:0:
480,345,187347,6,0,P|495:288|472:215,1,130.000000596046,6|8,1:2|0:0,0:0:0:0:
416,144,187899,1,2,0:0:0:0:
477,68,188083,2,0,P|436:46|412:48,1,65.000000298023,2|0,1:2|1:0,0:0:0:0:
321,43,188451,1,8,0:0:0:0:
232,216,188819,6,0,P|273:238|357:209,1,130.000000596046,2|8,1:2|0:2,0:0:0:0:
389,127,189371,1,0,0:0:0:0:
305,76,189555,2,0,L|239:78,1,65.000000298023,2|0,1:2|1:0,0:0:0:0:
175,151,189924,1,10,0:0:0:0:
175,151,190108,1,0,1:0:0:0:
82,197,190292,6,0,B|60:168|60:168|64:64,1,130.000000596046,6|8,1:2|0:0,0:0:0:0:
147,24,190844,1,2,0:2:0:0:
231,71,191028,2,0,B|301:68|290:107|359:104,1,130.000000596046,2|8,1:2|0:0,0:0:0:0:
449,82,191580,1,2,0:0:0:0:
424,176,191764,6,0,B|408:202|408:202|416:308,1,130.000000596046,2|8,1:2|0:0,0:0:0:0:
338,360,192316,1,2,0:0:0:0:
248,320,192500,2,0,P|216:324|185:316,1,65.000000298023,2|0,1:2|1:0,0:0:0:0:
104,259,192868,1,8,0:0:0:0:
104,259,193052,1,0,1:0:0:0:
60,170,193236,6,0,B|107:166|107:166|145:181|145:181|188:178,1,130.000000596046,6|8,1:2|0:0,0:0:0:0:
274,133,193789,1,2,0:2:0:0:
360,177,193973,2,0,L|434:182,2,65.000000298023,2|0|8,1:2|1:0|0:0,0:0:0:0:
290,250,194525,1,2,0:0:0:0:
328,339,194709,6,0,B|283:346|283:346|189:332,2,130.000000596046,2|8|2,1:2|0:0|1:2,0:0:0:0:
388,262,195629,1,0,1:0:0:0:
473,308,195813,2,0,P|484:273|469:219,1,65.000000298023,10|0,0:0|0:0,0:0:0:0:
456,151,196181,6,0,L|314:139,1,130.000000596046,6|8,1:2|0:0,0:0:0:0:
255,72,196733,1,2,0:0:0:0:
178,133,196917,2,0,P|146:126|113:127,1,65.000000298023,2|0,1:2|1:0,0:0:0:0:
24,160,197286,1,8,0:2:0:0:
24,160,197470,1,0,0:0:0:0:
35,269,197654,6,0,P|72:218|135:214,1,130.000000596046,2|8,1:2|0:0,0:0:0:0:
224,254,198206,1,0,0:0:0:0:
311,210,198390,2,0,P|320:246|311:281,1,65.000000298023,2|8,1:2|0:0,0:0:0:0:
384,341,198758,2,0,L|421:332,3,32.5000001490115,8|8|8|8,0:0|0:0|0:0|0:0,0:0:0:0:
463,323,199126,6,0,B|440:286|440:286|445:197,1,130.000000596046,6|8,1:2|0:0,0:0:0:0:
506,124,199678,1,2,0:0:0:0:
466,34,199862,2,0,P|431:27|391:45,1,65.000000298023,2|0,1:2|1:0,0:0:0:0:
310,63,200230,1,8,0:0:0:0:
310,63,200414,1,2,1:2:0:0:
229,8,200598,6,0,P|211:58|248:138,1,130.000000596046,2|8,1:2|0:0,0:0:0:0:
309,192,201151,1,2,0:0:0:0:
223,238,201335,2,0,P|192:227|159:226,1,65.000000298023,2|0,1:2|1:0,0:0:0:0:
64,249,201703,1,8,0:0:0:0:
64,249,201887,1,2,0:0:0:0:
88,341,202071,6,0,B|122:374|122:374|208:367,1,130.000000596046,6|8,1:2|0:0,0:0:0:0:
287,316,202623,1,2,0:0:0:0:
367,371,202807,2,0,P|381:324|336:235,1,130.000000596046,2|8,1:2|0:2,0:0:0:0:
499,120,203543,6,0,P|485:182|511:240,2,130.000000596046,2|8|0,1:2|0:0|1:0,0:0:0:0:
438,43,204463,1,0,1:0:0:0:
437,43,204648,2,0,P|412:63|381:72,1,65.000000298023,8|2,0:0|0:0,0:0:0:0:
288,43,205016,6,0,L|150:38,2,130.000000596046,6|10|2,1:2|0:2|1:2,0:0:0:0:
381,72,205936,1,0,1:0:0:0:
381,72,206120,2,0,L|379:156,1,65.000000298023,8|2,0:0|0:0,0:0:0:0:
388,233,206488,6,0,B|444:203|444:203|510:208,2,130.000000596046,6|10|2,1:2|0:2|1:2,0:0:0:0:
308,289,207408,1,0,1:0:0:0:
308,289,207592,1,8,0:2:0:0:
155,167,207960,6,0,P|113:215|107:278,1,130.000000596046,6|8,1:2|0:0,0:0:0:0:
158,363,208513,1,2,0:0:0:0:
240,311,208697,2,0,L|243:244,1,65.000000298023,10|0,0:0|1:0,0:0:0:0:
296,164,209065,2,0,L|373:157,1,65.000000298023,8|0,0:0|1:0,0:0:0:0:
448,115,209433,6,0,P|453:178|495:226,1,130.000000596046,10|8,0:0|0:0,0:0:0:0:
467,316,209985,1,0,1:0:0:0:
381,269,210169,1,10,0:0:0:0:
295,302,210353,1,8,0:0:0:0:
295,302,210445,1,8,0:0:0:0:
295,302,210537,2,0,L|250:304,3,32.5000001490115,8|8|8|8,0:0|0:0|0:0|0:0,0:0:0:0:
218,283,210905,6,0,B|152:281|168:327|91:324,1,130.000000596046,6|8,1:2|0:0,0:0:0:0:
14,274,211457,1,2,0:0:0:0:
62,189,211641,2,0,L|69:119,1,65.000000298023,2|0,1:2|1:0,0:0:0:0:
162,98,212009,2,0,L|169:168,1,65.000000298023,8|0,0:0|0:0,0:0:0:0:
264,181,212378,6,0,P|320:180|375:121,1,130.000000596046,2|8,1:2|0:0,0:0:0:0:
346,36,212930,1,0,0:0:0:0:
251,11,213114,2,0,L|182:14,1,65.000000298023,2|0,1:2|1:0,0:0:0:0:
102,63,213482,1,8,0:0:0:0:
102,63,213666,1,0,1:0:0:0:
57,160,213850,6,0,L|198:161,1,130.000000596046,6|8,1:2|0:0,0:0:0:0:
263,100,214402,1,2,0:0:0:0:
338,161,214586,2,0,P|349:221|312:280,1,130.000000596046,2|8,1:2|0:0,0:0:0:0:
366,360,215138,1,2,0:2:0:0:
424,281,215322,6,0,P|442:212|430:140,1,130.000000596046,2|8,1:2|0:0,0:0:0:0:
390,67,215874,1,2,0:0:0:0:
292,79,216059,2,0,B|215:73,1,65.000000298023,2|0,1:2|1:0,0:0:0:0:
146,19,216427,1,8,0:0:0:0:
146,19,216611,1,0,1:0:0:0:
49,30,216795,6,0,B|70:71|70:71|59:153,1,130.000000596046,6|8,1:2|0:0,0:0:0:0:
44,250,217347,1,2,0:0:0:0:
90,335,217531,2,0,B|161:325,1,65.000000298023,2|0,1:2|1:0,0:0:0:0:
251,316,217899,1,8,0:0:0:0:
251,316,218083,1,0,0:0:0:0:
343,347,218267,6,0,B|324:310|324:310|337:207,1,130.000000596046,2|8,1:2|0:0,0:0:0:0:
453,67,219003,1,2,1:2:0:0:
376,8,219187,1,0,1:0:0:0:
292,58,219371,2,0,L|213:55,1,65.000000298023,8|0,0:0|0:0,0:0:0:0:
142,5,219740,6,0,P|167:56|164:146,1,130.000000596046,6|8,1:2|0:0,0:0:0:0:
139,221,220292,1,2,0:0:0:0:
162,315,220476,2,0,B|228:309,1,65.000000298023,2|0,1:2|1:0,0:0:0:0:
324,304,220844,1,8,0:0:0:0:
324,304,221028,1,0,0:0:0:0:
419,325,221212,6,0,P|394:274|416:205,1,130.000000596046,2|8,1:2|0:0,0:0:0:0:
470,20,221948,1,2,1:2:0:0:
447,114,222132,2,0,L|511:109,2,65.000000298023,8|0|8,0:0|1:2|0:0,0:0:0:0:
359,70,222684,6,0,L|290:66,1,65.000000298023,6|2,1:2|0:0,0:0:0:0:
204,105,223052,1,10,0:0:0:0:
283,161,223236,1,2,0:0:0:0:
242,250,223421,1,2,1:2:0:0:
326,298,223605,2,0,P|330:330|324:361,1,65.000000298023,2|8,1:2|0:0,0:0:0:0:
227,374,223973,6,0,L|148:371,1,65.000000298023,2|0,0:2|1:0,0:0:0:0:
85,310,224341,1,2,0:0:0:0:
0,359,224525,2,0,P|-14:296|14:237,1,130.000000596046,10|0,0:0|1:2,0:0:0:0:
78,166,225077,1,0,1:0:0:0:
78,166,225261,2,0,P|55:127|56:90,1,65.000000298023,10|0,0:0|0:0,0:0:0:0:
115,33,225629,6,0,B|167:30|167:30|200:48|200:48|248:47,1,130.000000596046,6|10,1:2|0:0,0:0:0:0:
334,73,226181,1,0,0:0:0:0:
422,31,226365,1,2,1:2:0:0:
496,93,226549,1,0,1:0:0:0:
439,172,226733,2,0,P|429:209|438:257,1,65.000000298023,10|0,0:0|0:0,0:0:0:0:
473,323,227101,6,0,P|413:279|342:287,1,130.000000596046,2|8,1:2|0:0,0:0:0:0:
171,332,227838,1,0,1:0:0:0:
225,251,228022,1,0,1:0:0:0:
152,185,228206,2,0,P|194:160|223:157,1,65.000000298023,8|2,0:0|1:2,0:0:0:0:
321,172,228574,6,0,P|337:145|341:113,1,65.000000298023,14|0,0:0|1:0,0:0:0:0:
293,28,228942,1,0,1:0:0:0:
169,66,229126,2,0,B|136:50|136:50|41:59,1,130.000000596046,14|0,0:0|1:0,0:0:0:0:
0,177,229678,2,0,B|16:210|16:210|7:302,1,130.000000596046,14|0,0:0|1:0,0:0:0:0:
123,357,230230,1,14,0:0:0:0:
59,290,232255,5,2,0:0:0:0:
143,256,232439,1,2,0:0:0:0:
140,165,232623,1,2,0:0:0:0:
53,127,232807,6,0,P|92:80|172:79,1,130.000000596046,6|0,1:2|1:0,0:0:0:0:
228,130,233359,2,0,L|212:263,1,130.000000596046,10|0,0:0|1:0,0:0:0:0:
196,348,233911,1,2,1:2:0:0:
283,322,234095,1,10,0:2:0:0:
365,284,234279,6,0,P|421:304|485:275,1,130.000000596046,6|0,1:2|1:0,0:0:0:0:
480,185,234832,2,0,P|424:165|360:194,1,130.000000596046,10|0,0:0|1:0,0:0:0:0:
277,158,235384,1,2,1:2:0:0:
303,70,235568,1,10,0:2:0:0:
213,84,235752,6,0,B|167:83|167:83|137:64|137:64|81:64,1,130.000000596046,6|0,1:2|1:0,0:0:0:0:
12,114,236304,2,0,B|43:149|43:149|29:240,1,130.000000596046,10|2,0:0|1:2,0:0:0:0:
14,320,236856,1,0,1:2:0:0:
102,297,237040,1,10,0:2:0:0:
164,363,237224,6,0,B|216:322|216:322|278:352,1,130.000000596046,6|0,1:2|1:0,0:0:0:0:
355,311,237776,2,0,P|401:316|428:304,1,65.000000298023,10|0,0:0|1:0,0:0:0:0:
386,224,238144,2,0,P|421:201|435:177,1,65.000000298023,10|0,0:0|1:0,0:0:0:0:
353,137,238513,1,10,0:0:0:0:
285,198,238697,6,0,B|244:225|244:225|163:216,1,130.000000596046,4|0,1:2|1:0,0:0:0:0:
88,267,239249,2,0,P|72:206|109:144,1,130.000000596046,10|0,0:0|1:0,0:0:0:0:
125,61,239801,1,2,1:2:0:0:
195,118,239985,1,10,0:0:0:0:
214,29,240169,6,0,B|291:53|264:-3|344:22,1,130.000000596046,6|0,1:2|1:0,0:0:0:0:
320,109,240721,2,0,B|380:160|386:92|443:158,1,130.000000596046,10|0,0:0|1:0,0:0:0:0:
482,229,241273,1,2,1:2:0:0:
391,233,241457,1,10,0:0:0:0:
449,311,241641,6,0,P|425:362|357:380,1,130.000000596046,6|0,1:2|1:0,0:0:0:0:
305,305,242194,2,0,P|288:247|217:222,1,130.000000596046,10|2,0:0|1:2,0:0:0:0:
164,289,242746,1,2,1:2:0:0:
143,200,242930,2,0,L|157:132,1,65.000000298023,10|2,0:0|1:2,0:0:0:0:
162,91,243206,1,2,1:2:0:0:
162,91,243298,6,0,L|89:79,1,65.000000298023,10|2,0:0|1:2,0:0:0:0:
11,126,243666,1,10,0:0:0:0:
11,126,243850,1,2,1:2:0:0:
48,225,244034,1,10,0:0:0:0:
48,225,244218,1,8,3:0:0:0:
151,225,244402,2,0,P|146:269|156:305,1,65.000000298023,4|0,3:0|1:0,0:0:0:0:
263,351,244770,6,0,B|294:300|259:271|226:231|251:181|325:225|341:169|376:160|383:108|361:57|294:24|236:30|199:72|190:104|190:104|199:72|176:8|109:-25|40:7|16:79|60:140,1,780.000033330916,4|0,1:2|0:0,0:0:0:0:
