osu file format v14

[General]
AudioFilename: mimi.mp3
AudioLeadIn: 0
PreviewTime: 161120
Countdown: 0
SampleSet: Soft
StackLeniency: 0.7
Mode: 0
LetterboxInBreaks: 0
WidescreenStoryboard: 1

[Editor]
DistanceSpacing: 1.3
BeatDivisor: 4
GridSize: 32
TimelineZoom: 1

[Metadata]
Title:Mr. Darling
TitleUnicode:Mr. Darling
Artist:mimimemeMIMI
ArtistUnicode:みみめめMIMI
Creator:xHappy-
Version:Insane
Source:REFLEC BEAT plus
Tags:bon voyage! タカオユキ ユカ Takaoyuki Yuka ちゃもーい chamooi Mr.Darling mister Kimi no iru machi 君のいる町 GITADORA tri-boost jubeat plus japanese video game full ver p_kung [_lost_] conner c_o_n_n_e_r kittyadventure gokugohan12468
BeatmapID:2076056
BeatmapSetID:992737

[Difficulty]
HPDrainRate:6
CircleSize:4
OverallDifficulty:8
ApproachRate:9
SliderMultiplier:1.82
SliderTickRate:1

[Events]
//Background and Video events
0,0,"BG.jpg",0,0
//Break Periods
2,162684,172396
//Storyboard Layer 0 (Background)
//Storyboard Layer 1 (Fail)
//Storyboard Layer 2 (Pass)
//Storyboard Layer 3 (Foreground)
//Storyboard Layer 4 (Overlay)
//Storyboard Sound Samples

[TimingPoints]
544,368.098159509202,4,2,1,40,1,0
544,-200,4,2,1,40,0,0
636,-200,4,2,1,5,0,0
2016,-200,4,2,1,40,0,0
2108,-200,4,2,1,5,0,0
3488,-200,4,2,1,40,0,0
3580,-200,4,2,1,5,0,0
4961,-200,4,2,1,40,0,0
5053,-200,4,2,1,5,0,0
5881,-200,4,2,1,40,0,0
5973,-200,4,2,1,5,0,0
6433,-142.857142857143,4,2,1,50,0,0
6617,368.098159509202,4,2,1,50,1,0
6617,-142.857142857143,4,2,1,50,0,0
12138,-100,4,2,1,70,0,0
24285,-142.857142857143,4,2,1,50,0,0
29807,-142.857142857143,4,2,1,60,0,0
30175,-100,4,2,1,60,0,0
33120,-142.857142857143,4,2,1,50,0,0
38641,-100,4,2,1,60,0,0
44898,368.098159509202,3,2,1,50,1,0
44898,-142.857142857143,3,2,1,50,0,0
51523,368.098159509202,4,2,1,70,1,0
53823,-100,4,2,1,50,0,0
53915,-100,4,2,1,60,0,0
54007,-100,4,2,1,70,0,0
54099,-100,4,2,1,80,0,0
54467,-90.9090909090909,4,2,1,80,0,1
77565,-90.9090909090909,4,2,1,60,0,1
77934,-90.9090909090909,4,2,1,60,0,0
78026,-90.9090909090909,4,2,1,80,0,1
97351,-90.9090909090909,4,2,1,80,0,0
99375,-100,4,2,1,70,0,0
111891,-125,4,2,1,50,0,0
117780,-100,4,2,1,60,0,0
120725,-125,4,2,1,50,0,0
125878,-100,4,2,1,50,0,0
126615,-100,4,2,1,60,0,0
132136,-125,4,2,1,60,0,0
132506,368.098159509202,3,2,1,50,1,0
132506,-142.857142857143,3,2,1,50,0,0
139131,-125,3,2,1,60,0,0
153487,-111.111111111111,3,2,1,70,0,0
154591,-125,3,2,1,70,0,0
158272,-200,3,2,1,60,0,0
158917,-200,3,2,1,5,0,0
159009,368.098159509202,5,2,1,60,1,0
159009,-200,5,2,1,60,0,0
162690,368.098159509202,4,2,1,60,1,0
174101,-250,4,2,1,60,0,0
174377,-250,4,2,1,5,0,0
174469,-125,4,2,1,60,0,0
180358,368.098159509202,3,2,1,60,1,0
185875,368.098159509202,4,2,1,50,1,0
185875,-200,4,2,1,50,0,0
187347,-90.9090909090909,4,2,1,80,0,1
210445,-90.9090909090909,4,2,1,60,0,1
210813,-90.9090909090909,4,2,1,60,0,0
210905,-90.9090909090909,4,2,1,80,0,1
230230,-90.9090909090909,4,2,1,80,0,0
232807,-100,4,2,1,70,0,1
232899,-100,4,2,1,70,0,0
245506,-100,4,2,1,60,0,0
245874,-100,4,2,1,50,0,0
246243,-100,4,2,1,40,0,0
246611,-100,4,2,1,30,0,0
246979,-100,4,2,1,20,0,0
247347,-100,4,2,1,10,0,0
247715,-100,4,2,1,5,0,0

[Colours]
Combo1 : 66,210,253
Combo2 : 255,170,170
Combo3 : 255,51,51
Combo4 : 128,255,255

[HitObjects]
330,49,544,6,0,B|370:55|404:95|404:95|495:97|446:1|389:50|404:95|404:95|423:142|401:188,1,341.25,2|0,0:2|0:0,0:0:0:0:
402,210,2016,6,0,B|320:190|263:245|263:245|311:286|279:363|279:363|268:323|243:314,1,341.25,2|0,0:2|0:0,0:0:0:0:
222,305,3488,6,0,B|111:308|166:372|36:376|36:376|58:301|26:240,1,341.25,2|0,0:2|0:0,0:0:0:0:
18,223,4961,6,0,P|45:178|186:177,1,204.75,2|0,0:2|0:0,0:0:0:0:
201,187,5881,6,0,P|256:190|310:161,1,113.75,2|0,0:2|0:0,0:0:0:0:
328,139,6433,6,0,L|322:75,1,63.6999980560303,2|0,0:0|3:0,0:0:0:0:
244,19,6801,1,2,0:2:0:0:
148,24,6985,2,0,L|69:17,1,63.6999980560303,2|0,3:2|0:0,0:0:0:0:
7,75,7353,2,0,P|5:113|19:145,1,63.6999980560303,2|0,3:2|0:0,0:0:0:0:
70,213,7721,1,2,3:2:0:0:
4,322,7905,5,2,0:2:0:0:
5,322,8089,2,0,P|32:305|63:300,1,63.6999980560303,2|0,3:2|0:0,0:0:0:0:
150,340,8457,2,0,P|181:334|208:318,1,63.6999980560303,2|0,3:2|0:0,0:0:0:0:
286,263,8825,2,0,L|282:189,1,63.6999980560303,2|0,3:2|0:0,0:0:0:0:
215,131,9193,1,2,3:2:0:0:
275,19,9377,5,2,0:2:0:0:
275,19,9561,2,0,P|321:17|355:26,1,63.6999980560303,2|0,3:2|0:0,0:0:0:0:
431,0,9929,2,0,P|444:28|447:75,1,63.6999980560303,2|0,3:2|0:0,0:0:0:0:
511,132,10297,2,0,P|500:160|469:196,1,63.6999980560303,2|0,3:2|0:2,0:0:0:0:
388,214,10666,1,2,3:2:0:0:
285,139,10850,5,2,0:2:0:0:
285,139,11218,1,2,0:2:0:0:
208,195,11402,1,2,0:2:0:0:
124,149,11586,1,2,0:2:0:0:
124,149,11954,2,0,L|93:179,1,31.8499990280152,2|0,0:0|0:0,0:0:0:0:
10,254,12138,1,10,0:2:0:0:
70,84,12322,6,0,B|110:56|164:64|190:99|190:99|220:101|250:84,1,182,6|2,1:2|1:2,0:0:0:0:
391,38,12874,2,0,P|342:20|303:25,1,91,10|0,0:2|0:0,0:0:0:0:
328,181,13242,1,2,1:2:0:0:
465,214,13426,1,2,1:2:0:0:
328,181,13610,1,10,0:2:0:0:
375,324,13794,6,0,B|276:310|300:363|197:347,1,182,6|2,1:2|1:2,0:0:0:0:
114,209,14347,2,0,P|140:254|142:298,1,91,10|0,0:2|0:0,0:0:0:0:
29,192,14715,1,2,1:2:0:0:
0,330,14899,1,2,1:2:0:0:
29,192,15083,1,10,0:2:0:0:
187,121,15267,6,0,B|280:116|266:179|359:174,1,182,6|0,1:2|1:0,0:0:0:0:
408,16,15819,2,0,P|362:40|342:91,1,91,10|0,0:2|0:0,0:0:0:0:
511,110,16187,1,2,1:2:0:0:
420,91,16371,1,2,1:2:0:0:
454,184,16555,1,10,0:2:0:0:
320,298,16739,6,0,P|367:296|408:321,1,91,6|0,1:2|0:0,0:0:0:0:
345,381,17107,1,2,1:2:0:0:
247,247,17291,2,0,P|200:245|159:270,1,91,10|0,0:2|1:0,0:0:0:0:
223,334,17659,1,10,0:2:0:0:
126,360,17843,1,0,1:2:0:0:
73,274,18028,1,10,0:2:0:0:
57,59,18212,6,0,P|114:108|214:94,1,182,6|0,1:2|1:0,0:0:0:0:
352,184,18764,2,0,P|311:144|306:100,1,91,10|0,0:2|0:0,0:0:0:0:
436,20,19132,1,2,1:2:0:0:
396,101,19316,1,2,1:2:0:0:
502,188,19500,1,10,0:2:0:0:
400,321,19684,6,0,P|310:310|226:343,1,182,6|0,1:2|1:0,0:0:0:0:
93,265,20236,2,0,P|150:261|189:284,1,91,10|0,0:2|0:0,0:0:0:0:
39,364,20604,1,2,1:2:0:0:
126,337,20788,1,2,1:2:0:0:
75,185,20972,1,10,0:2:0:0:
206,88,21156,6,0,B|157:106|157:106|24:95,1,182,6|0,1:2|1:0,0:0:0:0:
171,8,21709,2,0,P|220:1|264:17,1,91,10|0,0:2|0:0,0:0:0:0:
212,169,22077,1,2,1:2:0:0:
307,127,22261,1,2,1:2:0:0:
284,224,22445,1,10,0:2:0:0:
410,284,22629,1,2,1:2:0:0:
410,284,22721,1,2,1:2:0:0:
410,284,22813,5,10,0:2:0:0:
386,111,22997,1,2,1:2:0:0:
212,169,23181,5,10,0:2:0:0:
258,13,23365,1,2,1:2:0:0:
106,69,23549,5,10,0:2:0:0:
140,187,23733,1,8,3:0:0:0:
31,171,23917,5,4,3:0:0:0:
0,266,24101,1,2,0:0:0:0:
90,355,24285,6,0,P|133:321|229:328,1,127.399996112061,6|0,3:2|3:0,0:0:0:0:
296,339,24837,1,2,0:2:0:0:
372,281,25021,2,0,L|382:150,1,127.399996112061,2|0,3:2|3:0,0:0:0:0:
331,48,25574,1,2,1:2:0:0:
331,48,25758,6,0,L|203:41,1,127.399996112061,2|0,1:2|3:0,0:0:0:0:
115,78,26310,1,2,0:2:0:0:
185,142,26494,2,0,L|315:148,1,127.399996112061,2|0,3:2|3:2,0:0:0:0:
428,111,27046,1,2,1:2:0:0:
428,111,27230,6,0,P|437:145|424:194,1,63.6999980560303,2|2,1:2|0:0,0:0:0:0:
510,229,27598,2,0,P|485:253|436:267,1,63.6999980560303,2|2,3:2|0:0,0:0:0:0:
363,260,27966,2,0,B|299:249|312:299|243:289,1,127.399996112061,2|2,3:2|3:2,0:0:0:0:
123,283,28518,1,2,1:2:0:0:
123,283,28702,5,0,1:2:0:0:
171,87,29070,2,0,L|35:80,1,127.399996112061,2|2,3:2|3:2,0:0:0:0:
297,102,29807,1,10,0:2:0:0:
297,102,30175,6,0,P|347:104|382:130,1,91,6|0,1:2|0:0,0:0:0:0:
349,275,30543,2,0,P|315:238|308:195,1,91,10|0,0:2|0:0,0:0:0:0:
458,107,30911,1,2,1:2:0:0:
458,107,31095,2,0,P|455:157|430:192,1,91,2|0,1:2|0:0,0:0:0:0:
298,289,31463,6,0,L|307:197,1,91,10|0,0:0|0:0,0:0:0:0:
370,35,31831,2,0,L|379:126,1,91,2|0,1:2|0:0,0:0:0:0:
260,26,32199,2,0,P|199:17|121:99,1,182,10|2,0:2|1:2,0:0:0:0:
206,226,32751,2,0,P|226:184|224:132,1,91,10|2,0:2|1:2,0:0:0:0:
34,155,33120,6,0,L|44:281,1,127.399996112061,6|0,1:2|3:0,0:0:0:0:
95,362,33672,1,2,0:2:0:0:
184,330,33856,2,0,P|247:319|308:336,1,127.399996112061,2|2,3:2|0:0,0:0:0:0:
411,263,34408,1,2,1:2:0:0:
411,263,34592,6,0,P|389:204|403:143,1,127.399996112061,2|0,1:2|3:0,0:0:0:0:
446,58,35144,1,2,0:2:0:0:
351,47,35328,2,0,L|212:52,1,127.399996112061,2|0,3:2|3:0,0:0:0:0:
139,6,35880,1,2,1:2:0:0:
35,65,36064,5,2,1:2:0:0:
35,65,36248,2,0,P|26:103|33:139,1,63.6999980560303,2|0,0:0|3:2,0:0:0:0:
111,175,36616,2,0,L|254:180,2,127.399996112061,2|2|2,0:2|3:2|1:2,0:0:0:0:
119,287,37537,6,0,L|201:291,1,63.6999980560303,0|0,1:2|0:0,0:0:0:0:
279,297,37905,2,0,P|357:250|372:209,1,127.399996112061,2|2,3:2|3:2,0:0:0:0:
377,124,38457,1,0,1:0:0:0:
288,87,38641,1,10,0:2:0:0:
288,87,39009,6,0,L|193:96,1,91,6|0,1:2|0:0,0:0:0:0:
134,241,39377,2,0,P|117:195|129:142,1,91,10|0,0:2|0:0,0:0:0:0:
244,269,39745,1,2,1:2:0:0:
244,269,39929,2,0,P|261:223|249:170,1,91,2|0,1:2|0:0,0:0:0:0:
223,352,40297,6,0,P|267:350|305:325,1,91,10|0,0:0|0:0,0:0:0:0:
461,327,40666,2,8,P|459:282|434:244,1,91,2|0,1:2|0:0,0:0:0:0:
443,89,41034,2,0,P|389:149|288:139,1,182,10|2,0:2|1:2,0:0:0:0:
217,8,41586,2,0,P|262:6|304:22,1,91,10|0,0:0|0:0,0:0:0:0:
136,127,41954,6,0,P|181:129|223:113,1,91,6|0,1:2|0:0,0:0:0:0:
86,41,42322,2,0,P|52:71|34:112,1,91,10|0,0:2|0:0,0:0:0:0:
70,262,42690,1,2,1:2:0:0:
70,262,42874,2,0,P|82:211|74:174,1,91,2|0,1:2|0:0,0:0:0:0:
14,337,43242,6,0,L|108:344,1,91,10|0,0:0|0:0,0:0:0:0:
240,270,43610,2,0,L|149:276,1,91,2|8,1:2|0:0,0:0:0:0:
286,348,43978,2,0,P|361:342|404:248,1,182,6|2,1:2|1:2,0:0:0:0:
301,142,44531,1,10,0:0:0:0:
320,267,44715,1,0,1:0:0:0:
447,110,44898,5,6,1:2:0:0:
373,88,45266,1,2,0:2:0:0:
427,34,45634,1,2,0:2:0:0:
65,110,46002,5,2,1:2:0:0:
139,88,46370,1,2,0:2:0:0:
85,34,46738,1,2,0:2:0:0:
257,355,47106,5,6,1:2:0:0:
293,287,47474,1,2,0:2:0:0:
293,287,47658,1,8,0:2:0:0:
216,287,47842,2,0,P|205:254|206:222,1,63.6999980560303,2|0,0:2|0:0,0:0:0:0:
256,25,48210,5,10,0:2:0:0:
293,91,48578,1,8,3:0:0:0:
216,91,48947,1,4,3:0:0:0:
404,341,49315,6,0,P|429:300|433:215,1,127.399996112061,6|2,1:2|0:0,0:0:0:0:
350,165,49867,1,8,0:0:0:0:
254,202,50051,2,0,L|169:205,1,63.6999980560303,2|0,0:0|1:0,0:0:0:0:
75,259,50419,6,0,P|62:229|62:198,1,63.6999980560303,10|0,0:0|0:0,0:0:0:0:
0,125,50787,2,0,P|12:94|33:72,1,63.6999980560303,2|0,1:2|0:0,0:0:0:0:
140,6,51155,1,8,0:0:0:0:
249,75,51339,1,0,1:0:0:0:
249,75,51431,1,0,1:0:0:0:
249,75,51523,6,0,L|239:262,1,182,6|0,1:2|0:0,0:0:0:0:
179,325,52075,1,2,1:2:0:0:
296,370,52259,2,0,P|358:355|379:332,1,91,2|0,0:0|1:0,0:0:0:0:
504,367,52627,1,8,0:0:0:0:
458,274,52811,1,0,0:0:0:0:
512,156,52995,6,0,P|474:141|424:147,1,91,2|0,1:2|0:0,0:0:0:0:
316,261,53363,2,0,P|343:230|354:181,1,91,8|0,0:2|0:0,0:0:0:0:
347,16,53731,1,8,0:0:0:0:
340,37,53823,1,8,0:0:0:0:
339,60,53915,1,8,0:0:0:0:
343,82,54007,1,8,0:0:0:0:
355,104,54099,5,8,0:0:0:0:
316,80,54191,1,8,0:0:0:0:
272,68,54283,1,8,0:0:0:0:
227,69,54375,1,8,0:0:0:0:
183,83,54467,6,0,B|196:232|196:232|157:198,1,200.200006109619,6|8,1:2|0:0,0:0:0:0:
84,139,55019,1,2,0:0:0:0:
153,297,55203,2,0,P|209:307|257:278,1,100.10000305481,2|0,1:2|1:0,0:0:0:0:
360,165,55572,1,8,0:0:0:0:
269,202,55756,1,0,0:0:0:0:
427,227,55940,6,0,P|450:179|440:127,1,100.10000305481,2|0,1:2|0:0,0:0:0:0:
302,6,56308,2,0,P|319:56|363:85,1,100.10000305481,8|0,0:2|0:0,0:0:0:0:
507,6,56676,1,2,1:2:0:0:
380,12,56860,1,0,1:0:0:0:
512,105,57044,1,10,0:0:0:0:
360,165,57228,1,0,1:0:0:0:
360,165,57320,1,0,1:0:0:0:
360,165,57412,6,0,B|248:154|295:228|174:217,1,200.200006109619,6|8,1:2|0:0,0:0:0:0:
81,127,57964,1,2,0:2:0:0:
182,40,58148,2,0,P|205:90|202:143,1,100.10000305481,2|0,1:2|1:0,0:0:0:0:
101,253,58516,1,8,0:0:0:0:
230,296,58700,1,2,0:0:0:0:
73,343,58884,6,0,P|21:308|34:183,1,200.200006109619,2|8,1:2|0:0,0:0:0:0:
127,92,59437,1,2,0:0:0:0:
14,16,59621,2,0,P|17:70|44:117,1,100.10000305481,2|0,1:2|1:0,0:0:0:0:
189,163,59989,1,8,0:0:0:0:
296,39,60173,1,0,1:0:0:0:
296,39,60265,1,0,1:0:0:0:
296,39,60357,6,0,P|371:38|428:138,1,200.200006109619,6|8,1:2|0:0,0:0:0:0:
376,222,60909,1,2,0:2:0:0:
213,207,61093,1,2,1:2:0:0:
241,302,61277,1,0,1:0:0:0:
79,314,61461,2,0,P|116:281|165:274,1,100.10000305481,8|2,0:0|0:0,0:0:0:0:
313,348,61829,6,0,P|280:289|286:157,1,200.200006109619,2|8,1:2|0:0,0:0:0:0:
328,69,62381,1,0,0:0:0:0:
488,103,62565,1,2,1:2:0:0:
416,173,62749,1,0,1:0:0:0:
510,280,62934,2,0,P|511:220|495:180,1,100.10000305481,10|0,0:0|0:0,0:0:0:0:
415,44,63302,6,0,B|367:71|367:71|212:62,1,200.200006109619,6|8,1:2|0:0,0:0:0:0:
122,52,63854,1,2,0:0:0:0:
177,212,64038,2,0,P|179:166|165:112,1,100.10000305481,2|0,1:2|1:0,0:0:0:0:
12,160,64406,2,0,P|0:208|0:258,1,100.10000305481,8|0,0:2|0:0,0:0:0:0:
137,342,64774,6,0,B|257:346|224:285|325:289,1,200.200006109619,2|8,1:2|0:0,0:0:0:0:
424,300,65326,1,0,0:0:0:0:
318,179,65510,2,0,P|260:184|218:198,1,100.10000305481,2|8,1:2|0:0,0:0:0:0:
93,235,65878,1,10,0:0:0:0:
97,210,65970,1,8,0:0:0:0:
101,185,66062,1,8,0:0:0:0:
104,160,66154,1,8,0:0:0:0:
105,134,66246,6,0,P|188:106|214:3,1,200.200006109619,6|8,1:2|0:0,0:0:0:0:
117,33,66799,1,2,0:0:0:0:
286,74,66983,2,0,L|387:63,1,100.10000305481,2|0,1:2|1:0,0:0:0:0:
512,167,67351,1,8,0:0:0:0:
425,299,67535,1,2,1:2:0:0:
425,299,67627,1,0,1:2:0:0:
425,299,67719,6,0,B|434:166|434:166|375:207,1,200.200006109619,2|8,1:2|0:0,0:0:0:0:
295,258,68271,1,2,0:0:0:0:
157,183,68455,1,2,1:2:0:0:
186,278,68639,1,0,1:0:0:0:
76,144,68823,2,0,P|108:107|156:94,1,100.10000305481,8|2,0:0|0:0,0:0:0:0:
319,61,69191,6,0,P|287:23|239:10,1,100.10000305481,6|0,1:2|0:0,0:0:0:0:
332,145,69559,1,8,0:0:0:0:
244,96,69743,1,2,0:0:0:0:
350,228,69927,2,0,P|395:200|414:158,1,100.10000305481,2|0,1:2|1:0,0:0:0:0:
263,204,70296,2,0,P|264:256|289:296,1,100.10000305481,8|0,0:0|0:0,0:0:0:0:
443,333,70664,6,0,B|357:323|357:323|348:348|326:367|291:378|260:364,1,200.200006109619,2|8,1:2|0:0,0:0:0:0:
170,336,71216,1,0,0:0:0:0:
75,367,71400,2,0,P|74:311|97:268,1,100.10000305481,0|0,1:0|1:0,0:0:0:0:
162,174,71768,1,8,0:0:0:0:
263,255,71952,1,2,0:0:0:0:
162,174,72136,6,0,L|61:192,1,100.10000305481,6|0,1:2|0:0,0:0:0:0:
153,58,72504,2,0,L|254:76,1,100.10000305481,10|0,0:0|0:0,0:0:0:0:
414,47,72872,2,0,P|419:100|395:148,1,100.10000305481,2|0,1:2|1:0,0:0:0:0:
326,291,73240,1,8,0:0:0:0:
474,311,73424,1,2,0:0:0:0:
326,291,73608,6,0,P|330:340|354:384,1,100.10000305481,6|0,1:2|0:0,0:0:0:0:
287,225,73976,2,0,P|237:229|193:253,1,100.10000305481,10|0,0:0|0:0,0:0:0:0:
353,186,74345,1,2,1:2:0:0:
317,92,74529,1,0,1:0:0:0:
412,238,74713,2,0,P|431:186|417:140,1,100.10000305481,8|0,0:0|0:0,0:0:0:0:
338,6,75081,6,0,B|278:3|278:3|217:31|217:31|140:27,1,200.200006109619,6|8,1:2|0:0,0:0:0:0:
44,17,75633,1,2,0:0:0:0:
161,128,75817,1,10,0:0:0:0:
280,108,76001,1,0,1:0:0:0:
117,202,76185,1,8,0:0:0:0:
285,249,76369,1,0,1:0:0:0:
65,130,76553,6,0,P|113:116|161:128,1,100.10000305481,10|0,0:0|1:0,0:0:0:0:
42,231,76921,1,8,0:0:0:0:
193,208,77105,1,0,1:0:0:0:
116,344,77289,1,10,0:0:0:0:
297,271,77473,5,8,0:0:0:0:
331,276,77565,1,8,0:0:0:0:
365,273,77657,1,10,0:0:0:0:
396,257,77749,1,8,0:0:0:0:
424,236,77842,1,8,0:0:0:0:
446,209,77934,1,8,0:0:0:0:
450,174,78026,6,0,P|407:104|460:7,1,200.200006109619,6|8,1:2|0:0,0:0:0:0:
510,93,78578,1,2,0:0:0:0:
350,21,78762,2,0,L|241:27,1,100.10000305481,2|0,1:2|1:0,0:0:0:0:
126,128,79130,1,8,0:0:0:0:
224,143,79314,1,0,0:0:0:0:
88,49,79498,6,0,P|50:86|40:139,1,100.10000305481,2|0,1:2|0:0,0:0:0:0:
105,282,79866,2,0,P|105:228|75:184,1,100.10000305481,8|0,0:0|0:0,0:0:0:0:
21,356,80234,1,2,1:2:0:0:
30,256,80418,1,0,1:0:0:0:
191,295,80602,1,8,0:0:0:0:
159,141,80786,1,0,1:0:0:0:
159,141,80878,1,0,1:0:0:0:
159,141,80970,6,0,B|269:127|231:199|352:182,1,200.200006109619,6|8,1:2|0:0,0:0:0:0:
449,98,81522,1,2,0:0:0:0:
350,15,81707,2,0,P|314:67|317:114,1,100.10000305481,2|0,1:2|1:0,0:0:0:0:
407,241,82075,1,8,0:0:0:0:
343,346,82259,1,2,0:2:0:0:
191,295,82443,6,0,B|131:292|94:339|94:339|60:308|73:249,1,200.200006109619,2|8,1:2|0:0,0:0:0:0:
106,163,82995,1,2,0:0:0:0:
264,123,83179,2,0,P|232:101|167:104,1,100.10000305481,2|0,1:2|1:0,0:0:0:0:
301,200,83547,1,8,0:0:0:0:
260,362,83731,1,0,1:0:0:0:
260,362,83823,1,0,1:0:0:0:
260,362,83915,6,0,B|410:363|410:363|444:324,1,200.200006109619,6|8,1:2|0:0,0:0:0:0:
490,236,84467,1,2,0:0:0:0:
358,140,84651,1,2,1:2:0:0:
405,51,84835,1,0,1:0:0:0:
247,27,85019,2,0,L|144:18,1,100.10000305481,8|0,0:0|0:0,0:0:0:0:
34,143,85388,6,0,P|114:91|205:124,1,200.200006109619,2|8,1:2|0:0,0:0:0:0:
182,221,85940,1,0,0:0:0:0:
342,200,86124,1,2,1:2:0:0:
302,292,86308,1,0,1:0:0:0:
458,331,86492,2,0,P|428:285|426:238,1,100.10000305481,8|0,0:0|0:0,0:0:0:0:
460,99,86860,6,0,P|438:187|336:197,1,200.200006109619,6|8,1:2|0:0,0:0:0:0:
283,92,87412,1,2,0:0:0:0:
182,221,87596,2,0,P|202:168|206:116,1,100.10000305481,2|0,1:2|1:0,0:0:0:0:
60,185,87964,2,0,P|65:234|84:280,1,100.10000305481,8|0,0:0|0:0,0:0:0:0:
246,296,88332,6,0,B|138:289|180:371|68:367,1,200.200006109619,2|8,1:2|0:0,0:0:0:0:
2,292,88884,1,0,0:0:0:0:
64,213,89069,1,2,1:2:0:0:
31,52,89253,1,8,0:0:0:0:
31,52,89345,1,10,0:0:0:0:
31,52,89437,1,0,1:2:0:0:
202,43,89621,1,8,0:0:0:0:
202,43,89713,1,8,0:0:0:0:
202,43,89805,6,0,L|304:47,1,100.10000305481,6|2,1:2|0:0,0:0:0:0:
386,101,90173,1,10,0:0:0:0:
243,174,90357,1,2,0:0:0:0:
290,261,90541,1,2,1:2:0:0:
146,340,90725,2,0,P|124:289|128:238,1,100.10000305481,2|8,1:2|0:0,0:0:0:0:
183,95,91093,6,0,L|85:112,1,100.10000305481,2|0,0:2|1:0,0:0:0:0:
41,202,91461,1,2,0:0:0:0:
58,39,91645,2,0,B|189:17|189:17|252:43,1,200.200006109619,10|0,0:0|1:0,0:0:0:0:
339,89,92197,1,0,1:0:0:0:
266,219,92381,2,0,P|253:171|265:120,1,100.10000305481,10|0,0:0|0:0,0:0:0:0:
432,164,92749,6,0,L|329:171,1,100.10000305481,6|0,1:2|0:0,0:0:0:0:
238,301,93118,2,0,L|341:308,1,100.10000305481,10|0,0:0|0:0,0:0:0:0:
497,321,93486,1,2,1:2:0:0:
429,246,93670,1,0,1:0:0:0:
512,108,93854,2,0,P|513:158|500:206,1,100.10000305481,10|0,0:0|0:0,0:0:0:0:
388,91,94222,6,0,P|326:75|231:164,1,200.200006109619,2|8,1:2|0:0,0:0:0:0:
297,234,94774,1,0,0:0:0:0:
140,272,94958,1,0,1:0:0:0:
227,320,95142,1,0,1:0:0:0:
69,343,95326,2,0,P|42:302|41:249,1,100.10000305481,8|2,0:0|1:2,0:0:0:0:
67,90,95694,5,14,0:0:0:0:
223,56,95878,1,0,1:0:0:0:
184,211,96062,1,0,1:0:0:0:
413,111,96246,5,14,0:0:0:0:
364,284,96430,1,0,1:0:0:0:
251,141,96615,1,0,1:0:0:0:
159,373,96799,5,14,0:0:0:0:
9,246,96983,1,0,1:0:0:0:
154,115,97167,1,0,1:0:0:0:
320,364,97351,5,14,0:0:0:0:
320,364,99375,5,10,0:0:0:0:
284,280,99559,1,2,1:2:0:0:
365,240,99743,1,2,1:2:0:0:
294,105,99927,6,0,B|199:106|228:163|121:165,1,182,6|0,1:2|1:0,0:0:0:0:
66,20,100480,2,0,P|121:37|150:76,1,91,10|0,0:0|0:0,0:0:0:0:
13,171,100848,1,0,1:0:0:0:
68,104,101032,1,2,1:2:0:0:
104,238,101216,1,10,0:2:0:0:
16,371,101400,6,0,B|55:344|55:344|192:350,1,182,6|0,1:2|1:0,0:0:0:0:
237,196,101952,2,0,P|204:227|191:274,1,91,10|0,0:0|0:0,0:0:0:0:
269,316,102320,1,0,1:0:0:0:
357,296,102504,1,2,1:2:0:0:
468,357,102688,1,10,0:2:0:0:
421,205,102872,6,0,P|352:160|375:68,1,182,6|0,1:2|1:0,0:0:0:0:
512,113,103424,2,0,L|416:130,1,91,10|0,0:0|0:0,0:0:0:0:
270,158,103792,1,2,1:2:0:0:
177,120,103976,1,0,1:2:0:0:
270,158,104161,1,10,0:2:0:0:
113,237,104345,5,6,1:2:0:0:
113,237,104713,1,0,1:0:0:0:
157,311,104897,2,0,P|205:314|247:293,1,91,10|0,0:0|1:0,0:0:0:0:
143,157,105265,2,0,P|115:197|116:246,1,91,10|0,0:0|1:0,0:0:0:0:
264,216,105633,2,0,P|253:172|218:144,1,91,10|4,0:0|1:2,0:0:0:0:
69,100,106001,5,2,0:0:0:0:
42,196,106185,1,0,1:0:0:0:
143,157,106369,2,0,L|150:67,1,91,8|0,0:0|0:0,0:0:0:0:
237,18,106737,1,0,1:0:0:0:
84,17,106921,1,2,1:2:0:0:
237,18,107105,1,10,0:0:0:0:
143,157,107289,6,0,B|156:291|156:291|187:252,1,182,6|0,1:2|1:0,0:0:0:0:
348,249,107842,2,0,P|308:219|256:218,1,91,10|0,0:0|0:0,0:0:0:0:
277,305,108210,1,0,1:0:0:0:
185,253,108394,1,2,1:2:0:0:
269,128,108578,1,10,0:0:0:0:
152,29,108762,6,0,B|192:0|192:0|326:7,1,182,6|0,1:2|1:0,0:0:0:0:
475,86,109314,2,0,L|382:104,1,91,10|0,0:0|0:0,0:0:0:0:
239,133,109682,1,2,1:2:0:0:
206,217,109866,1,2,1:2:0:0:
118,169,110050,1,10,0:0:0:0:
154,298,110234,1,2,1:2:0:0:
154,298,110326,1,2,1:2:0:0:
154,298,110418,5,10,0:0:0:0:
322,284,110602,1,2,1:2:0:0:
493,340,110786,5,10,0:0:0:0:
412,209,110970,1,2,1:2:0:0:
494,73,111154,5,10,0:0:0:0:
374,103,111338,1,8,3:0:0:0:
289,48,111522,5,4,3:0:0:0:
290,140,111707,1,2,0:0:0:0:
152,91,111891,6,0,P|100:89|44:166,1,145.6,6|8,1:2|0:0,0:0:0:0:
84,241,112443,1,2,0:0:0:0:
41,325,112627,2,0,L|198:321,1,145.6,2|8,0:0|0:0,0:0:0:0:
316,325,113179,1,2,0:0:0:0:
316,325,113363,6,0,P|332:278|299:191,1,145.6,2|8,1:2|0:0,0:0:0:0:
240,117,113915,1,2,0:0:0:0:
315,59,114099,2,0,P|378:57|444:101,1,145.6,2|8,0:0|0:0,0:0:0:0:
501,216,114651,1,2,0:0:0:0:
501,216,114835,6,0,L|414:227,1,72.8,2|2,1:2|0:0,0:0:0:0:
380,306,115203,2,0,L|293:295,1,72.8,10|2,0:0|0:0,0:0:0:0:
243,365,115572,2,0,P|258:295|220:236,1,145.6,2|10,0:0|0:2,0:0:0:0:
103,195,116124,1,2,0:0:0:0:
103,195,116308,5,0,1:0:0:0:
299,23,116676,2,0,P|233:7|161:47,1,145.6,10|2,0:0|0:0,0:0:0:0:
241,100,117228,1,0,1:0:0:0:
172,165,117412,1,10,0:0:0:0:
216,262,117596,1,8,0:0:0:0:
216,262,117688,1,8,0:0:0:0:
216,262,117780,6,0,P|264:284|305:277,1,91,4|0,1:2|0:0,0:0:0:0:
436,176,118148,2,0,P|398:208|386:251,1,91,10|0,0:0|0:0,0:0:0:0:
507,346,118516,1,2,1:2:0:0:
507,346,118700,2,0,P|500:281|478:249,1,91,2|0,1:2|0:0,0:0:0:0:
341,336,119069,6,0,L|239:326,1,91,10|0,0:0|0:0,0:0:0:0:
124,237,119437,2,0,L|226:227,1,91,2|8,1:2|0:0,0:0:0:0:
346,147,119805,2,0,B|252:150|280:88|174:91,1,182,2|2,0:0|1:2,0:0:0:0:
23,102,120357,2,0,P|26:57|49:18,1,91,10|2,0:0|1:2,0:0:0:0:
173,170,120725,6,0,P|173:250|121:286,1,145.6,6|8,1:2|0:0,0:0:0:0:
31,303,121277,1,2,0:0:0:0:
95,372,121461,2,0,L|247:375,1,145.6,2|8,0:0|0:0,0:0:0:0:
363,315,122013,1,2,0:0:0:0:
363,315,122197,6,0,P|353:256|285:209,1,145.6,2|8,1:2|0:0,0:0:0:0:
203,163,122749,1,2,0:0:0:0:
248,80,122934,2,0,L|404:91,1,145.6,2|8,0:2|0:0,0:0:0:0:
461,156,123486,1,0,0:0:0:0:
405,265,123670,5,2,1:2:0:0:
405,265,123854,2,0,P|370:275|334:271,1,72.8,2|8,0:0|0:0,0:0:0:0:
243,247,124222,2,0,P|199:236|163:245,1,72.8,2|0,0:0|0:0,0:0:0:0:
102,304,124590,2,0,P|76:259|104:170,1,145.6,2|2,1:2|0:0,0:0:0:0:
45,64,125142,6,0,L|195:67,1,145.6,0|10,1:0|0:0,0:0:0:0:
276,105,125694,1,0,0:0:0:0:
350,45,125878,2,0,P|370:92|365:145,1,91,2|0,0:0|1:0,0:0:0:0:
294,192,126246,2,0,P|274:239|279:292,1,91,10|0,0:0|1:0,0:0:0:0:
371,346,126615,6,0,L|470:337,1,91,6|0,1:2|0:0,0:0:0:0:
361,207,126983,2,0,L|262:198,1,91,10|0,0:0|0:0,0:0:0:0:
116,186,127351,1,2,1:2:0:0:
116,186,127535,2,0,P|95:138|98:95,1,91,2|0,1:2|0:0,0:0:0:0:
237,36,127903,6,0,L|239:135,1,91,10|0,0:2|0:0,0:0:0:0:
393,117,128271,2,0,L|321:185,1,91,2|8,1:2|0:0,0:0:0:0:
445,280,128639,2,0,B|391:302|391:302|256:290,1,182,2|2,1:2|1:2,0:0:0:0:
123,346,129191,2,0,P|106:304|111:257,1,91,10|8,0:0|0:0,0:0:0:0:
115,232,129467,1,8,0:0:0:0:
123,206,129559,6,0,P|140:164|135:117,1,91,6|0,1:2|0:0,0:0:0:0:
18,18,129927,2,0,P|35:59|70:87,1,91,10|0,0:2|0:0,0:0:0:0:
222,55,130296,1,10,0:0:0:0:
222,55,130480,2,0,P|181:38|136:42,1,91,2|8,1:2|0:0,0:0:0:0:
301,91,130848,6,0,P|307:47|288:2,1,91,2|8,1:2|0:0,0:0:0:0:
216,161,131216,2,0,P|210:205|229:250,1,91,2|8,1:2|0:0,0:0:0:0:
399,251,131584,2,0,P|354:326|266:330,1,182,6|8,1:2|3:0,0:0:0:0:
297,195,132136,1,4,3:0:0:0:
41,349,132504,5,6,1:2:0:0:
89,289,132874,1,2,0:0:0:0:
89,289,133058,1,8,0:0:0:0:
67,215,133242,2,0,P|53:186|50:154,1,63.6999980560303,2|0,0:2|1:0,0:0:0:0:
205,147,133610,5,10,0:0:0:0:
205,147,133978,2,0,L|202:214,1,63.6999980560303,2|0,0:0|0:0,0:0:0:0:
199,286,134346,1,2,0:0:0:0:
336,353,134714,5,2,1:2:0:0:
392,289,134959,1,8,0:0:0:0:
392,289,135082,6,0,L|404:243,2,42.4666653706869,10|8|8,0:0|0:0|0:0,0:0:0:0:
318,246,135450,2,0,L|306:200,2,42.4666653706869,10|8|8,0:0|0:0|0:0,0:0:0:0:
375,183,135818,5,8,3:0:0:0:
378,162,135941,1,8,3:0:0:0:
381,141,136064,1,8,3:0:0:0:
385,120,136186,5,4,3:0:0:0:
381,86,136309,1,4,3:0:0:0:
377,52,136432,1,4,3:0:0:0:
373,18,136555,1,2,1:2:0:0:
512,71,136923,5,4,1:2:0:0:
501,146,137291,1,2,0:0:0:0:
501,146,137475,1,8,0:0:0:0:
485,220,137659,2,0,L|493:283,1,63.6999980560303,2|0,1:2|1:0,0:0:0:0:
375,183,138027,5,10,0:0:0:0:
389,257,138395,1,2,0:0:0:0:
389,257,138579,2,0,L|381:320,1,63.6999980560303,8|4,3:0|3:0,0:0:0:0:
251,154,139131,6,0,L|91:185,1,145.6,6|0,1:2|0:0,0:0:0:0:
26,134,139683,1,0,0:0:0:0:
109,35,139867,2,0,B|145:55|145:55|257:37,1,145.6,10|4,0:0|3:0,0:0:0:0:
342,23,140420,1,0,0:0:0:0:
326,147,140604,5,8,0:0:0:0:
402,188,140788,1,8,3:0:0:0:
296,264,140972,1,4,3:0:0:0:
338,340,141156,1,2,0:0:0:0:
211,312,141340,6,0,B|142:312|161:359|76:358,1,145.6,6|0,1:2|0:0,0:0:0:0:
9,292,141892,1,2,0:0:0:0:
9,292,142076,2,0,P|23:250|21:213,1,72.8,2|0,1:2|0:0,0:0:0:0:
1,98,142444,5,10,0:0:0:0:
69,121,142812,1,2,0:0:0:0:
58,49,143180,1,2,1:2:0:0:
192,57,143548,6,0,B|232:41|232:41|344:52,1,145.6,2|0,1:2|0:0,0:0:0:0:
457,22,144101,1,8,0:0:0:0:
457,22,144285,2,0,P|460:67|449:101,1,72.8,0|0,1:2|0:0,0:0:0:0:
411,214,144653,6,0,L|417:286,1,72.8,10|0,0:0|0:0,0:0:0:0:
337,284,145021,2,0,L|332:361,1,72.8,2|8,0:0|3:0,0:0:0:0:
412,360,145389,1,4,3:0:0:0:
473,164,145757,6,0,P|407:137|336:182,1,145.6,4|0,1:2|0:0,0:0:0:0:
266,115,146309,1,0,0:0:0:0:
266,115,146493,2,0,P|250:163|259:207,1,72.8,0|0,1:2|0:0,0:0:0:0:
269,310,146861,5,10,0:0:0:0:
337,284,147229,1,2,0:0:0:0:
327,356,147598,1,2,1:2:0:0:
205,361,147966,6,0,P|137:363|62:333,1,145.6,2|0,1:2|0:0,0:0:0:0:
11,220,148518,1,8,0:0:0:0:
11,220,148702,2,0,P|13:153|29:121,1,72.8,2|2,1:2|0:0,0:0:0:0:
54,28,149070,5,6,1:2:0:0:
148,76,149254,1,2,0:0:0:0:
148,76,149438,2,0,L|208:71,2,48.5333333333333,8|8|8,0:0|0:0|0:0,0:0:0:0:
141,153,149806,2,0,L|81:148,2,48.5333333333333,4|4|4,3:0|3:0|3:0,0:0:0:0:
148,230,150174,6,0,L|297:223,1,145.6,6|0,1:2|0:0,0:0:0:0:
403,158,150726,1,8,0:0:0:0:
403,158,150910,2,0,P|423:201|420:239,1,72.8,0|0,1:0|0:0,0:0:0:0:
396,348,151279,5,10,0:0:0:0:
326,368,151647,1,2,0:2:0:0:
340,296,152015,1,2,1:2:0:0:
469,308,152383,6,0,P|495:267|497:163,1,145.6,2|0,1:2|0:0,0:0:0:0:
456,56,152935,1,8,0:0:0:0:
456,56,153119,2,0,L|384:65,1,72.8,2|2,1:2|0:0,0:0:0:0:
256,75,153487,5,10,0:0:0:0:
189,26,153855,1,8,3:0:0:0:
158,101,154223,2,0,L|41:86,1,109.199996667481,4|4,3:0|3:0,0:0:0:0:
25,84,154591,6,0,P|3:136|19:228,1,145.6,6|0,1:2|0:0,0:0:0:0:
0,344,155144,1,8,0:0:0:0:
0,344,155328,2,0,P|48:343|80:322,1,72.8,0|0,1:0|0:0,0:0:0:0:
171,259,155696,6,0,P|242:257|307:310,1,145.6,8|0,0:0|0:0,0:0:0:0:
336,372,156248,1,2,0:0:0:0:
336,372,156432,1,2,1:2:0:0:
464,321,156800,6,0,P|426:271|427:190,1,145.6,6|10,1:2|0:0,0:0:0:0:
479,112,157352,2,0,P|429:150|348:149,1,145.6,6|2,1:2|1:2,0:0:0:0:
229,109,157904,1,12,0:0:0:0:
81,169,158272,6,0,B|59:204|59:204|100:239|93:313,1,159.25,6|0,1:2|0:0,0:0:0:0:
93,341,159009,6,0,B|178:325|152:376|251:357|251:357|276:352|300:347|340:322|352:260|318:222|272:244|272:244|259:201|195:211|182:251|186:289|196:311|225:331,1,546,2|2,0:0|0:0,0:0:0:0:
203,338,172996,5,2,0:0:0:0:
212,302,173364,1,2,0:0:0:0:
221,266,173732,1,2,0:0:0:0:
169,148,173916,5,0,0:0:0:0:
169,148,174009,1,2,0:0:0:0:
169,148,174101,2,0,L|224:160,1,54.6,4|0,3:0|0:0,0:0:0:0:
251,145,174469,6,0,P|285:120|334:119,1,72.8,6|2,1:2|0:0,0:0:0:0:
358,57,174837,2,0,P|383:90|383:140,1,72.8,2|2,1:2|0:0,0:0:0:0:
445,164,175205,2,0,P|411:189|362:189,1,72.8,2|2,1:2|0:0,0:0:0:0:
340,253,175573,2,0,P|315:219|314:170,1,72.8,2|2,1:2|0:0,0:0:0:0:
358,57,175941,5,2,1:2:0:0:
292,25,176125,1,2,0:0:0:0:
226,57,176309,2,0,L|151:54,1,72.8,2|8,1:2|0:0,0:0:0:0:
80,53,176677,1,8,3:0:0:0:
80,53,176861,1,8,3:0:0:0:
77,125,177045,2,0,P|109:140|147:136,1,72.8,4|0,3:0|1:0,0:0:0:0:
182,129,177321,1,0,1:0:0:0:
182,129,177413,6,0,L|178:212,1,72.8,2|0,1:2|0:0,0:0:0:0:
111,231,177782,2,0,P|131:260|165:273,1,72.8,2|0,1:2|0:0,0:0:0:0:
158,345,178150,2,0,P|193:341|221:319,1,72.8,2|0,1:2|0:0,0:0:0:0:
278,363,178518,2,0,P|293:330|288:289,1,72.8,2|8,1:2|0:0,0:0:0:0:
211,175,178886,5,2,1:2:0:0:
278,201,179070,1,0,0:0:0:0:
346,175,179254,2,0,L|421:179,1,72.8,2|8,1:2|0:0,0:0:0:0:
465,234,179622,2,0,P|487:202|490:168,1,72.8,8|8,3:0|3:0,0:0:0:0:
448,109,179990,1,4,3:0:0:0:
512,21,180174,1,8,0:0:0:0:
512,21,180266,1,8,0:0:0:0:
512,21,180358,6,0,P|472:2|427:1,1,91,6|0,1:2|1:0,0:0:0:0:
324,69,180726,1,8,0:0:0:0:
177,8,180910,2,0,P|125:79|145:165,1,182,6|2,1:2|1:2,0:0:0:0:
72,314,181462,6,0,P|110:288|171:286,1,91,14|0,0:0|1:0,0:0:0:0:
252,301,181830,1,2,1:2:0:0:
223,143,182014,2,0,B|264:166|264:166|400:157,1,182,14|2,0:0|1:2,0:0:0:0:
458,304,182566,6,0,P|419:282|374:280,1,91,14|0,0:0|1:2,0:0:0:0:
252,301,182934,1,8,0:0:0:0:
223,143,183118,2,0,P|190:175|179:219,1,91,6|8,1:2|0:0,0:0:0:0:
309,179,183486,1,2,1:2:0:0:
253,52,183670,5,10,0:0:0:0:
94,42,183854,1,8,0:0:0:0:
223,143,184038,1,10,0:0:0:0:
0,191,184223,1,14,0:0:0:0:
177,213,185695,5,0,0:0:0:0:
177,213,185787,1,0,0:0:0:0:
177,213,185875,2,0,B|252:206|228:256|304:249,1,136.5,2|0,0:0|0:0,0:0:0:0:
373,229,186611,1,8,3:0:0:0:
340,66,187347,6,0,B|297:90|297:90|145:79,1,200.200006109619,6|8,1:2|0:0,0:0:0:0:
47,64,187899,1,2,0:0:0:0:
107,230,188083,2,0,P|163:240|211:211,1,100.10000305481,2|0,1:2|1:0,0:0:0:0:
349,150,188451,1,8,0:0:0:0:
291,232,188635,1,0,0:0:0:0:
413,372,188819,6,0,P|436:324|426:272,1,100.10000305481,2|0,1:2|0:0,0:0:0:0:
291,232,189187,2,0,P|308:282|352:311,1,100.10000305481,8|0,0:2|0:0,0:0:0:0:
488,210,189555,1,2,1:2:0:0:
369,232,189740,1,0,1:0:0:0:
490,121,189924,1,10,0:0:0:0:
361,33,190108,1,0,1:0:0:0:
361,33,190200,1,0,1:0:0:0:
361,33,190292,6,0,B|250:30|292:88|172:85,1,200.200006109619,6|8,1:2|0:0,0:0:0:0:
55,40,190844,1,2,0:2:0:0:
10,204,191028,2,0,P|-8:158|0:109,1,100.10000305481,2|0,1:2|1:0,0:0:0:0:
120,150,191396,1,8,0:0:0:0:
63,266,191580,1,2,0:0:0:0:
221,346,191764,6,0,P|245:282|367:273,1,200.200006109619,2|8,1:2|0:0,0:0:0:0:
484,324,192316,1,2,0:0:0:0:
489,151,192500,2,0,P|511:195|512:245,1,100.10000305481,2|0,1:2|1:0,0:0:0:0:
383,345,192868,1,8,0:0:0:0:
265,234,193052,1,0,1:0:0:0:
265,234,193144,1,0,1:0:0:0:
265,234,193236,6,0,B|210:210|210:210|62:225,1,200.200006109619,6|8,1:2|0:0,0:0:0:0:
0,295,193789,1,2,0:2:0:0:
61,147,193973,1,2,1:2:0:0:
1,66,194157,1,0,1:0:0:0:
161,26,194341,2,0,P|209:33|246:66,1,100.10000305481,8|2,0:0|0:0,0:0:0:0:
344,191,194709,6,0,P|311:132|405:51,1,200.200006109619,2|8,1:2|0:0,0:0:0:0:
484,88,195261,1,0,0:0:0:0:
441,248,195445,1,2,1:2:0:0:
504,325,195629,1,0,1:0:0:0:
349,369,195813,2,0,P|348:309|364:269,1,100.10000305481,10|0,0:0|0:0,0:0:0:0:
232,180,196181,6,0,B|259:228|259:228|250:372,1,200.200006109619,6|8,1:2|0:0,0:0:0:0:
150,375,196733,1,2,0:0:0:0:
59,242,196917,2,0,P|46:290|47:340,1,100.10000305481,2|0,1:2|1:0,0:0:0:0:
155,216,197286,2,0,P|156:166|143:117,1,100.10000305481,8|0,0:2|0:0,0:0:0:0:
0,58,197654,6,0,B|51:20|51:20|188:25,1,200.200006109619,2|8,1:2|0:0,0:0:0:0:
286,36,198206,1,0,0:0:0:0:
218,176,198390,2,0,P|265:161|315:158,1,100.10000305481,2|8,1:2|0:0,0:0:0:0:
445,152,198758,1,10,0:0:0:0:
441,177,198850,1,8,0:0:0:0:
437,202,198942,1,8,0:0:0:0:
434,227,199034,1,8,0:0:0:0:
433,253,199126,6,0,P|350:281|324:384,1,200.200006109619,6|8,1:2|0:0,0:0:0:0:
420,354,199678,1,2,0:0:0:0:
258,291,199862,2,0,L|157:280,1,100.10000305481,2|0,1:2|1:0,0:0:0:0:
0,264,200230,1,8,0:0:0:0:
38,107,200414,1,2,1:2:0:0:
38,107,200506,1,0,1:2:0:0:
38,106,200598,6,0,P|105:38|200:54,1,200.200006109619,2|8,1:2|0:0,0:0:0:0:
298,33,201151,1,2,0:0:0:0:
227,174,201335,1,2,1:2:0:0:
320,138,201519,1,0,1:0:0:0:
235,287,201703,2,0,P|282:274|315:237,1,100.10000305481,8|2,0:0|0:0,0:0:0:0:
477,209,202071,6,0,P|445:171|397:158,1,100.10000305481,6|0,1:2|0:0,0:0:0:0:
483,301,202439,1,8,0:0:0:0:
399,245,202623,1,2,0:0:0:0:
271,355,202807,2,0,P|216:364|168:330,1,100.10000305481,2|0,1:2|1:0,0:0:0:0:
202,189,203175,2,0,P|237:232|231:290,1,100.10000305481,8|0,0:2|0:0,0:0:0:0:
104,200,203543,6,0,P|121:127|233:97,1,200.200006109619,2|8,1:2|0:0,0:0:0:0:
331,105,204095,1,0,0:0:0:0:
283,17,204279,2,0,L|173:5,1,100.10000305481,0|0,1:0|1:0,0:0:0:0:
115,146,204648,1,8,0:0:0:0:
22,50,204832,1,2,0:0:0:0:
115,146,205016,6,0,L|214:141,1,100.10000305481,6|0,1:2|0:0,0:0:0:0:
318,262,205384,2,0,L|211:257,1,100.10000305481,10|0,0:2|0:0,0:0:0:0:
44,263,205752,2,0,P|96:269|130:303,1,100.10000305481,2|0,1:2|1:0,0:0:0:0:
8,194,206120,1,8,0:0:0:0:
61,343,206304,1,2,0:0:0:0:
8,193,206488,6,0,P|55:178|103:188,1,100.10000305481,6|0,1:2|0:0,0:0:0:0:
209,69,206856,2,0,P|224:117|213:166,1,100.10000305481,10|0,0:2|0:0,0:0:0:0:
93,273,207224,1,2,1:2:0:0:
171,334,207408,1,0,1:0:0:0:
328,307,207592,2,0,P|318:258|332:210,1,100.10000305481,8|0,0:2|0:0,0:0:0:0:
402,68,207960,6,0,B|311:41|311:41|208:70,1,200.200006109619,6|8,1:2|0:0,0:0:0:0:
130,131,208513,1,2,0:0:0:0:
205,283,208697,1,10,0:0:0:0:
77,276,208881,1,0,1:0:0:0:
260,343,209065,1,8,0:0:0:0:
108,380,209249,1,0,1:0:0:0:
333,380,209433,6,0,P|340:334|320:284,1,100.10000305481,10|0,0:0|1:0,0:0:0:0:
237,145,209801,1,8,0:0:0:0:
141,272,209985,1,0,1:0:0:0:
52,143,210169,1,10,0:0:0:0:
232,64,210353,5,8,0:0:0:0:
266,67,210445,1,8,0:0:0:0:
295,88,210537,1,10,0:0:0:0:
317,113,210629,1,8,0:0:0:0:
347,131,210721,1,8,0:0:0:0:
382,135,210813,1,8,0:0:0:0:
415,124,210905,6,0,P|428:185|358:295,1,200.200006109619,6|8,1:2|0:0,0:0:0:0:
267,247,211457,1,2,0:0:0:0:
156,355,211641,2,0,P|132:300|131:253,1,100.10000305481,2|0,1:2|1:0,0:0:0:0:
190,106,212009,1,8,0:0:0:0:
123,181,212194,1,0,0:0:0:0:
279,140,212378,6,0,P|326:152|360:188,1,100.10000305481,2|0,1:2|0:0,0:0:0:0:
202,171,212746,2,0,P|202:117|232:73,1,100.10000305481,8|0,0:0|0:0,0:0:0:0:
286,226,213114,1,2,1:2:0:0:
229,308,213298,1,0,1:0:0:0:
397,293,213482,1,8,0:0:0:0:
337,145,213666,1,0,1:0:0:0:
337,145,213758,1,0,1:0:0:0:
337,145,213850,6,0,P|450:139|482:70,1,200.200006109619,6|8,1:2|0:0,0:0:0:0:
358,39,214402,1,2,0:0:0:0:
251,160,214586,2,0,P|255:110|287:72,1,100.10000305481,2|0,1:2|1:0,0:0:0:0:
356,229,214954,1,8,0:0:0:0:
242,277,215138,1,2,0:2:0:0:
400,325,215322,6,0,B|294:320|333:384|214:379,1,200.200006109619,2|8,1:2|0:0,0:0:0:0:
143,306,215874,1,2,0:0:0:0:
272,200,216059,2,0,P|222:196|180:221,1,100.10000305481,2|0,1:2|1:0,0:0:0:0:
356,230,216427,1,8,0:0:0:0:
280,80,216611,1,0,1:0:0:0:
280,80,216703,1,0,1:0:0:0:
280,80,216795,6,0,B|429:55|429:55|404:100,1,200.200006109619,6|8,1:2|0:0,0:0:0:0:
358,186,217347,1,2,0:0:0:0:
494,269,217531,1,2,1:2:0:0:
470,171,217715,1,0,1:0:0:0:
346,269,217899,2,0,L|243:260,1,100.10000305481,8|0,0:0|0:0,0:0:0:0:
111,334,218267,6,0,P|163:254|130:163,1,200.200006109619,2|8,1:2|0:0,0:0:0:0:
73,79,218819,1,0,0:0:0:0:
38,238,219003,1,2,1:2:0:0:
0,146,219187,1,0,1:0:0:0:
103,9,219371,2,0,P|136:37|146:94,1,100.10000305481,8|0,0:0|0:0,0:0:0:0:
178,247,219740,6,0,P|200:159|302:149,1,200.200006109619,6|8,1:2|0:0,0:0:0:0:
398,228,220292,1,2,0:0:0:0:
277,324,220476,2,0,P|297:271|301:219,1,100.10000305481,2|0,1:2|1:0,0:0:0:0:
153,151,220844,2,0,P|158:200|177:246,1,100.10000305481,8|0,0:0|0:0,0:0:0:0:
235,98,221212,6,0,B|187:64|187:64|45:66,1,200.200006109619,2|8,1:2|0:0,0:0:0:0:
1,155,221764,1,0,0:0:0:0:
74,224,221948,1,2,1:2:0:0:
0,372,222132,1,8,0:0:0:0:
0,372,222224,1,10,0:0:0:0:
0,372,222316,1,0,1:2:0:0:
168,347,222500,1,8,0:0:0:0:
168,347,222592,1,8,0:0:0:0:
168,347,222684,6,0,L|270:351,1,100.10000305481,6|2,1:2|0:0,0:0:0:0:
424,358,223052,1,10,0:0:0:0:
337,220,223236,1,2,0:0:0:0:
429,258,223421,1,2,1:2:0:0:
285,160,223605,2,0,P|259:205|267:262,1,100.10000305481,2|8,1:2|0:0,0:0:0:0:
346,103,223973,6,0,P|301:81|251:84,1,100.10000305481,2|0,0:2|1:0,0:0:0:0:
161,127,224341,1,2,0:0:0:0:
262,250,224525,2,0,P|355:218|454:230,1,200.200006109619,10|0,0:0|1:2,0:0:0:0:
504,317,225077,1,0,1:0:0:0:
358,374,225261,2,0,B|254:368,1,100.10000305481,10|0,0:0|0:0,0:0:0:0:
162,256,225629,6,0,B|266:250,1,100.10000305481,6|0,1:2|0:0,0:0:0:0:
358,130,225997,2,0,L|255:123,1,100.10000305481,10|0,0:0|0:0,0:0:0:0:
100,110,226365,1,2,1:2:0:0:
187,60,226549,1,0,1:0:0:0:
21,74,226733,2,0,P|17:124|41:168,1,100.10000305481,10|0,0:0|0:0,0:0:0:0:
30,322,227101,6,0,P|90:246|186:254,1,200.200006109619,2|8,1:2|0:0,0:0:0:0:
265,315,227654,1,0,0:0:0:0:
333,166,227838,1,0,1:0:0:0:
234,182,228022,1,0,1:0:0:0:
385,234,228206,2,0,P|412:192|413:143,1,100.10000305481,8|2,0:0|1:2,0:0:0:0:
252,21,228574,5,14,0:0:0:0:
106,87,228758,1,0,1:0:0:0:
234,182,228942,1,0,1:0:0:0:
45,345,229126,5,14,0:0:0:0:
221,310,229310,1,0,1:0:0:0:
96,180,229494,1,0,1:0:0:0:
341,229,229678,5,14,0:0:0:0:
371,31,229862,1,0,1:0:0:0:
193,92,230046,1,0,1:0:0:0:
484,19,230230,5,14,0:0:0:0:
484,19,232255,5,2,0:0:0:0:
427,101,232439,1,2,0:0:0:0:
357,28,232623,1,2,0:0:0:0:
289,164,232807,6,0,B|384:165|355:222|462:224,1,182,6|0,1:2|1:0,0:0:0:0:
293,249,233359,2,0,P|238:232|209:193,1,91,10|0,0:0|0:0,0:0:0:0:
182,52,233727,1,0,1:0:0:0:
126,124,233911,1,2,1:2:0:0:
27,44,234095,1,10,0:2:0:0:
0,195,234279,6,0,P|12:277|96:310,1,182,6|0,1:2|1:0,0:0:0:0:
262,282,234832,2,0,P|248:238|216:208,1,91,10|0,0:0|0:0,0:0:0:0:
210,365,235200,1,0,1:0:0:0:
177,280,235384,1,2,1:2:0:0:
293,356,235568,1,10,0:2:0:0:
402,242,235752,6,0,B|392:105|392:105|365:141,1,182,6|0,1:2|1:0,0:0:0:0:
216,195,236304,2,0,L|312:212,1,91,10|0,0:0|0:0,0:0:0:0:
397,340,236672,1,2,1:2:0:0:
293,356,236856,1,0,1:2:0:0:
397,340,237040,1,10,0:2:0:0:
467,157,237224,5,6,1:2:0:0:
467,157,237592,1,0,1:0:0:0:
337,59,237776,2,0,P|296:58|247:77,1,91,10|0,0:0|1:0,0:0:0:0:
372,199,238144,2,0,P|394:159|399:110,1,91,10|0,0:0|1:0,0:0:0:0:
228,152,238513,2,0,P|243:192|277:227,1,91,10|4,0:0|1:2,0:0:0:0:
399,114,238881,5,2,0:0:0:0:
312,141,239065,1,0,1:0:0:0:
372,199,239249,2,0,P|380:243|372:287,1,91,10|0,0:0|0:0,0:0:0:0:
290,344,239617,1,0,1:0:0:0:
441,367,239801,1,2,1:2:0:0:
290,344,239985,1,10,0:0:0:0:
145,236,240169,6,0,P|213:208|308:266,1,182,6|0,1:2|1:0,0:0:0:0:
191,375,240721,2,0,P|146:369|111:341,1,91,10|0,0:0|0:0,0:0:0:0:
14,368,241089,1,0,1:0:0:0:
36,270,241273,1,2,1:2:0:0:
0,109,241457,1,10,0:0:0:0:
158,42,241641,6,0,B|198:71|198:71|332:64,1,182,6|0,1:2|1:0,0:0:0:0:
445,180,242194,2,0,L|403:83,1,91,10|0,0:0|0:0,0:0:0:0:
264,163,242562,1,2,1:2:0:0:
329,225,242746,1,2,1:2:0:0:
229,234,242930,1,10,0:0:0:0:
351,156,243114,1,2,1:2:0:0:
351,156,243206,1,2,1:2:0:0:
351,156,243298,5,10,0:0:0:0:
368,322,243482,1,2,1:2:0:0:
180,365,243666,5,10,0:0:0:0:
192,208,243850,1,2,1:2:0:0:
43,140,244034,5,10,0:0:0:0:
48,272,244218,1,8,3:0:0:0:
149,288,244402,6,0,L|195:200,1,91,4|0,3:0|1:0,0:0:0:0:
213,167,244678,1,0,1:2:0:0:
213,167,244770,1,4,1:2:0:0:
256,192,244862,12,0,247715,0:0:0:0:
