osu file format v14

[General]
AudioFilename: MIMIMr. DarlingMV.mp3
AudioLeadIn: 0
PreviewTime: 52897
Countdown: 0
SampleSet: Soft
StackLeniency: 0.7
Mode: 3
LetterboxInBreaks: 0
SpecialStyle: 0
WidescreenStoryboard: 0

[Editor]
DistanceSpacing: 0.8
BeatDivisor: 4
GridSize: 4
TimelineZoom: 1.7

[Metadata]
Title:Mr. Darling
TitleUnicode:Mr. Darling
Artist:mimimemeMIMI
ArtistUnicode:みみめめMIMI
Creator:DJ Profetti
Version:MX
Source:
Tags:amazon センチメンタルラブ short ver 迷宮センチメンタル
BeatmapID:734882
BeatmapSetID:331795

[Difficulty]
HPDrainRate:8
CircleSize:7
OverallDifficulty:8
ApproachRate:7
SliderMultiplier:1.4
SliderTickRate:1

[Events]
//Background and Video events
0,0,"BG.jpg",0,0
//Break Periods
//Storyboard Layer 0 (Background)
//Storyboard Layer 1 (Fail)
//Storyboard Layer 2 (Pass)
//Storyboard Layer 3 (Foreground)
//Storyboard Sound Samples

[TimingPoints]
445,368.098159509202,4,2,0,5,1,0
24187,368.098159509202,4,2,0,5,1,0
44800,368.098159509202,3,2,0,5,1,0
51425,368.098159509202,4,2,0,5,1,0
54369,-100,4,2,0,5,0,1
72038,-100,4,2,0,5,0,0
77928,-100,4,2,0,5,0,1
95596,368.098159509202,3,2,0,5,1,0
97344,-200,3,2,0,5,0,0
98908,-500,3,2,0,5,0,0
98954,-333.333333333333,3,2,0,5,0,0
99000,-250,3,2,0,5,0,0
99046,-200,3,2,0,5,0,0
99092,-166.666666666667,3,2,0,5,0,0
99138,-142.857142857143,3,2,0,5,0,0
99184,-125,3,2,0,5,0,0
99230,-111.111111111111,3,2,0,5,0,0
99276,-100,3,2,0,5,0,0
99828,368.098159509202,4,2,0,5,1,0

[HitObjects]
402,192,445,5,0,0:0:0:0:
36,192,445,1,0,0:0:0:0:
182,192,445,1,0,0:0:0:0:
109,192,1917,1,0,0:0:0:0:
329,192,1917,1,0,0:0:0:0:
475,192,1917,1,0,0:0:0:0:
36,192,3389,1,0,0:0:0:0:
402,192,3389,1,0,0:0:0:0:
182,192,3389,1,0,0:0:0:0:
109,192,4862,1,0,0:0:0:0:
475,192,4862,1,0,0:0:0:0:
256,192,4862,1,0,0:0:0:0:
402,192,5782,1,0,0:0:0:0:
109,192,5782,1,0,0:0:0:0:
256,192,5782,1,0,0:0:0:0:
475,192,6334,1,0,0:0:0:0:
109,192,6334,1,0,0:0:0:0:
256,192,6334,1,0,0:0:0:0:
329,192,6518,1,0,0:0:0:70:LR_HiHat SClick.wav
36,192,6702,1,0,0:0:0:0:
182,192,6886,1,0,0:0:0:70:LR_HiHat SClick.wav
402,192,6886,1,0,0:0:0:0:
329,192,7070,1,0,0:0:0:0:
109,192,7254,1,0,0:0:0:70:LR_HiHat SClick.wav
256,192,7254,1,0,0:0:0:0:
475,192,7438,1,0,0:0:0:0:
402,192,7622,1,0,0:0:0:0:
182,192,7622,1,0,0:0:0:70:LR_HiHat SClick.wav
36,192,7806,1,0,0:0:0:0:
329,192,7806,1,0,0:0:0:0:
475,192,7806,1,0,0:0:0:0:
109,192,7991,1,0,0:0:0:70:LR_HiHat SClick.wav
256,192,7991,1,0,0:0:0:0:
475,192,8175,1,0,0:0:0:0:
402,192,8359,1,0,0:0:0:70:LR_HiHat SClick.wav
182,192,8359,1,0,0:0:0:0:
109,192,8543,1,0,0:0:0:0:
329,192,8727,1,0,0:0:0:70:LR_HiHat SClick.wav
36,192,8727,1,0,0:0:0:0:
402,192,8911,1,0,0:0:0:0:
475,192,9095,1,0,0:0:0:0:
109,192,9095,1,0,0:0:0:70:LR_HiHat SClick.wav
182,192,9279,1,0,0:0:0:0:
36,192,9279,1,0,0:0:0:0:
329,192,9279,1,0,0:0:0:0:
256,192,9463,1,0,0:0:0:0:
402,192,9463,1,0,0:0:0:70:LR_HiHat SClick.wav
109,192,9647,1,0,0:0:0:0:
36,192,9831,1,0,0:0:0:0:
256,192,9831,1,0,0:0:0:70:LR_HiHat SClick.wav
475,192,10015,1,0,0:0:0:0:
402,192,10199,1,0,0:0:0:70:LR_HiHat SClick.wav
182,192,10199,1,0,0:0:0:0:
256,192,10383,1,0,0:0:0:0:
109,192,10567,1,0,0:0:0:0:
402,192,10567,1,0,0:0:0:70:LR_HiHat SClick.wav
256,192,10751,1,0,0:0:0:0:
36,192,10751,1,0,0:0:0:0:
475,192,10751,1,0,0:0:0:0:
475,192,11119,1,0,0:0:0:0:
182,192,11119,1,0,0:0:0:0:
329,192,11119,1,0,0:0:0:0:
402,192,11303,1,0,0:0:0:0:
109,192,11303,1,0,0:0:0:0:
256,192,11303,1,0,0:0:0:0:
36,192,11487,1,0,0:0:0:0:
329,192,11487,1,0,0:0:0:0:
182,192,11487,1,0,0:0:0:0:
109,192,11856,1,0,0:0:0:0:
402,192,11856,1,0,0:0:0:0:
256,192,11856,1,0,0:0:0:0:
475,192,12040,1,0,0:0:0:0:
36,192,12040,1,0,0:0:0:0:
182,192,12040,1,0,0:0:0:40:LR_Snare Hit Hard.wav
329,192,12040,1,0,0:0:0:0:
402,192,12224,128,0,13420:0:0:0:0:
109,192,12224,128,0,13236:0:0:0:0:
256,192,12224,1,0,0:0:0:20:LR_CymbalRDW.wav
475,192,12224,1,0,0:0:0:0:
36,192,12224,1,0,0:0:0:70:LR_Kick Dry Fast Low.wav
182,192,12592,1,0,0:0:0:70:LR_Kick Dry Fast Low.wav
329,192,12592,1,0,0:0:0:0:
256,192,12776,1,0,0:0:0:20:LR_CymbalFSU.wav
475,192,12776,1,0,0:0:0:40:LR_Snare Hit Hard.wav
36,192,12776,1,0,0:0:0:0:
256,192,13144,1,0,0:0:0:20:LR_CymbalFSU.wav
36,192,13144,1,0,0:0:0:70:LR_Kick Dry Fast Low.wav
329,192,13328,1,0,0:0:0:70:LR_Kick Dry Fast Low.wav
109,192,13328,128,0,13420:0:0:0:0:
402,192,13512,1,0,0:0:0:40:LR_Snare Hit Hard.wav
182,192,13512,128,0,13604:0:0:0:0:
475,192,13696,1,0,0:0:0:70:LR_Kick Dry Fast Low.wav
329,192,13696,128,0,14892:0:0:0:0:
256,192,13696,1,0,0:0:0:0:
36,192,13696,128,0,14708:0:0:0:0:
109,192,13696,1,0,0:0:0:20:LR_CymbalRDW.wav
402,192,14064,1,0,0:0:0:0:
182,192,14064,1,0,0:0:0:70:LR_Kick Dry Fast Low.wav
109,192,14248,1,0,0:0:0:40:LR_Snare Hit Hard.wav
256,192,14248,1,0,0:0:0:20:LR_CymbalFSU.wav
475,192,14248,1,0,0:0:0:0:
475,192,14616,1,0,0:0:0:70:LR_Kick Dry Fast Low.wav
182,192,14616,1,0,0:0:0:20:LR_CymbalFSU.wav
256,192,14800,1,0,0:0:0:70:LR_Kick Dry Fast Low.wav
36,192,14800,128,0,14892:0:0:0:0:
329,192,14984,1,0,0:0:0:40:LR_Snare Hit Hard.wav
109,192,14984,128,0,15076:0:0:0:0:
182,192,15168,128,0,16089:0:0:0:0:
402,192,15168,1,0,0:0:0:70:LR_Kick Dry Fast Low.wav
256,192,15168,1,0,0:0:0:0:
475,192,15168,128,0,16089:0:0:0:0:
36,192,15168,1,0,0:0:0:20:LR_CymbalRDW.wav
329,192,15537,1,0,0:0:0:70:LR_Kick Dry Fast Low.wav
109,192,15537,1,0,0:0:0:0:
36,192,15721,1,0,0:0:0:0:
402,192,15721,1,0,0:0:0:40:LR_Snare Hit Hard.wav
256,192,15721,1,0,0:0:0:20:LR_CymbalFSU.wav
402,192,16089,128,0,16181:0:0:0:0:
109,192,16089,128,0,16181:0:0:0:0:
256,192,16089,1,0,0:0:0:70:LR_Kick Dry Fast Low.wav
109,192,16273,128,0,16641:0:0:0:70:LR_Kick Dry Fast Low.wav
402,192,16273,128,0,16641:0:0:0:20:LR_CymbalFSU.wav
36,192,16457,1,0,0:0:0:0:
256,192,16457,1,0,0:0:0:40:LR_Snare Hit Hard.wav
475,192,16457,1,0,0:0:0:0:
329,192,16641,1,0,0:0:0:20:LR_CymbalRDW.wav
182,192,16641,1,0,0:0:0:70:LR_Kick Dry Fast Low.wav
475,192,16641,128,0,17193:0:0:0:0:
36,192,16641,128,0,17193:0:0:0:0:
256,192,17009,128,0,17193:0:0:0:0:
109,192,17009,1,0,0:0:0:70:LR_Kick Dry Fast Low.wav
402,192,17193,128,0,17929:0:0:0:0:
329,192,17193,1,0,0:0:0:20:LR_CymbalFSU.wav
182,192,17193,1,0,0:0:0:40:LR_Snare Hit Hard.wav
256,192,17377,1,0,0:0:0:70:LR_Kick Dry Fast Low.wav
36,192,17561,128,0,17929:0:0:0:0:
182,192,17561,1,0,0:0:0:20:LR_CymbalFSU.wav
475,192,17561,1,0,0:0:0:40:LR_Snare Hit Hard.wav
256,192,17745,1,0,0:0:0:70:LR_Kick Dry Fast Low.wav
329,192,17929,1,0,0:0:0:40:LR_Snare Hit Hard.wav
109,192,17929,1,0,0:0:0:70:LR_Kick Dry Fast Low.wav
402,192,18113,1,0,0:0:0:0:
36,192,18113,1,0,0:0:0:20:LR_CymbalRDW.wav
182,192,18113,128,0,19310:0:0:0:0:
475,192,18113,128,0,19125:0:0:0:0:
256,192,18113,1,0,0:0:0:70:LR_Kick Dry Fast Low.wav
36,192,18481,1,0,0:0:0:0:
329,192,18481,1,0,0:0:0:70:LR_Kick Dry Fast Low.wav
402,192,18665,1,0,0:0:0:40:LR_Snare Hit Hard.wav
109,192,18665,1,0,0:0:0:0:
256,192,18665,1,0,0:0:0:20:LR_CymbalFSU.wav
36,192,19033,1,0,0:0:0:20:LR_CymbalFSU.wav
329,192,19033,1,0,0:0:0:70:LR_Kick Dry Fast Low.wav
256,192,19218,1,0,0:0:0:70:LR_Kick Dry Fast Low.wav
475,192,19218,128,0,19310:0:0:0:0:
182,192,19402,1,0,0:0:0:40:LR_Snare Hit Hard.wav
402,192,19402,128,0,19494:0:0:0:0:
109,192,19586,1,0,0:0:0:70:LR_Kick Dry Fast Low.wav
329,192,19586,128,0,20782:0:0:0:0:
256,192,19586,1,0,0:0:0:0:
36,192,19586,128,0,20598:0:0:0:0:
475,192,19586,1,0,0:0:0:20:LR_CymbalRDW.wav
402,192,19954,1,0,0:0:0:0:
182,192,19954,1,0,0:0:0:70:LR_Kick Dry Fast Low.wav
109,192,20138,1,0,0:0:0:0:
256,192,20138,1,0,0:0:0:20:LR_CymbalFSU.wav
475,192,20138,1,0,0:0:0:40:LR_Snare Hit Hard.wav
182,192,20506,1,0,0:0:0:70:LR_Kick Dry Fast Low.wav
475,192,20506,1,0,0:0:0:20:LR_CymbalFSU.wav
36,192,20690,128,0,20782:0:0:0:0:
256,192,20690,1,0,0:0:0:70:LR_Kick Dry Fast Low.wav
109,192,20874,128,0,20966:0:0:0:0:
329,192,20874,1,0,0:0:0:40:LR_Snare Hit Hard.wav
256,192,21058,128,0,22346:0:0:0:0:
475,192,21058,1,0,0:0:0:20:LR_CymbalRDW.wav
402,192,21058,1,0,0:0:0:70:LR_Kick Dry Fast Low.wav
36,192,21058,128,0,21794:0:0:0:0:
182,192,21058,1,0,0:0:0:0:
109,192,21426,1,0,0:0:0:0:
329,192,21426,1,0,0:0:0:70:LR_Kick Dry Fast Low.wav
182,192,21610,1,0,0:0:0:0:
402,192,21610,1,0,0:0:0:40:LR_Snare Hit Hard.wav
475,192,21610,1,0,0:0:0:20:LR_CymbalFSU.wav
109,192,21794,1,0,0:0:0:0:
36,192,21978,128,0,22346:0:0:0:0:
182,192,21978,1,0,0:0:0:0:
329,192,21978,1,0,0:0:0:70:LR_Kick Dry Fast Low.wav
475,192,21978,1,0,0:0:0:20:LR_CymbalFSU.wav
109,192,22162,1,0,0:0:0:0:
402,192,22162,1,0,0:0:0:70:LR_Kick Dry Fast Low.wav
475,192,22346,1,0,0:0:0:20:LR_CymbalFSU.wav
329,192,22346,1,0,0:0:0:40:LR_Snare Hit Hard.wav
182,192,22346,1,0,0:0:0:0:
36,192,22530,1,0,0:0:0:0:
182,192,22622,1,0,0:0:0:0:
329,192,22714,1,0,0:0:0:40:LR_Snare Hit Hard.wav
475,192,22714,128,0,24003:0:0:0:0:
402,192,22898,128,0,23819:0:0:0:0:
256,192,22898,1,0,0:0:0:70:LR_Kick Dry Fast Low.wav
329,192,23083,128,0,23635:0:0:0:0:
182,192,23083,1,0,0:0:0:40:LR_Snare Hit Hard.wav
109,192,23267,1,0,0:0:0:70:LR_Kick Dry Fast Low.wav
256,192,23267,128,0,23451:0:0:0:0:
36,192,23451,128,0,24187:0:0:0:0:
182,192,23451,1,0,0:0:0:40:LR_Snare Hit Hard.wav
109,192,23635,128,0,24187:0:0:0:0:
256,192,23635,1,0,0:0:0:70:LR_Kick Dry Fast Low.wav
182,192,23819,128,0,24187:0:0:0:0:
329,192,23819,1,0,0:0:0:70:LR_Kick Dry Fast Low.wav
402,192,24003,1,0,0:0:0:70:LR_Kick Dry Fast Low.wav
256,192,24003,128,0,24187:0:0:0:0:
475,192,24187,1,0,0:0:0:20:LR_CymbalRDW.wav
329,192,24187,1,0,0:0:0:70:LR_HiHat SClick.wav
182,192,24371,1,0,0:0:0:0:
36,192,24555,1,0,0:0:0:70:LR_HiHat SClick.wav
402,192,24555,1,0,0:0:0:0:
329,192,24739,1,0,0:0:0:0:
36,192,24923,1,0,0:0:0:0:
256,192,24923,1,0,0:0:0:70:LR_HiHat SClick.wav
109,192,25107,1,0,0:0:0:0:
182,192,25291,1,0,0:0:0:0:
475,192,25291,1,0,0:0:0:70:LR_HiHat SClick.wav
402,192,25475,1,0,0:0:0:70:LR_Kick Dry Fast Low.wav
109,192,25475,1,0,0:0:0:0:
329,192,25475,1,0,0:0:0:0:
402,192,25659,1,0,0:0:0:70:LR_Kick Dry Fast Low.wav
329,192,25659,1,0,0:0:0:0:
36,192,25659,1,0,0:0:0:70:LR_HiHat SClick.wav
182,192,25843,1,0,0:0:0:0:
109,192,26027,1,0,0:0:0:70:LR_HiHat SClick.wav
475,192,26027,1,0,0:0:0:0:
402,192,26211,1,0,0:0:0:0:
256,192,26395,1,0,0:0:0:0:
36,192,26395,1,0,0:0:0:70:LR_HiHat SClick.wav
329,192,26579,1,0,0:0:0:0:
182,192,26579,1,0,0:0:0:0:
475,192,26579,1,0,0:0:0:70:LR_Kick Dry Fast Low.wav
109,192,26763,1,0,0:0:0:0:
402,192,26763,1,0,0:0:0:70:LR_HiHat SClick.wav
329,192,26947,1,0,0:0:0:0:
475,192,26947,1,0,0:0:0:70:LR_Kick Dry Fast Low.wav
182,192,26947,1,0,0:0:0:0:
475,192,27131,1,0,0:0:0:70:LR_Kick Dry Fast Low.wav
329,192,27131,1,0,0:0:0:0:
36,192,27131,1,0,0:0:0:70:LR_HiHat SClick.wav
109,192,27131,1,0,0:0:0:0:
256,192,27315,1,0,0:0:0:0:
182,192,27499,1,0,0:0:0:70:LR_HiHat SClick.wav
402,192,27499,1,0,0:0:0:0:
475,192,27683,1,0,0:0:0:0:
109,192,27683,1,0,0:0:0:0:
329,192,27683,1,0,0:0:0:0:
256,192,27867,1,0,0:0:0:70:LR_HiHat SClick.wav
36,192,27867,1,0,0:0:0:0:
109,192,28052,1,0,0:0:0:0:
182,192,28236,1,0,0:0:0:70:LR_HiHat SClick.wav
475,192,28236,1,0,0:0:0:0:
402,192,28420,1,0,0:0:0:70:LR_Kick Dry Fast Low.wav
329,192,28420,1,0,0:0:0:0:
36,192,28420,1,0,0:0:0:0:
402,192,28604,1,0,0:0:0:70:LR_Kick Dry Fast Low.wav
329,192,28604,1,0,0:0:0:0:
109,192,28604,1,0,0:0:0:70:LR_HiHat SClick.wav
256,192,28788,1,0,0:0:0:0:
36,192,28972,1,0,0:0:0:0:
475,192,28972,1,0,0:0:0:70:LR_HiHat SClick.wav
256,192,29156,1,0,0:0:0:0:
182,192,29340,1,0,0:0:0:70:LR_HiHat SClick.wav
329,192,29340,1,0,0:0:0:0:
256,192,29524,1,0,0:0:0:0:
109,192,29708,128,0,30076:0:0:0:0:
402,192,29708,128,0,30076:0:0:0:0:
36,192,29708,1,0,0:0:0:70:LR_Kick Dry Fast Low.wav
475,192,29708,1,0,0:0:0:70:LR_HiHat SClick.wav
329,192,30076,128,0,30628:0:0:0:0:
475,192,30076,1,0,0:0:0:70:LR_Kick Dry Fast Low.wav
182,192,30076,1,0,0:0:0:10:LR_CymbalFSU.wav
36,192,30444,128,0,30812:0:0:0:0:
109,192,30444,1,0,0:0:0:40:LR_Snare Hit Hard.wav
402,192,30444,1,0,0:0:0:70:LR_Kick Dry Fast Low.wav
182,192,30444,1,0,0:0:0:10:LR_CymbalFSU.wav
329,192,30812,128,0,31180:0:0:0:0:
475,192,30812,1,0,0:0:0:70:LR_Kick Dry Fast Low.wav
402,192,30812,1,0,0:0:0:10:LR_CymbalFSU.wav
36,192,30996,128,0,31548:0:0:0:0:
109,192,30996,1,0,0:0:0:0:
182,192,30996,1,0,0:0:0:70:LR_Kick Dry Fast Low.wav
475,192,31180,1,0,0:0:0:0:
256,192,31180,1,0,0:0:0:10:LR_CymbalFSU.wav
329,192,31364,1,0,0:0:0:40:LR_Snare Hit Hard.wav
182,192,31364,1,0,0:0:0:70:LR_Kick Dry Fast Low.wav
402,192,31364,128,0,31917:0:0:0:0:
109,192,31548,1,0,0:0:0:10:LR_CymbalFSU.wav
182,192,31733,128,0,32285:0:0:0:0:
36,192,31733,1,0,0:0:0:70:LR_Kick Dry Fast Low.wav
256,192,31733,1,0,0:0:0:0:
329,192,31917,1,0,0:0:0:0:
109,192,31917,1,0,0:0:0:10:LR_CymbalFSU.wav
402,192,32101,1,0,0:0:0:40:LR_Snare Hit Hard.wav
475,192,32101,128,0,32653:0:0:0:0:
256,192,32101,1,0,0:0:0:70:LR_Kick Dry Fast Low.wav
36,192,32285,1,0,0:0:0:0:
329,192,32285,1,0,0:0:0:10:LR_CymbalFSU.wav
109,192,32469,1,0,0:0:0:0:
182,192,32469,1,0,0:0:0:0:
402,192,32469,1,0,0:0:0:70:LR_Kick Dry Fast Low.wav
182,192,32653,1,0,0:0:0:0:
36,192,32653,1,0,0:0:0:40:LR_Snare Hit Hard.wav
402,192,32653,1,0,0:0:0:70:LR_Kick Dry Fast Low.wav
475,192,32837,1,0,0:0:0:0:
109,192,32837,1,0,0:0:0:70:LR_Kick Dry Fast Low.wav
329,192,32837,1,0,0:0:0:10:LR_CymbalFSU.wav
182,192,33021,1,0,0:0:0:70:LR_HiHat SClick.wav
402,192,33021,1,0,0:0:0:0:
36,192,33021,1,0,0:0:0:0:
329,192,33205,1,0,0:0:0:0:
475,192,33389,1,0,0:0:0:70:LR_HiHat SClick.wav
182,192,33389,1,0,0:0:0:0:
109,192,33573,1,0,0:0:0:0:
36,192,33757,1,0,0:0:0:0:
329,192,33757,1,0,0:0:0:70:LR_HiHat SClick.wav
402,192,33941,1,0,0:0:0:0:
182,192,34125,1,0,0:0:0:70:LR_HiHat SClick.wav
475,192,34125,1,0,0:0:0:0:
402,192,34309,1,0,0:0:0:70:LR_Kick Dry Fast Low.wav
329,192,34309,1,0,0:0:0:0:
109,192,34309,1,0,0:0:0:0:
402,192,34493,1,0,0:0:0:70:LR_Kick Dry Fast Low.wav
329,192,34493,1,0,0:0:0:0:
36,192,34493,1,0,0:0:0:70:LR_HiHat SClick.wav
256,192,34677,1,0,0:0:0:0:
109,192,34861,1,0,0:0:0:70:LR_HiHat SClick.wav
329,192,34861,1,0,0:0:0:0:
402,192,35045,1,0,0:0:0:0:
36,192,35229,1,0,0:0:0:0:
256,192,35229,1,0,0:0:0:70:LR_HiHat SClick.wav
475,192,35413,1,0,0:0:0:70:LR_Kick Dry Fast Low.wav
329,192,35413,1,0,0:0:0:0:
109,192,35413,1,0,0:0:0:0:
402,192,35598,1,0,0:0:0:70:LR_HiHat SClick.wav
182,192,35598,1,0,0:0:0:0:
475,192,35782,1,0,0:0:0:70:LR_Kick Dry Fast Low.wav
329,192,35782,1,0,0:0:0:0:
109,192,35782,1,0,0:0:0:0:
475,192,35966,1,0,0:0:0:70:LR_Kick Dry Fast Low.wav
329,192,35966,1,0,0:0:0:0:
36,192,35966,1,0,0:0:0:0:
182,192,35966,1,0,0:0:0:70:LR_HiHat SClick.wav
256,192,36150,1,0,0:0:0:0:
109,192,36334,1,0,0:0:0:0:
329,192,36334,1,0,0:0:0:70:LR_HiHat SClick.wav
475,192,36334,1,0,0:0:0:0:
182,192,36518,1,0,0:0:0:0:
402,192,36518,1,0,0:0:0:0:
256,192,36702,1,0,0:0:0:70:LR_HiHat SClick.wav
109,192,36702,1,0,0:0:0:0:
36,192,36886,1,0,0:0:0:0:
182,192,37070,1,0,0:0:0:0:
475,192,37070,1,0,0:0:0:70:LR_HiHat SClick.wav
402,192,37254,1,0,0:0:0:70:LR_Kick Dry Fast Low.wav
329,192,37254,1,0,0:0:0:0:
109,192,37254,1,0,0:0:0:0:
402,192,37438,1,0,0:0:0:70:LR_Kick Dry Fast Low.wav
329,192,37438,1,0,0:0:0:0:
36,192,37438,1,0,0:0:0:70:LR_HiHat SClick.wav
256,192,37622,1,0,0:0:0:0:
109,192,37806,1,0,0:0:0:0:
402,192,37806,1,0,0:0:0:70:LR_HiHat SClick.wav
256,192,37990,1,0,0:0:0:0:
36,192,38174,1,0,0:0:0:70:LR_HiHat SClick.wav
475,192,38174,1,0,0:0:0:0:
329,192,38358,1,0,0:0:0:70:LR_Kick Dry Fast Low.wav
182,192,38358,1,0,0:0:0:0:
109,192,38542,128,0,38910:0:0:0:0:
402,192,38542,128,0,38910:0:0:0:0:
475,192,38542,1,0,0:0:0:70:LR_HiHat SClick.wav
256,192,38542,1,0,0:0:0:20:LR_CymbalRDW.wav
36,192,38542,1,0,0:0:0:70:LR_Kick Dry Fast Low.wav
182,192,38910,128,0,39463:0:0:0:0:
36,192,38910,1,0,0:0:0:70:LR_Kick Dry Fast Low.wav
329,192,38910,1,0,0:0:0:10:LR_CymbalFSU.wav
475,192,39279,128,0,39647:0:0:0:0:
402,192,39279,1,0,0:0:0:40:LR_Snare Hit Hard.wav
36,192,39279,1,0,0:0:0:70:LR_Kick Dry Fast Low.wav
329,192,39279,1,0,0:0:0:10:LR_CymbalFSU.wav
182,192,39647,128,0,40015:0:0:0:0:
36,192,39647,1,0,0:0:0:70:LR_Kick Dry Fast Low.wav
109,192,39647,1,0,0:0:0:10:LR_CymbalFSU.wav
475,192,39831,128,0,40383:0:0:0:0:
402,192,39831,1,0,0:0:0:0:
329,192,39831,1,0,0:0:0:70:LR_Kick Dry Fast Low.wav
36,192,40015,1,0,0:0:0:0:
256,192,40015,1,0,0:0:0:10:LR_CymbalFSU.wav
182,192,40199,1,0,0:0:0:40:LR_Snare Hit Hard.wav
109,192,40199,128,0,40751:0:0:0:0:
329,192,40199,1,0,0:0:0:70:LR_Kick Dry Fast Low.wav
402,192,40383,1,0,0:0:0:10:LR_CymbalFSU.wav
256,192,40567,1,0,0:0:0:0:
329,192,40567,128,0,41119:0:0:0:0:
475,192,40567,1,0,0:0:0:70:LR_Kick Dry Fast Low.wav
402,192,40751,1,0,0:0:0:0:
182,192,40751,1,0,0:0:0:10:LR_CymbalFSU.wav
109,192,40935,1,0,0:0:0:70:LR_Kick Dry Fast Low.wav
36,192,40935,128,0,41487:0:0:0:0:
475,192,40935,1,0,0:0:0:40:LR_Snare Hit Hard.wav
256,192,41119,1,0,0:0:0:0:
182,192,41119,1,0,0:0:0:10:LR_CymbalFSU.wav
402,192,41303,1,0,0:0:0:0:
329,192,41303,1,0,0:0:0:70:LR_Kick Dry Fast Low.wav
109,192,41303,1,0,0:0:0:0:
329,192,41487,1,0,0:0:0:70:LR_Kick Dry Fast Low.wav
475,192,41487,1,0,0:0:0:40:LR_Snare Hit Hard.wav
109,192,41487,1,0,0:0:0:10:LR_CymbalFSU.wav
256,192,41671,1,0,0:0:0:0:
475,192,41855,1,0,0:0:0:10:LR_CymbalRDW.wav
329,192,41855,1,0,0:0:0:10:LR_CymbalFSU.wav
182,192,41855,1,0,0:0:0:70:LR_Kick Dry Fast Low.wav
36,192,41855,128,0,42407:0:0:0:0:
182,192,42223,1,0,0:0:0:40:LR_Snare Hit Hard.wav
329,192,42223,1,0,0:0:0:70:LR_Kick Dry Fast Low.wav
402,192,42223,1,0,0:0:0:10:LR_CymbalFSU.wav
475,192,42223,128,0,43696:0:0:0:0:
256,192,42407,1,0,0:0:0:0:
109,192,42407,1,0,0:0:0:0:
402,192,42591,1,0,0:0:0:0:
36,192,42591,128,0,42775:0:0:0:0:
329,192,42591,1,0,0:0:0:10:LR_CymbalFSU.wav
182,192,42591,1,0,0:0:0:70:LR_Kick Dry Fast Low.wav
402,192,42775,1,0,0:0:0:0:
109,192,42775,128,0,42960:0:0:0:0:
256,192,42775,1,0,0:0:0:70:LR_Kick Dry Fast Low.wav
182,192,42960,128,0,43144:0:0:0:0:
329,192,42960,1,0,0:0:0:10:LR_CymbalFSU.wav
256,192,43144,128,0,43696:0:0:0:0:
36,192,43144,1,0,0:0:0:0:
109,192,43144,1,0,0:0:0:40:LR_Snare Hit Hard.wav
402,192,43144,1,0,0:0:0:70:LR_Kick Dry Fast Low.wav
182,192,43328,1,0,0:0:0:0:
329,192,43328,1,0,0:0:0:10:LR_CymbalFSU.wav
36,192,43512,128,0,44432:0:0:0:0:
402,192,43512,1,0,0:0:0:70:LR_Kick Dry Fast Low.wav
109,192,43512,1,0,0:0:0:40:LR_Snare Hit Hard.wav
182,192,43696,1,0,0:0:0:10:LR_CymbalFSU.wav
329,192,43696,1,0,0:0:0:0:
256,192,43880,1,0,0:0:0:20:LR_CymbalRDW.wav
402,192,43880,1,0,0:0:0:70:LR_Kick Dry Fast Low.wav
475,192,43880,128,0,44432:0:0:0:0:
109,192,43880,1,0,0:0:0:40:LR_Snare Hit Hard.wav
182,192,44248,1,0,0:0:0:0:
329,192,44248,1,0,0:0:0:70:LR_Kick Dry Fast Low.wav
109,192,44432,1,0,0:0:0:0:
182,192,44432,1,0,0:0:0:40:LR_Snare Hit Hard.wav
402,192,44432,1,0,0:0:0:0:
329,192,44432,1,0,0:0:0:70:LR_Kick Dry Fast Low.wav
256,192,44616,1,0,0:0:0:70:LR_Kick Dry Fast Low.wav
402,192,44800,128,0,45536:0:0:0:0:
36,192,44800,1,0,0:0:0:70:LR_HiHat SClick.wav
109,192,44800,1,0,0:0:0:70:LR_Kick Dry Fast Low.wav
329,192,44800,1,0,0:0:0:0:
329,192,45168,128,0,45904:0:0:0:0:
256,192,45168,1,0,0:0:0:0:
256,192,45536,128,0,46272:0:0:0:0:
182,192,45536,1,0,0:0:0:0:
475,192,45904,1,0,0:0:0:70:LR_HiHat SClick.wav
36,192,45904,128,0,46640:0:0:0:0:
109,192,45904,1,0,0:0:0:0:
402,192,45904,1,0,0:0:0:70:LR_Kick Dry Fast Low.wav
109,192,46272,128,0,47008:0:0:0:0:
182,192,46272,1,0,0:0:0:0:
182,192,46640,128,0,47376:0:0:0:0:
256,192,46640,1,0,0:0:0:0:
329,192,47008,1,0,0:0:0:70:LR_Kick Dry Fast Low.wav
475,192,47008,128,0,47744:0:0:0:0:
36,192,47008,1,0,0:0:0:70:LR_HiHat SClick.wav
402,192,47008,1,0,0:0:0:0:
329,192,47376,128,0,48112:0:0:0:0:
256,192,47376,1,0,0:0:0:0:
402,192,47560,1,0,0:0:0:40:LR_Snare Hit Hard.wav
182,192,47744,128,0,48480:0:0:0:0:
36,192,47744,1,0,0:0:0:0:
36,192,48112,128,0,48849:0:0:0:0:
402,192,48112,1,0,0:0:0:70:LR_HiHat SClick.wav
109,192,48112,1,0,0:0:0:0:
475,192,48112,1,0,0:0:0:40:LR_Snare Hit Hard.wav
109,192,48480,128,0,49217:0:0:0:0:
475,192,48480,1,0,0:0:0:70:LR_Kick Dry Fast Low.wav
256,192,48480,1,0,0:0:0:0:
256,192,48849,128,0,49585:0:0:0:0:
475,192,48849,1,0,0:0:0:70:LR_Kick Dry Fast Low.wav
329,192,48849,1,0,0:0:0:0:
36,192,49217,1,0,0:0:0:70:LR_HiHat SClick.wav
182,192,49217,1,0,0:0:0:0:
475,192,49217,1,0,0:0:0:70:LR_Kick Dry Fast Low.wav
402,192,49217,128,0,49953:0:0:0:0:
182,192,49585,128,0,50321:0:0:0:0:
36,192,49585,1,0,0:0:0:20:LR_CymbalFSU.wav
329,192,49769,1,0,0:0:0:40:LR_Snare Hit Hard.wav
36,192,49953,128,0,50689:0:0:0:0:
256,192,49953,1,0,0:0:0:20:LR_CymbalFSU.wav
402,192,50137,1,0,0:0:0:0:
329,192,50137,1,0,0:0:0:70:LR_Kick Dry Fast Low.wav
109,192,50321,128,0,51057:0:0:0:0:
256,192,50321,1,0,0:0:0:0:
402,192,50321,1,0,0:0:0:20:LR_CymbalRDW.wav
475,192,50321,1,0,0:0:0:40:LR_Snare Hit Hard.wav
256,192,50689,128,0,51425:0:0:0:0:
182,192,50689,1,0,0:0:0:70:LR_Kick Dry Fast Low.wav
475,192,50689,1,0,0:0:0:20:LR_CymbalFSU.wav
475,192,51057,128,0,51793:0:0:0:0:
182,192,51057,1,0,0:0:0:40:LR_Snare Hit Hard.wav
329,192,51057,1,0,0:0:0:20:LR_CymbalFSU.wav
109,192,51241,1,0,0:0:0:0:
36,192,51425,1,0,0:0:0:20:LR_CymbalRDW.wav
182,192,51425,1,0,0:0:0:70:LR_Kick Dry Fast Low.wav
329,192,51425,1,0,0:0:0:0:
402,192,51425,128,0,52529:0:0:0:0:
182,192,51793,1,0,0:0:0:10:LR_CymbalFSU.wav
256,192,51977,1,0,0:0:0:70:LR_Kick Dry Fast Low.wav
475,192,51977,1,0,0:0:0:0:
109,192,52161,128,0,52897:0:0:0:0:
36,192,52161,1,0,0:0:0:10:LR_CymbalFSU.wav
329,192,52345,1,0,0:0:0:70:LR_Kick Dry Fast Low.wav
182,192,52345,128,0,52529:0:0:0:0:
475,192,52529,1,0,0:0:0:40:LR_Snare Hit Hard.wav
36,192,52529,1,0,0:0:0:0:
256,192,52529,128,0,52713:0:0:0:0:
329,192,52713,128,0,52897:0:0:0:0:
402,192,52897,128,0,53633:0:0:0:0:
36,192,52897,128,0,53265:0:0:0:70:LR_Kick Dry Fast Low.wav
256,192,52897,128,0,53081:0:0:0:0:
475,192,52897,1,0,0:0:0:70:LR_HiHat SClick.wav
182,192,53081,128,0,53265:0:0:0:0:
109,192,53265,128,0,53633:0:0:0:0:
329,192,53265,128,0,53449:0:0:0:0:
475,192,53265,1,0,0:0:0:40:LR_Snare Hit Hard.wav
256,192,53449,128,0,53633:0:0:0:0:
182,192,53633,128,0,54369:0:0:0:0:
36,192,53633,1,0,0:0:0:70:LR_HiHat SClick.wav
475,192,53633,1,0,0:0:0:35:LR_Kick Dry Fast Low.wav
402,192,53725,1,0,0:0:0:0:
329,192,53817,1,0,0:0:0:20:LR_Snare Hit Hard.wav
256,192,53909,1,0,0:0:0:20:LR_Snare Hit Hard.wav
36,192,54001,128,0,54369:0:0:0:0:
475,192,54001,1,0,0:0:0:0:
109,192,54001,1,0,0:0:0:20:LR_Snare Hit Hard.wav
402,192,54093,1,0,0:0:0:35:LR_Kick Dry Fast Low.wav
329,192,54185,1,0,0:0:0:35:LR_Kick Dry Fast Low.wav
256,192,54277,1,0,0:0:0:35:LR_Kick Dry Fast Low.wav
402,192,54369,1,0,0:0:0:20:LR_CymbalRDW.wav
329,192,54369,1,0,0:0:0:70:LR_HiHat SClick.wav
475,192,54369,128,0,55105:0:0:0:0:
109,192,54369,1,0,0:0:0:35:LR_Kick Dry Fast Low.wav
109,192,54737,128,0,54921:0:0:0:0:
402,192,54737,1,0,0:0:0:0:
256,192,54737,1,0,0:0:0:40:LR_Snare Hit Hard.wav
36,192,54921,128,0,55290:0:0:0:0:
329,192,54921,1,0,0:0:0:0:
402,192,55105,1,0,0:0:0:70:LR_HiHat SClick.wav
182,192,55105,1,0,0:0:0:70:LR_Kick Dry Fast Low.wav
256,192,55105,128,0,55290:0:0:0:0:
329,192,55290,128,0,55474:0:0:0:0:
109,192,55290,1,0,0:0:0:70:LR_Kick Dry Fast Low.wav
475,192,55290,1,0,0:0:0:0:
182,192,55474,1,0,0:0:0:40:LR_Snare Hit Hard.wav
402,192,55474,128,0,55658:0:0:0:0:
36,192,55474,1,0,0:0:0:0:
475,192,55658,128,0,55842:0:0:0:0:
256,192,55658,1,0,0:0:0:0:
36,192,55842,128,0,56578:0:0:0:0:
182,192,55842,128,0,56026:0:0:0:70:LR_HiHat SClick.wav
329,192,55842,1,0,0:0:0:70:LR_Kick Dry Fast Low.wav
256,192,56026,128,0,56210:0:0:0:0:
475,192,56210,1,0,0:0:0:0:
329,192,56210,128,0,56394:0:0:0:0:
109,192,56210,1,0,0:0:0:40:LR_Snare Hit Hard.wav
402,192,56394,128,0,56578:0:0:0:0:
182,192,56394,1,0,0:0:0:0:
109,192,56578,1,0,0:0:0:70:LR_Kick Dry Fast Low.wav
256,192,56578,1,0,0:0:0:70:LR_HiHat SClick.wav
475,192,56578,128,0,56946:0:0:0:0:
329,192,56762,1,0,0:0:0:0:
182,192,56762,1,0,0:0:0:70:LR_Kick Dry Fast Low.wav
36,192,56946,1,0,0:0:0:0:
402,192,56946,1,0,0:0:0:40:LR_Snare Hit Hard.wav
109,192,56946,128,0,57314:0:0:0:0:
256,192,56946,1,0,0:0:0:0:
475,192,57130,1,0,0:0:0:0:
329,192,57130,1,0,0:0:0:0:
36,192,57314,128,0,58050:0:0:0:0:
402,192,57314,1,0,0:0:0:70:LR_Kick Dry Fast Low.wav
182,192,57314,1,0,0:0:0:70:LR_HiHat SClick.wav
256,192,57314,1,0,0:0:0:0:
402,192,57682,128,0,57866:0:0:0:0:
109,192,57682,1,0,0:0:0:0:
256,192,57682,1,0,0:0:0:40:LR_Snare Hit Hard.wav
329,192,57866,128,0,58050:0:0:0:0:
182,192,57866,1,0,0:0:0:0:
256,192,58050,128,0,58234:0:0:0:0:
109,192,58050,1,0,0:0:0:70:LR_Kick Dry Fast Low.wav
475,192,58050,1,0,0:0:0:70:LR_HiHat SClick.wav
182,192,58234,128,0,58418:0:0:0:0:
36,192,58234,1,0,0:0:0:0:
402,192,58234,1,0,0:0:0:70:LR_Kick Dry Fast Low.wav
109,192,58418,128,0,58602:0:0:0:0:
475,192,58418,1,0,0:0:0:0:
329,192,58418,1,0,0:0:0:40:LR_Snare Hit Hard.wav
36,192,58602,128,0,58786:0:0:0:0:
256,192,58602,1,0,0:0:0:0:
182,192,58786,1,0,0:0:0:70:LR_Kick Dry Fast Low.wav
402,192,58786,128,0,59523:0:0:0:0:
475,192,58786,1,0,0:0:0:0:
329,192,58786,1,0,0:0:0:70:LR_HiHat SClick.wav
329,192,59155,1,0,0:0:0:40:LR_Snare Hit Hard.wav
109,192,59155,1,0,0:0:0:0:
256,192,59339,128,0,59523:0:0:0:0:
182,192,59339,1,0,0:0:0:0:
475,192,59523,128,0,59891:0:0:0:0:
36,192,59523,1,0,0:0:0:70:LR_HiHat SClick.wav
109,192,59523,1,0,0:0:0:70:LR_Kick Dry Fast Low.wav
329,192,59707,128,0,59891:0:0:0:0:
256,192,59707,1,0,0:0:0:70:LR_Kick Dry Fast Low.wav
109,192,59891,1,0,0:0:0:0:
182,192,59891,1,0,0:0:0:40:LR_Snare Hit Hard.wav
402,192,59891,128,0,60259:0:0:0:0:
256,192,60075,128,0,60259:0:0:0:0:
475,192,60259,1,0,0:0:0:70:LR_Kick Dry Fast Low.wav
36,192,60259,1,0,0:0:0:0:
109,192,60259,128,0,60811:0:0:0:0:
329,192,60259,1,0,0:0:0:70:LR_HiHat SClick.wav
475,192,60627,128,0,60995:0:0:0:0:
329,192,60627,1,0,0:0:0:40:LR_Snare Hit Hard.wav
182,192,60627,1,0,0:0:0:0:
402,192,60811,128,0,61179:0:0:0:0:
36,192,60811,1,0,0:0:0:0:
329,192,60995,128,0,61363:0:0:0:0:
256,192,60995,1,0,0:0:0:70:LR_HiHat SClick.wav
109,192,60995,1,0,0:0:0:70:LR_Kick Dry Fast Low.wav
36,192,61179,128,0,61547:0:0:0:0:
475,192,61179,1,0,0:0:0:0:
182,192,61179,1,0,0:0:0:70:LR_Kick Dry Fast Low.wav
109,192,61363,128,0,61731:0:0:0:0:
256,192,61363,1,0,0:0:0:40:LR_Snare Hit Hard.wav
402,192,61363,1,0,0:0:0:0:
329,192,61547,1,0,0:0:0:0:
182,192,61547,128,0,61731:0:0:0:0:
256,192,61731,128,0,62283:0:0:0:0:
402,192,61731,1,0,0:0:0:70:LR_HiHat SClick.wav
36,192,61731,1,0,0:0:0:0:
475,192,61731,1,0,0:0:0:70:LR_Kick Dry Fast Low.wav
182,192,62099,1,0,0:0:0:0:
402,192,62099,1,0,0:0:0:40:LR_Snare Hit Hard.wav
36,192,62099,1,0,0:0:0:0:
109,192,62283,1,0,0:0:0:0:
475,192,62283,128,0,62467:0:0:0:0:
36,192,62467,128,0,62836:0:0:0:0:
329,192,62467,128,0,62651:0:0:0:0:
182,192,62467,1,0,0:0:0:70:LR_Kick Dry Fast Low.wav
402,192,62467,1,0,0:0:0:70:LR_HiHat SClick.wav
182,192,62651,128,0,62836:0:0:0:70:LR_Kick Dry Fast Low.wav
109,192,62836,128,0,63204:0:0:0:0:
402,192,62836,128,0,63020:0:0:0:0:
256,192,62836,1,0,0:0:0:0:
475,192,62836,1,0,0:0:0:40:LR_Snare Hit Hard.wav
256,192,63020,128,0,63204:0:0:0:0:
182,192,63204,128,0,63940:0:0:0:0:
329,192,63204,1,0,0:0:0:70:LR_HiHat SClick.wav
36,192,63204,1,0,0:0:0:0:
475,192,63204,1,0,0:0:0:70:LR_Kick Dry Fast Low.wav
36,192,63572,128,0,63940:0:0:0:0:
256,192,63572,1,0,0:0:0:40:LR_Snare Hit Hard.wav
402,192,63572,1,0,0:0:0:0:
475,192,63756,128,0,64124:0:0:0:0:
329,192,63756,1,0,0:0:0:0:
109,192,63940,128,0,64124:0:0:0:70:LR_Kick Dry Fast Low.wav
256,192,63940,1,0,0:0:0:70:LR_HiHat SClick.wav
182,192,64124,128,0,64308:0:0:0:0:
329,192,64124,1,0,0:0:0:70:LR_Kick Dry Fast Low.wav
256,192,64308,128,0,64492:0:0:0:0:
402,192,64308,1,0,0:0:0:40:LR_Snare Hit Hard.wav
36,192,64308,1,0,0:0:0:0:
329,192,64492,128,0,64676:0:0:0:0:
109,192,64492,1,0,0:0:0:0:
402,192,64676,128,0,65412:0:0:0:0:
36,192,64676,128,0,65044:0:0:0:0:
256,192,64676,128,0,64860:0:0:0:70:LR_Kick Dry Fast Low.wav
475,192,64676,1,0,0:0:0:70:LR_HiHat SClick.wav
182,192,64860,128,0,65044:0:0:0:0:
109,192,65044,128,0,65412:0:0:0:0:
329,192,65044,128,0,65228:0:0:0:0:
475,192,65044,1,0,0:0:0:40:LR_Snare Hit Hard.wav
256,192,65228,128,0,65412:0:0:0:0:
182,192,65412,128,0,66148:0:0:0:0:
36,192,65412,1,0,0:0:0:70:LR_HiHat SClick.wav
475,192,65412,1,0,0:0:0:70:LR_Kick Dry Fast Low.wav
329,192,65596,1,0,0:0:0:40:LR_Snare Hit Hard.wav
256,192,65596,1,0,0:0:0:0:
36,192,65780,128,0,66148:0:0:0:0:
109,192,65780,1,0,0:0:0:0:
475,192,65780,1,0,0:0:0:70:LR_Kick Dry Fast Low.wav
402,192,65872,1,0,0:0:0:70:LR_Kick Dry Fast Low.wav
329,192,65964,1,0,0:0:0:70:LR_Kick Dry Fast Low.wav
256,192,66056,1,0,0:0:0:70:LR_Kick Dry Fast Low.wav
329,192,66148,1,0,0:0:0:70:LR_HiHat SClick.wav
402,192,66148,1,0,0:0:0:20:LR_CymbalRDW.wav
475,192,66148,128,0,67069:0:0:0:0:
109,192,66148,1,0,0:0:0:70:LR_Kick Dry Fast Low.wav
402,192,66517,1,0,0:0:0:0:
36,192,66517,1,0,0:0:0:0:
256,192,66517,1,0,0:0:0:40:LR_Snare Hit Hard.wav
329,192,66701,128,0,67069:0:0:0:0:
109,192,66701,1,0,0:0:0:0:
36,192,66885,128,0,67069:0:0:0:70:LR_HiHat SClick.wav
182,192,66885,1,0,0:0:0:70:LR_Kick Dry Fast Low.wav
109,192,67069,128,0,67253:0:0:0:0:
256,192,67069,1,0,0:0:0:70:LR_Kick Dry Fast Low.wav
182,192,67253,128,0,67437:0:0:0:0:
329,192,67253,1,0,0:0:0:0:
475,192,67253,1,0,0:0:0:40:LR_Snare Hit Hard.wav
256,192,67437,128,0,67621:0:0:0:0:
402,192,67437,1,0,0:0:0:0:
36,192,67621,128,0,68541:0:0:0:0:
475,192,67621,1,0,0:0:0:0:
329,192,67621,1,0,0:0:0:70:LR_Kick Dry Fast Low.wav
109,192,67621,1,0,0:0:0:70:LR_HiHat SClick.wav
475,192,67989,1,0,0:0:0:0:
109,192,67989,1,0,0:0:0:0:
256,192,67989,1,0,0:0:0:40:LR_Snare Hit Hard.wav
182,192,68173,128,0,68541:0:0:0:0:
402,192,68173,1,0,0:0:0:0:
475,192,68357,128,0,68541:0:0:0:70:LR_HiHat SClick.wav
329,192,68357,1,0,0:0:0:70:LR_Kick Dry Fast Low.wav
402,192,68541,128,0,68725:0:0:0:0:
256,192,68541,1,0,0:0:0:70:LR_Kick Dry Fast Low.wav
329,192,68725,128,0,68909:0:0:0:0:
182,192,68725,1,0,0:0:0:40:LR_Snare Hit Hard.wav
36,192,68725,1,0,0:0:0:0:
256,192,68909,128,0,69093:0:0:0:0:
109,192,68909,1,0,0:0:0:0:
182,192,69093,1,0,0:0:0:70:LR_Kick Dry Fast Low.wav
36,192,69093,1,0,0:0:0:0:
475,192,69093,1,0,0:0:0:70:LR_HiHat SClick.wav
402,192,69093,128,0,69829:0:0:0:0:
256,192,69277,1,0,0:0:0:0:
329,192,69461,1,0,0:0:0:0:
109,192,69461,1,0,0:0:0:0:
475,192,69461,1,0,0:0:0:40:LR_Snare Hit Hard.wav
256,192,69645,128,0,69829:0:0:0:0:
36,192,69645,1,0,0:0:0:0:
109,192,69829,128,0,70198:0:0:0:0:
182,192,69829,1,0,0:0:0:70:LR_Kick Dry Fast Low.wav
329,192,69829,1,0,0:0:0:70:LR_HiHat SClick.wav
256,192,70013,1,0,0:0:0:70:LR_Kick Dry Fast Low.wav
402,192,70013,1,0,0:0:0:0:
182,192,70198,128,0,70566:0:0:0:0:
329,192,70198,1,0,0:0:0:0:
475,192,70198,1,0,0:0:0:40:LR_Snare Hit Hard.wav
402,192,70382,1,0,0:0:0:0:
36,192,70566,128,0,71302:0:0:0:0:
329,192,70566,1,0,0:0:0:70:LR_Kick Dry Fast Low.wav
109,192,70566,1,0,0:0:0:70:LR_HiHat SClick.wav
475,192,70566,1,0,0:0:0:0:
256,192,70750,1,0,0:0:0:0:
402,192,70934,128,0,71670:0:0:0:0:
475,192,70934,1,0,0:0:0:40:LR_Snare Hit Hard.wav
182,192,70934,1,0,0:0:0:0:
256,192,71118,1,0,0:0:0:0:
182,192,71302,128,0,72038:0:0:0:0:
329,192,71302,1,0,0:0:0:70:LR_Kick Dry Fast Low.wav
475,192,71302,1,0,0:0:0:70:LR_HiHat SClick.wav
256,192,71486,1,0,0:0:0:70:LR_Kick Dry Fast Low.wav
36,192,71486,1,0,0:0:0:0:
475,192,71670,1,0,0:0:0:0:
109,192,71670,1,0,0:0:0:40:LR_Snare Hit Hard.wav
402,192,71854,1,0,0:0:0:0:
256,192,71854,1,0,0:0:0:0:
475,192,72038,1,0,0:0:0:70:LR_HiHat SClick.wav
109,192,72038,1,0,0:0:0:70:LR_Kick Dry Fast Low.wav
36,192,72038,1,0,0:0:0:20:LR_CymbalRDW.wav
329,192,72038,128,0,73510:0:0:0:0:
109,192,72406,1,0,0:0:0:0:
256,192,72406,1,0,0:0:0:0:
402,192,72406,1,0,0:0:0:40:LR_Snare Hit Hard.wav
475,192,72590,1,0,0:0:0:0:
182,192,72590,1,0,0:0:0:0:
109,192,72774,1,0,0:0:0:70:LR_Kick Dry Fast Low.wav
256,192,72774,1,0,0:0:0:70:LR_HiHat SClick.wav
402,192,72958,1,0,0:0:0:0:
36,192,72958,1,0,0:0:0:70:LR_Kick Dry Fast Low.wav
109,192,73142,1,0,0:0:0:0:
475,192,73142,1,0,0:0:0:40:LR_Snare Hit Hard.wav
256,192,73142,1,0,0:0:0:0:
182,192,73326,1,0,0:0:0:0:
402,192,73326,1,0,0:0:0:0:
256,192,73510,1,0,0:0:0:70:LR_HiHat SClick.wav
475,192,73510,1,0,0:0:0:20:LR_CymbalRDW.wav
36,192,73510,1,0,0:0:0:70:LR_Kick Dry Fast Low.wav
109,192,73510,128,0,74983:0:0:0:0:
402,192,73878,1,0,0:0:0:0:
329,192,73878,1,0,0:0:0:40:LR_Snare Hit Hard.wav
182,192,73878,1,0,0:0:0:0:
475,192,74063,1,0,0:0:0:0:
36,192,74063,1,0,0:0:0:0:
402,192,74247,1,0,0:0:0:70:LR_Kick Dry Fast Low.wav
329,192,74247,1,0,0:0:0:70:LR_HiHat SClick.wav
256,192,74431,1,0,0:0:0:0:
475,192,74431,1,0,0:0:0:70:LR_Kick Dry Fast Low.wav
402,192,74615,1,0,0:0:0:40:LR_Snare Hit Hard.wav
182,192,74615,1,0,0:0:0:0:
36,192,74615,1,0,0:0:0:0:
329,192,74799,1,0,0:0:0:0:
475,192,74983,128,0,76087:0:0:0:0:
36,192,74983,1,0,0:0:0:20:LR_CymbalRDW.wav
182,192,74983,1,0,0:0:0:70:LR_HiHat SClick.wav
402,192,74983,1,0,0:0:0:70:LR_Kick Dry Fast Low.wav
256,192,75167,1,0,0:0:0:0:
329,192,75351,1,0,0:0:0:40:LR_Snare Hit Hard.wav
109,192,75351,1,0,0:0:0:0:
182,192,75535,128,0,75719:0:0:0:0:
402,192,75535,1,0,0:0:0:0:
109,192,75719,128,0,76455:0:0:0:0:
36,192,75719,1,0,0:0:0:70:LR_HiHat SClick.wav
256,192,75719,1,0,0:0:0:40:LR_Snare Hit Hard.wav
182,192,75903,128,0,76087:0:0:0:0:
329,192,75903,1,0,0:0:0:70:LR_Kick Dry Fast Low.wav
256,192,76087,128,0,76271:0:0:0:0:
402,192,76087,1,0,0:0:0:40:LR_Snare Hit Hard.wav
36,192,76087,1,0,0:0:0:0:
329,192,76271,128,0,76455:0:0:0:0:
475,192,76271,1,0,0:0:0:70:LR_Kick Dry Fast Low.wav
402,192,76455,128,0,77191:0:0:0:0:
36,192,76455,128,0,76823:0:0:0:0:
256,192,76455,128,0,76639:0:0:0:40:LR_Snare Hit Hard.wav
182,192,76639,128,0,76823:0:0:0:70:LR_Kick Dry Fast Low.wav
109,192,76823,128,0,77191:0:0:0:0:
329,192,76823,128,0,77007:0:0:0:0:
475,192,76823,1,0,0:0:0:40:LR_Snare Hit Hard.wav
256,192,77007,128,0,77191:0:0:0:70:LR_Kick Dry Fast Low.wav
182,192,77191,128,0,77928:0:0:0:0:
36,192,77191,1,0,0:0:0:70:LR_HiHat SClick.wav
475,192,77191,1,0,0:0:0:40:LR_Snare Hit Hard.wav
402,192,77375,1,0,0:0:0:20:LR_Snare Hit Hard.wav
329,192,77467,1,0,0:0:0:20:LR_Snare Hit Hard.wav
36,192,77559,128,0,77928:0:0:0:0:
109,192,77559,1,0,0:0:0:0:
256,192,77559,1,0,0:0:0:20:LR_Snare Hit Hard.wav
475,192,77651,1,0,0:0:0:70:LR_Kick Dry Fast Low.wav
402,192,77744,1,0,0:0:0:70:LR_Kick Dry Fast Low.wav
329,192,77836,1,0,0:0:0:70:LR_Kick Dry Fast Low.wav
109,192,77928,1,0,0:0:0:70:LR_HiHat SClick.wav
402,192,77928,1,0,0:0:0:20:LR_CymbalRDW.wav
475,192,77928,128,0,78664:0:0:0:70:LR_HiHat SClick.wav
256,192,77928,1,0,0:0:0:70:LR_Kick Dry Fast Low.wav
256,192,78296,1,0,0:0:0:40:LR_Snare Hit Hard.wav
402,192,78296,1,0,0:0:0:0:
109,192,78296,128,0,78480:0:0:0:0:
36,192,78480,128,0,78848:0:0:0:0:
329,192,78480,1,0,0:0:0:0:
182,192,78664,1,0,0:0:0:70:LR_HiHat SClick.wav
256,192,78664,128,0,78848:0:0:0:0:
402,192,78664,1,0,0:0:0:70:LR_Kick Dry Fast Low.wav
329,192,78848,128,0,79032:0:0:0:0:
475,192,78848,1,0,0:0:0:70:LR_Kick Dry Fast Low.wav
109,192,78848,1,0,0:0:0:0:
402,192,79032,128,0,79216:0:0:0:0:
182,192,79032,1,0,0:0:0:40:LR_Snare Hit Hard.wav
36,192,79032,1,0,0:0:0:0:
475,192,79216,128,0,79400:0:0:0:0:
256,192,79216,1,0,0:0:0:0:
182,192,79400,128,0,79584:0:0:0:70:LR_Kick Dry Fast Low.wav
329,192,79400,1,0,0:0:0:70:LR_HiHat SClick.wav
36,192,79400,128,0,80136:0:0:0:0:
256,192,79584,128,0,79768:0:0:0:0:
475,192,79768,1,0,0:0:0:40:LR_Snare Hit Hard.wav
329,192,79768,128,0,79952:0:0:0:0:
109,192,79768,1,0,0:0:0:0:
402,192,79952,128,0,80136:0:0:0:0:
182,192,79952,1,0,0:0:0:0:
475,192,80136,128,0,80504:0:0:0:0:
256,192,80136,1,0,0:0:0:70:LR_HiHat SClick.wav
109,192,80136,1,0,0:0:0:70:LR_Kick Dry Fast Low.wav
329,192,80320,1,0,0:0:0:0:
182,192,80320,1,0,0:0:0:70:LR_Kick Dry Fast Low.wav
256,192,80504,1,0,0:0:0:0:
402,192,80504,1,0,0:0:0:40:LR_Snare Hit Hard.wav
36,192,80504,1,0,0:0:0:0:
109,192,80504,128,0,80872:0:0:0:0:
475,192,80688,1,0,0:0:0:0:
329,192,80688,1,0,0:0:0:0:
182,192,80872,1,0,0:0:0:0:
36,192,80872,128,0,81609:0:0:0:0:
402,192,80872,1,0,0:0:0:70:LR_Kick Dry Fast Low.wav
256,192,80872,1,0,0:0:0:70:LR_HiHat SClick.wav
256,192,81240,1,0,0:0:0:0:
402,192,81240,128,0,81424:0:0:0:0:
109,192,81240,1,0,0:0:0:40:LR_Snare Hit Hard.wav
329,192,81424,128,0,81609:0:0:0:0:
182,192,81424,1,0,0:0:0:0:
256,192,81609,128,0,81793:0:0:0:0:
109,192,81609,1,0,0:0:0:70:LR_Kick Dry Fast Low.wav
475,192,81609,1,0,0:0:0:70:LR_HiHat SClick.wav
36,192,81793,1,0,0:0:0:70:LR_Kick Dry Fast Low.wav
182,192,81793,128,0,81977:0:0:0:0:
402,192,81793,1,0,0:0:0:0:
329,192,81977,1,0,0:0:0:0:
109,192,81977,128,0,82161:0:0:0:0:
475,192,81977,1,0,0:0:0:40:LR_Snare Hit Hard.wav
36,192,82161,128,0,82345:0:0:0:0:
256,192,82161,1,0,0:0:0:0:
182,192,82345,1,0,0:0:0:70:LR_HiHat SClick.wav
475,192,82345,1,0,0:0:0:0:
402,192,82345,128,0,82897:0:0:0:0:
329,192,82345,1,0,0:0:0:70:LR_Kick Dry Fast Low.wav
256,192,82713,1,0,0:0:0:0:
36,192,82713,1,0,0:0:0:40:LR_Snare Hit Hard.wav
329,192,82897,128,0,83449:0:0:0:0:
182,192,82897,1,0,0:0:0:0:
475,192,83081,1,0,0:0:0:70:LR_HiHat SClick.wav
109,192,83081,1,0,0:0:0:70:LR_Kick Dry Fast Low.wav
256,192,83081,128,0,83265:0:0:0:0:
36,192,83265,128,0,83449:0:0:0:0:
182,192,83265,1,0,0:0:0:70:LR_Kick Dry Fast Low.wav
402,192,83265,1,0,0:0:0:0:
256,192,83449,1,0,0:0:0:0:
475,192,83449,1,0,0:0:0:40:LR_Snare Hit Hard.wav
109,192,83449,128,0,83633:0:0:0:0:
182,192,83633,128,0,83817:0:0:0:0:
329,192,83633,1,0,0:0:0:0:
475,192,83817,128,0,84369:0:0:0:0:
36,192,83817,1,0,0:0:0:0:
402,192,83817,1,0,0:0:0:70:LR_HiHat SClick.wav
256,192,83817,1,0,0:0:0:70:LR_Kick Dry Fast Low.wav
109,192,84185,1,0,0:0:0:40:LR_Snare Hit Hard.wav
256,192,84185,1,0,0:0:0:0:
182,192,84369,128,0,84921:0:0:0:0:
329,192,84369,1,0,0:0:0:0:
36,192,84553,1,0,0:0:0:70:LR_HiHat SClick.wav
256,192,84553,128,0,84737:0:0:0:0:
402,192,84553,1,0,0:0:0:70:LR_Kick Dry Fast Low.wav
329,192,84737,1,0,0:0:0:70:LR_Kick Dry Fast Low.wav
109,192,84737,1,0,0:0:0:0:
475,192,84737,128,0,84921:0:0:0:0:
256,192,84921,1,0,0:0:0:0:
402,192,84921,128,0,85105:0:0:0:0:
36,192,84921,1,0,0:0:0:40:LR_Snare Hit Hard.wav
182,192,85105,1,0,0:0:0:0:
329,192,85105,128,0,85290:0:0:0:0:
109,192,85290,1,0,0:0:0:70:LR_Kick Dry Fast Low.wav
256,192,85290,128,0,86026:0:0:0:0:
475,192,85290,1,0,0:0:0:70:LR_HiHat SClick.wav
36,192,85290,1,0,0:0:0:0:
475,192,85658,1,0,0:0:0:40:LR_Snare Hit Hard.wav
36,192,85658,1,0,0:0:0:0:
329,192,85658,1,0,0:0:0:0:
109,192,85842,1,0,0:0:0:0:
402,192,85842,1,0,0:0:0:0:
182,192,86026,1,0,0:0:0:70:LR_Kick Dry Fast Low.wav
36,192,86026,128,0,86762:0:0:0:0:
475,192,86026,1,0,0:0:0:0:
329,192,86026,1,0,0:0:0:70:LR_HiHat SClick.wav
256,192,86210,1,0,0:0:0:70:LR_Kick Dry Fast Low.wav
402,192,86210,1,0,0:0:0:0:
475,192,86394,1,0,0:0:0:40:LR_Snare Hit Hard.wav
329,192,86394,1,0,0:0:0:0:
109,192,86394,1,0,0:0:0:0:
182,192,86578,1,0,0:0:0:0:
329,192,86762,1,0,0:0:0:70:LR_Kick Dry Fast Low.wav
475,192,86762,1,0,0:0:0:70:LR_HiHat SClick.wav
256,192,86762,128,0,87498:0:0:0:0:
109,192,86762,1,0,0:0:0:0:
329,192,87130,1,0,0:0:0:0:
475,192,87130,1,0,0:0:0:40:LR_Snare Hit Hard.wav
109,192,87130,1,0,0:0:0:0:
402,192,87314,128,0,87498:0:0:0:0:
36,192,87498,128,0,87866:0:0:0:0:
329,192,87498,1,0,0:0:0:70:LR_HiHat SClick.wav
182,192,87498,1,0,0:0:0:70:LR_Kick Dry Fast Low.wav
256,192,87682,1,0,0:0:0:70:LR_Kick Dry Fast Low.wav
402,192,87682,1,0,0:0:0:0:
182,192,87866,128,0,88602:0:0:0:0:
475,192,87866,1,0,0:0:0:40:LR_Snare Hit Hard.wav
109,192,87866,1,0,0:0:0:0:
329,192,87866,1,0,0:0:0:0:
256,192,88050,1,0,0:0:0:0:
329,192,88142,1,0,0:0:0:0:
402,192,88234,128,0,88971:0:0:0:0:
475,192,88234,1,0,0:0:0:70:LR_HiHat SClick.wav
109,192,88234,1,0,0:0:0:70:LR_Kick Dry Fast Low.wav
36,192,88234,1,0,0:0:0:0:
256,192,88602,128,0,89339:0:0:0:0:
36,192,88602,1,0,0:0:0:40:LR_Snare Hit Hard.wav
329,192,88602,1,0,0:0:0:0:
182,192,88786,1,0,0:0:0:0:
109,192,88971,128,0,89707:0:0:0:0:
475,192,88971,1,0,0:0:0:70:LR_HiHat SClick.wav
329,192,88971,1,0,0:0:0:70:LR_Kick Dry Fast Low.wav
402,192,89155,1,0,0:0:0:40:LR_Snare Hit Hard.wav
329,192,89247,1,0,0:0:0:40:LR_Snare Hit Hard.wav
36,192,89339,1,0,0:0:0:0:
182,192,89339,1,0,0:0:0:70:LR_Kick Dry Fast Low.wav
329,192,89523,1,0,0:0:0:70:LR_Kick Dry Fast Low.wav
256,192,89615,1,0,0:0:0:70:LR_Kick Dry Fast Low.wav
36,192,89707,1,0,0:0:0:0:
182,192,89707,1,0,0:0:0:70:LR_Kick Dry Fast Low.wav
402,192,89707,1,0,0:0:0:70:LR_HiHat SClick.wav
475,192,89707,1,0,0:0:0:20:LR_CymbalRDW.wav
329,192,89891,1,0,0:0:0:0:
256,192,89891,1,0,0:0:0:0:
182,192,90075,1,0,0:0:0:0:
402,192,90075,1,0,0:0:0:40:LR_Snare Hit Hard.wav
36,192,90075,1,0,0:0:0:0:
256,192,90259,1,0,0:0:0:0:
109,192,90259,1,0,0:0:0:0:
329,192,90443,1,0,0:0:0:70:LR_Kick Dry Fast Low.wav
402,192,90443,1,0,0:0:0:70:LR_HiHat SClick.wav
329,192,90627,1,0,0:0:0:70:LR_Kick Dry Fast Low.wav
402,192,90627,1,0,0:0:0:0:
182,192,90811,1,0,0:0:0:40:LR_Snare Hit Hard.wav
36,192,90811,1,0,0:0:0:0:
475,192,90811,1,0,0:0:0:0:
256,192,90995,1,0,0:0:0:0:
109,192,91179,1,0,0:0:0:0:
329,192,91179,1,0,0:0:0:70:LR_Kick Dry Fast Low.wav
475,192,91179,1,0,0:0:0:70:LR_HiHat SClick.wav
36,192,91179,1,0,0:0:0:0:
402,192,91547,1,0,0:0:0:0:
256,192,91547,1,0,0:0:0:0:
36,192,91547,1,0,0:0:0:40:LR_Snare Hit Hard.wav
182,192,91731,1,0,0:0:0:0:
402,192,91915,1,0,0:0:0:70:LR_HiHat SClick.wav
329,192,91915,1,0,0:0:0:70:LR_Kick Dry Fast Low.wav
109,192,91915,1,0,0:0:0:0:
402,192,92099,1,0,0:0:0:0:
329,192,92099,1,0,0:0:0:70:LR_Kick Dry Fast Low.wav
475,192,92283,1,0,0:0:0:0:
256,192,92283,1,0,0:0:0:40:LR_Snare Hit Hard.wav
36,192,92283,1,0,0:0:0:0:
182,192,92283,128,0,92651:0:0:0:0:
329,192,92467,1,0,0:0:0:0:
402,192,92651,128,0,93020:0:0:0:0:
475,192,92651,1,0,0:0:0:70:LR_HiHat SClick.wav
109,192,92651,1,0,0:0:0:70:LR_Kick Dry Fast Low.wav
36,192,92651,1,0,0:0:0:0:
256,192,92836,1,0,0:0:0:0:
109,192,93020,128,0,93388:0:0:0:0:
329,192,93020,1,0,0:0:0:40:LR_Snare Hit Hard.wav
36,192,93020,1,0,0:0:0:0:
256,192,93204,1,0,0:0:0:0:
475,192,93204,1,0,0:0:0:0:
329,192,93388,128,0,93756:0:0:0:0:
182,192,93388,1,0,0:0:0:70:LR_HiHat SClick.wav
402,192,93388,1,0,0:0:0:70:LR_Kick Dry Fast Low.wav
36,192,93388,1,0,0:0:0:0:
402,192,93572,1,0,0:0:0:70:LR_Kick Dry Fast Low.wav
109,192,93572,1,0,0:0:0:0:
182,192,93756,128,0,94124:0:0:0:0:
475,192,93756,1,0,0:0:0:40:LR_Snare Hit Hard.wav
256,192,93756,1,0,0:0:0:0:
36,192,93756,1,0,0:0:0:0:
402,192,93940,1,0,0:0:0:0:
36,192,94124,128,0,94860:0:0:0:0:
329,192,94124,1,0,0:0:0:70:LR_HiHat SClick.wav
256,192,94124,1,0,0:0:0:70:LR_Kick Dry Fast Low.wav
475,192,94124,1,0,0:0:0:0:
256,192,94492,128,0,95228:0:0:0:0:
182,192,94492,1,0,0:0:0:0:
109,192,94492,1,0,0:0:0:40:LR_Snare Hit Hard.wav
329,192,94676,1,0,0:0:0:0:
475,192,94860,128,0,95596:0:0:0:0:
402,192,94860,1,0,0:0:0:70:LR_Kick Dry Fast Low.wav
182,192,94860,1,0,0:0:0:70:LR_HiHat SClick.wav
109,192,95044,1,0,0:0:0:70:LR_Kick Dry Fast Low.wav
329,192,95228,1,0,0:0:0:40:LR_Snare Hit Hard.wav
36,192,95228,1,0,0:0:0:0:
402,192,95228,1,0,0:0:0:0:
256,192,95412,1,0,0:0:0:70:LR_Kick Dry Fast Low.wav
36,192,95596,1,0,0:0:0:70:LR_Kick Dry Fast Low.wav
329,192,95596,1,0,0:0:0:40:LR_Snare Hit Hard.wav
182,192,95596,1,0,0:0:0:70:LR_HiHat SClick.wav
109,192,95780,1,0,0:0:0:70:LR_Kick Dry Fast Low.wav
109,192,95964,1,0,0:0:0:70:LR_Kick Dry Fast Low.wav
475,192,96148,1,0,0:0:0:40:LR_Snare Hit Hard.wav
182,192,96148,1,0,0:0:0:70:LR_Kick Dry Fast Low.wav
329,192,96148,1,0,0:0:0:70:LR_HiHat SClick.wav
402,192,96332,1,0,0:0:0:70:LR_Kick Dry Fast Low.wav
402,192,96516,1,0,0:0:0:70:LR_Kick Dry Fast Low.wav
182,192,96700,1,0,0:0:0:70:LR_HiHat SClick.wav
329,192,96700,1,0,0:0:0:40:LR_Snare Hit Hard.wav
475,192,96700,1,0,0:0:0:70:LR_Kick Dry Fast Low.wav
36,192,96700,1,0,0:0:0:0:
256,192,96884,1,0,0:0:0:70:LR_Kick Dry Fast Low.wav
256,192,97068,1,0,0:0:0:70:LR_Kick Dry Fast Low.wav
36,192,97252,1,0,0:0:0:70:LR_Kick Dry Fast Low.wav
182,192,97252,1,0,0:0:0:70:LR_HiHat SClick.wav
402,192,97252,1,0,0:0:0:40:LR_Snare Hit Hard.wav
109,192,97252,1,0,0:0:0:0:
329,192,97252,1,0,0:0:0:0:
475,192,97252,1,0,0:0:0:0:
475,192,99276,1,0,0:0:0:40:LR_Snare Hit Hard.wav
329,192,99276,128,0,99369:0:0:0:0:
402,192,99461,1,0,0:0:0:70:LR_Kick Dry Fast Low.wav
256,192,99461,128,0,99553:0:0:0:0:
329,192,99645,1,0,0:0:0:70:LR_Kick Dry Fast Low.wav
182,192,99645,128,0,99737:0:0:0:0:
402,192,99828,128,0,101024:0:0:0:0:
109,192,99828,128,0,100840:0:0:0:0:
256,192,99828,1,0,0:0:0:20:LR_CymbalRDW.wav
36,192,99828,1,0,0:0:0:0:
475,192,99828,1,0,0:0:0:70:LR_Kick Dry Fast Low.wav
182,192,100196,1,0,0:0:0:0:
329,192,100196,1,0,0:0:0:70:LR_Kick Dry Fast Low.wav
256,192,100380,1,0,0:0:0:20:LR_CymbalFSU.wav
36,192,100380,1,0,0:0:0:0:
475,192,100380,1,0,0:0:0:40:LR_Snare Hit Hard.wav
256,192,100748,1,0,0:0:0:20:LR_CymbalFSU.wav
36,192,100748,1,0,0:0:0:70:LR_Kick Dry Fast Low.wav
329,192,100932,1,0,0:0:0:70:LR_Kick Dry Fast Low.wav
109,192,100932,128,0,101024:0:0:0:0:
402,192,101116,1,0,0:0:0:40:LR_Snare Hit Hard.wav
182,192,101116,128,0,101208:0:0:0:0:
475,192,101300,1,0,0:0:0:70:LR_Kick Dry Fast Low.wav
329,192,101300,128,0,102496:0:0:0:0:
256,192,101300,1,0,0:0:0:0:
36,192,101300,128,0,102312:0:0:0:0:
109,192,101300,1,0,0:0:0:20:LR_CymbalRDW.wav
402,192,101668,1,0,0:0:0:0:
182,192,101668,1,0,0:0:0:70:LR_Kick Dry Fast Low.wav
109,192,101852,1,0,0:0:0:0:
256,192,101852,1,0,0:0:0:20:LR_CymbalFSU.wav
475,192,101852,1,0,0:0:0:40:LR_Snare Hit Hard.wav
475,192,102220,1,0,0:0:0:70:LR_Kick Dry Fast Low.wav
182,192,102220,1,0,0:0:0:20:LR_CymbalFSU.wav
256,192,102404,1,0,0:0:0:70:LR_Kick Dry Fast Low.wav
36,192,102404,128,0,102496:0:0:0:0:
329,192,102588,1,0,0:0:0:40:LR_Snare Hit Hard.wav
109,192,102588,128,0,102680:0:0:0:0:
182,192,102772,128,0,103693:0:0:0:0:
402,192,102772,1,0,0:0:0:70:LR_Kick Dry Fast Low.wav
256,192,102772,1,0,0:0:0:0:
475,192,102772,128,0,103693:0:0:0:0:
36,192,102772,1,0,0:0:0:20:LR_CymbalRDW.wav
329,192,103140,1,0,0:0:0:70:LR_Kick Dry Fast Low.wav
109,192,103140,1,0,0:0:0:0:
36,192,103324,1,0,0:0:0:0:
402,192,103324,1,0,0:0:0:40:LR_Snare Hit Hard.wav
256,192,103324,1,0,0:0:0:20:LR_CymbalFSU.wav
402,192,103693,128,0,103785:0:0:0:0:
109,192,103693,128,0,103785:0:0:0:0:
256,192,103693,1,0,0:0:0:70:LR_Kick Dry Fast Low.wav
109,192,103877,128,0,104245:0:0:0:70:LR_Kick Dry Fast Low.wav
402,192,103877,128,0,104245:0:0:0:20:LR_CymbalFSU.wav
36,192,104061,1,0,0:0:0:0:
256,192,104061,1,0,0:0:0:40:LR_Snare Hit Hard.wav
475,192,104061,1,0,0:0:0:0:
329,192,104245,1,0,0:0:0:20:LR_CymbalRDW.wav
182,192,104245,1,0,0:0:0:70:LR_Kick Dry Fast Low.wav
475,192,104245,128,0,104797:0:0:0:0:
36,192,104245,128,0,104797:0:0:0:0:
256,192,104613,128,0,104797:0:0:0:0:
109,192,104613,1,0,0:0:0:70:LR_Kick Dry Fast Low.wav
402,192,104797,128,0,105533:0:0:0:0:
329,192,104797,1,0,0:0:0:20:LR_CymbalFSU.wav
182,192,104797,1,0,0:0:0:40:LR_Snare Hit Hard.wav
256,192,104981,1,0,0:0:0:70:LR_Kick Dry Fast Low.wav
109,192,105165,128,0,105533:0:0:0:0:
182,192,105165,1,0,0:0:0:20:LR_CymbalFSU.wav
475,192,105165,1,0,0:0:0:40:LR_Snare Hit Hard.wav
256,192,105349,1,0,0:0:0:70:LR_Kick Dry Fast Low.wav
329,192,105533,1,0,0:0:0:40:LR_Snare Hit Hard.wav
36,192,105533,1,0,0:0:0:0:
402,192,105717,1,0,0:0:0:70:LR_Kick Dry Fast Low.wav
109,192,105717,1,0,0:0:0:20:LR_CymbalRDW.wav
182,192,105717,128,0,106913:0:0:0:0:
475,192,105717,128,0,106729:0:0:0:0:
256,192,105717,1,0,0:0:0:0:
36,192,106085,1,0,0:0:0:0:
329,192,106085,1,0,0:0:0:70:LR_Kick Dry Fast Low.wav
402,192,106269,1,0,0:0:0:40:LR_Snare Hit Hard.wav
109,192,106269,1,0,0:0:0:0:
256,192,106269,1,0,0:0:0:20:LR_CymbalFSU.wav
36,192,106637,1,0,0:0:0:70:LR_Kick Dry Fast Low.wav
329,192,106637,1,0,0:0:0:20:LR_CymbalFSU.wav
256,192,106821,1,0,0:0:0:70:LR_Kick Dry Fast Low.wav
475,192,106821,128,0,106913:0:0:0:0:
182,192,107005,1,0,0:0:0:40:LR_Snare Hit Hard.wav
402,192,107005,128,0,107097:0:0:0:0:
109,192,107189,1,0,0:0:0:70:LR_Kick Dry Fast Low.wav
329,192,107189,128,0,108386:0:0:0:0:
256,192,107189,1,0,0:0:0:0:
36,192,107189,128,0,108202:0:0:0:0:
475,192,107189,1,0,0:0:0:20:LR_CymbalRDW.wav
402,192,107558,1,0,0:0:0:70:LR_Kick Dry Fast Low.wav
182,192,107558,1,0,0:0:0:0:
109,192,107742,1,0,0:0:0:0:
256,192,107742,1,0,0:0:0:20:LR_CymbalFSU.wav
475,192,107742,1,0,0:0:0:40:LR_Snare Hit Hard.wav
182,192,108110,1,0,0:0:0:20:LR_CymbalFSU.wav
475,192,108110,1,0,0:0:0:70:LR_Kick Dry Fast Low.wav
36,192,108294,128,0,108386:0:0:0:0:
256,192,108294,1,0,0:0:0:70:LR_Kick Dry Fast Low.wav
109,192,108478,128,0,108570:0:0:0:0:
329,192,108478,1,0,0:0:0:40:LR_Snare Hit Hard.wav
256,192,108662,128,0,109950:0:0:0:0:
475,192,108662,1,0,0:0:0:70:LR_Kick Dry Fast Low.wav
402,192,108662,1,0,0:0:0:20:LR_CymbalRDW.wav
36,192,108662,128,0,109398:0:0:0:0:
182,192,108662,1,0,0:0:0:0:
109,192,109030,1,0,0:0:0:0:
329,192,109030,1,0,0:0:0:70:LR_Kick Dry Fast Low.wav
182,192,109214,1,0,0:0:0:20:LR_CymbalFSU.wav
402,192,109214,1,0,0:0:0:40:LR_Snare Hit Hard.wav
475,192,109214,1,0,0:0:0:0:
109,192,109398,1,0,0:0:0:0:
36,192,109582,128,0,109950:0:0:0:0:
182,192,109582,1,0,0:0:0:0:
329,192,109582,1,0,0:0:0:20:LR_CymbalFSU.wav
475,192,109582,1,0,0:0:0:70:LR_Kick Dry Fast Low.wav
109,192,109766,1,0,0:0:0:0:
402,192,109766,1,0,0:0:0:70:LR_Kick Dry Fast Low.wav
475,192,109950,1,0,0:0:0:0:
329,192,109950,1,0,0:0:0:40:LR_Snare Hit Hard.wav
182,192,109950,1,0,0:0:0:0:
36,192,110134,1,0,0:0:0:0:
182,192,110226,1,0,0:0:0:0:
329,192,110318,1,0,0:0:0:0:
475,192,110318,1,0,0:0:0:40:LR_Snare Hit Hard.wav
256,192,110502,1,0,0:0:0:0:
402,192,110686,1,0,0:0:0:0:
182,192,110686,1,0,0:0:0:20:LR_Snare Hit Hard.wav
329,192,110870,1,0,0:0:0:0:
256,192,111054,1,0,0:0:0:0:
182,192,111239,1,0,0:0:0:0:
